osu file format v14

[General]
AudioFilename: audio.mp3
AudioLeadIn: 0
PreviewTime: 47089
Countdown: 0
SampleSet: Normal
StackLeniency: 0.7
Mode: 1
LetterboxInBreaks: 0
WidescreenStoryboard: 1

[Editor]
DistanceSpacing: 2.1
BeatDivisor: 4
GridSize: 4
TimelineZoom: 1.1

[Metadata]
Title:1999
TitleUnicode:1999
Artist:Charli XCX & Troye Sivan
ArtistUnicode:Charli XCX & Troye Sivan
Creator:0gg
Version:Slim Muzu
Source:
Tags:english pop ogg electropop eurodance
BeatmapID:3565590
BeatmapSetID:1744031

[Difficulty]
HPDrainRate:7
CircleSize:5.1
OverallDifficulty:4.5
ApproachRate:5.4
SliderMultiplier:1.4
SliderTickRate:1

[Events]
//Background and Video events
Video,0,"video.mp4"
0,0,"eminem.png",0,0
//Break Periods
//Storyboard Layer 0 (Background)
//Storyboard Layer 1 (Fail)
//Storyboard Layer 2 (Pass)
//Storyboard Layer 3 (Foreground)
//Storyboard Layer 4 (Overlay)
//Storyboard Sound Samples

[TimingPoints]
154,483.870967741935,4,1,0,40,1,0
154,-100,4,1,0,40,0,0
636,-101.90756,4,1,0,40,0,0
878,-102.890945,4,1,0,40,0,0
1120,-103.893486,4,1,0,40,0,0
1362,-104.915764,4,1,0,40,0,0
1604,-105.95836,4,1,0,40,0,0
2088,-108.10698,4,1,0,40,0,0
2330,-109.214294,4,1,0,40,0,0
2572,-110.344536,4,1,0,40,0,0
3056,-112.676674,4,1,0,40,0,0
3298,-113.880104,4,1,0,40,0,0
3540,-115.10952,4,1,0,40,0,0
3782,-116.36577,4,1,0,40,0,0
4023,-117.64437,4,1,0,40,0,0
4265,-118.95689,4,1,0,40,0,0
4507,-120.298996,4,1,0,40,0,0
4870,-122.36994,4,1,0,40,0,0
4991,-123.076195,4,1,0,40,0,0
5233,-124.51344,4,1,0,40,0,0
5475,-125.98464,4,1,0,40,0,0
5717,-127.49103,4,1,0,40,0,0
5959,-129.03387,4,1,0,40,0,0
6443,-132.23438,4,1,0,40,0,0
6685,-133.89491,4,1,0,40,0,0
6927,-135.59767,4,1,0,40,0,0
7411,-139.13654,4,1,0,40,0,0
7652,-140.96843,4,1,0,40,0,0
7894,-142.85715,4,1,0,40,0,0
8377,-100,4,1,0,40,0,0
8620,-101.08788,4,1,0,40,0,0
8862,-102.19507,4,1,0,40,0,0
9104,-103.326775,4,1,0,40,0,0
9346,-104.483826,4,1,0,40,0,0
9830,-106.87745,4,1,0,40,0,0
10314,-109.38332,4,1,0,40,0,0
10556,-110.68085,4,1,0,40,0,0
10798,-112.00953,4,1,0,40,0,0
11040,-113.37049,4,1,0,40,0,0
11282,-114.76493,4,1,0,40,0,0
11523,-116.18812,4,1,0,40,0,0
11765,-117.65318,4,1,0,40,0,0
12007,-119.15567,4,1,0,40,0,0
12249,-120.69702,4,1,0,40,0,0
12612,-123.08531,4,1,0,40,0,0
12733,-123.90255,4,1,0,40,0,0
12975,-125.57002,4,1,0,40,0,0
13217,-127.28298,4,1,0,40,0,0
13459,-129.04333,4,1,0,40,0,0
13701,-130.85304,4,1,0,40,0,0
13943,-132.71425,4,1,0,40,0,0
14185,-134.62915,4,1,0,40,0,0
14669,-138.62967,4,1,0,40,0,0
14911,-140.72043,4,1,0,40,0,0
15032,-141.78964,4,1,0,40,0,0
15151,-142.85715,4,1,0,40,0,0
15635,-125.00001,4,1,0,40,0,0
15878,-122.440384,4,1,0,40,0,0
16120,-119.99339,4,1,0,40,0,0
16362,-117.6423,4,1,0,40,0,0
16483,-116.50097,4,1,0,40,0,0
16604,-115.38157,4,1,0,40,0,0
16846,-113.20609,4,1,0,40,0,0
17088,-111.11112,4,1,0,40,0,0
17572,-125.00001,4,1,0,40,0,0
17814,-122.44726,4,1,0,40,0,0
18056,-119.9967,4,1,0,40,0,0
18298,-117.642296,4,1,0,40,0,0
18419,-116.499405,4,1,0,40,0,0
18540,-115.3785,4,1,0,40,0,0
18782,-113.2002,4,1,0,40,0,0
19023,-111.11112,4,1,0,40,0,0
19507,-125.00001,4,1,0,40,0,0
19749,-122.64152,4,1,0,40,0,0
19991,-120.37038,4,1,0,40,0,0
20475,-116.071434,4,1,0,40,0,0
20717,-114.035095,4,1,0,40,0,0
20838,-113.04349,4,1,0,40,0,0
21080,-111.11112,4,1,0,40,0,0
21442,-125.00001,4,1,0,40,0,0
21685,-123.06911,4,1,0,40,0,0
21927,-121.20454,4,1,0,40,0,0
22169,-119.39563,4,1,0,40,0,0
22290,-118.51127,4,1,0,40,0,0
22411,-117.63991,4,1,0,40,0,0
22652,-115.94203,4,1,0,40,0,0
22773,-115.107925,4,1,0,40,0,0
23136,-112.67606,4,1,0,40,0,0
23378,-111.11112,4,1,0,40,0,0
23862,-125.00001,4,1,0,40,0,0
23983,-123.71135,4,1,0,40,0,0
24346,-120,4,1,0,40,0,0
24467,-118.81188,4,1,0,40,0,0
24830,-115.38462,4,1,0,40,0,0
24951,-114.28572,4,1,0,40,0,0
25314,-111.11112,4,1,0,40,0,0
25556,-125.00001,4,1,0,40,0,0
25798,-122.80574,4,1,0,40,0,0
26040,-120.6872,4,1,0,40,0,0
26161,-119.655106,4,1,0,40,0,0
26282,-118.64051,4,1,0,40,0,0
26523,-116.67012,4,1,0,40,0,0
26644,-115.70531,4,1,0,40,0,0
26886,-113.822784,4,1,0,40,0,0
27249,-111.11112,4,1,0,40,0,0
27491,-125.00001,4,1,0,40,0,0
27612,-123.85287,4,1,0,40,0,0
27733,-122.72659,4,1,0,40,0,0
27975,-120.53439,4,1,0,40,0,0
28096,-119.467415,4,1,0,40,0,0
28217,-118.41914,4,1,0,40,0,0
28459,-116.37685,4,1,0,40,0,0
28580,-115.3819,4,1,0,40,0,0
28822,-113.44218,4,1,0,40,0,0
29185,-110.65185,4,1,0,40,0,0
29306,-109.75201,4,1,0,40,0,0
29427,-108.86667,4,1,0,40,0,0
29669,-107.13817,4,1,0,40,0,0
29911,-105.46371,4,1,0,40,0,0
30032,-104.64595,4,1,0,40,0,0
30152,-103.84738,4,1,0,40,0,0
30515,-101.50423,4,1,0,40,0,0
30757,-100,4,1,0,40,0,0
31120,-90.90909,4,1,0,40,0,0
31604,-92.53775,4,1,0,40,0,0
31967,-93.79807,4,1,0,40,0,0
32088,-94.22584,4,1,0,40,0,0
32330,-95.093185,4,1,0,40,0,0
32572,-95.976654,4,1,0,40,0,0
33056,-97.79377,4,1,0,40,0,0
33298,-98.72838,4,1,0,40,0,0
33540,-99.681015,4,1,0,40,0,0
33782,-100.65222,4,1,0,40,0,0
34023,-101.6384,4,1,0,40,0,0
34265,-102.64832,4,1,0,40,0,0
34507,-103.67851,4,1,0,40,0,0
34749,-104.72959,4,1,0,40,0,0
34991,-105.802185,4,1,0,40,0,0
35475,-108.01469,4,1,0,40,0,0
35838,-109.735756,4,1,0,40,0,0
35959,-110.32169,4,1,0,40,0,0
36201,-111.51255,4,1,0,40,0,0
36443,-112.7294,4,1,0,40,0,0
36685,-113.97311,4,1,0,40,0,0
36927,-115.244545,4,1,0,40,0,0
37169,-116.544685,4,1,0,40,0,0
37652,-119.2293,4,1,0,40,0,0
37894,-120.62144,4,1,0,40,0,0
38136,-122.04647,4,1,0,40,0,0
38378,-123.50559,4,1,0,40,0,0
38620,-125.00001,4,1,0,40,0,0
38862,-90.90909,4,1,0,40,0,0
39346,-92.715775,4,1,0,40,0,0
39709,-94.11862,4,1,0,40,0,0
39830,-94.595726,4,1,0,40,0,0
40072,-95.564575,4,1,0,40,0,0
40314,-96.55349,4,1,0,40,0,0
40798,-98.59401,4,1,0,40,0,0
41040,-99.64695,4,1,0,40,0,0
41282,-100.722626,4,1,0,40,0,0
41523,-101.81719,4,1,0,40,0,0
41765,-102.9405,4,1,0,40,0,0
42007,-104.088875,4,1,0,40,0,0
42249,-105.26315,4,1,0,40,0,0
42491,-106.46423,4,1,0,40,0,0
42733,-107.69304,4,1,0,40,0,0
43217,-110.23776,4,1,0,40,0,0
43459,-111.555756,4,1,0,40,0,0
44185,-115.70587,4,1,0,40,0,0
44427,-117.15872,4,1,0,40,0,0
44669,-118.64853,4,1,0,40,0,0
45636,-125.00001,4,1,0,40,0,0
46524,-125.00001,4,1,0,50,0,0
46605,-62.5,4,1,0,50,0,1
46968,-76.9230769230769,4,1,0,50,0,1
62089,-76.9230769230769,4,1,0,50,0,0
64022,-100,4,1,0,50,0,0
64265,-101.45448,4,1,0,50,0,0
64507,-102.94564,4,1,0,50,0,0
64749,-104.48129,4,1,0,50,0,0
64991,-106.06345,4,1,0,50,0,0
65233,-107.69427,4,1,0,50,0,0
65475,-109.37601,4,1,0,50,0,0
65959,-100,4,1,0,50,0,0
66201,-101.5625,4,1,0,50,0,0
66443,-103.17461,4,1,0,50,0,0
66685,-104.83871,4,1,0,50,0,0
66806,-105.69106,4,1,0,50,0,0
66927,-106.55737,4,1,0,50,0,0
67290,-109.2437,4,1,0,50,0,0
67532,-111.111115,4,1,0,50,0,0
67892,-100,4,1,0,50,0,0
68136,-101.275085,4,1,0,50,0,0
68378,-102.57224,4,1,0,50,0,0
68620,-103.90307,4,1,0,50,0,0
68741,-104.58151,4,1,0,50,0,0
68862,-105.268875,4,1,0,50,0,0
69225,-107.38627,4,1,0,50,0,0
69467,-108.84583,4,1,0,50,0,0
69588,-109.59059,4,1,0,50,0,0
69830,-111.111115,4,1,0,50,0,0
70313,-100,4,1,0,50,0,0
70435,-98.34733,4,1,0,50,0,0
70798,-93.73789,4,1,0,50,0,0
70919,-92.29596,4,1,0,50,0,0
71282,-88.22456,4,1,0,50,0,0
71402,-86.95651,4,1,0,50,0,0
71765,-83.33333,4,1,0,50,0,0
72007,-100,4,1,0,50,0,0
72249,-97.22223,4,1,0,50,0,0
72491,-94.5946,4,1,0,50,0,0
72612,-93.33333,4,1,0,50,0,0
72733,-92.10527,4,1,0,50,0,0
73096,-88.6076,4,1,0,50,0,0
73338,-86.419754,4,1,0,50,0,0
73701,-83.33333,4,1,0,50,0,0
73944,-100,4,1,0,50,0,0
75513,-100,4,1,0,50,0,0
75636,-99.421585,4,1,0,50,0,0
75878,-97.40184,4,1,0,50,0,0
76120,-94.84344,4,1,0,50,0,0
76241,-93.44703,4,1,0,50,0,0
76362,-91.99902,4,1,0,50,0,0
76604,-89.00359,4,1,0,50,0,0
76846,-85.94386,4,1,0,50,0,0
76967,-84.40919,4,1,0,50,0,0
77209,-81.35825,4,1,0,50,0,0
77569,-76.92308,4,1,0,50,0,0
78056,-78.05365,4,1,0,50,0,0
78419,-78.92001,4,1,0,50,0,0
78540,-79.2131,4,1,0,50,0,0
78782,-79.805824,4,1,0,50,0,0
79023,-80.40498,4,1,0,50,0,0
79507,-81.63589,4,1,0,50,0,0
79749,-82.26557,4,1,0,50,0,0
79991,-82.905045,4,1,0,50,0,0
80233,-83.55455,4,1,0,50,0,0
80475,-84.2143,4,1,0,50,0,0
80717,-84.88457,4,1,0,50,0,0
80959,-85.565575,4,1,0,50,0,0
81201,-86.257614,4,1,0,50,0,0
81443,-86.96092,4,1,0,50,0,0
81927,-88.40252,4,1,0,50,0,0
82290,-89.51549,4,1,0,50,0,0
82411,-89.89273,4,1,0,50,0,0
82652,-90.653656,4,1,0,50,0,0
82894,-91.4308,4,1,0,50,0,0
83015,-91.8244,4,1,0,50,0,0
83136,-92.22139,4,1,0,50,0,0
83378,-93.02578,4,1,0,50,0,0
83620,-93.844315,4,1,0,50,0,0
84104,-95.52538,4,1,0,50,0,0
84346,-96.38871,4,1,0,50,0,0
84588,-97.26776,4,1,0,50,0,0
84830,-98.16302,4,1,0,50,0,0
85313,-76.9230828402365,4,1,0,50,0,0
85797,-76.92308,4,1,0,50,0,0
86161,-77.75817,4,1,0,50,0,0
86282,-78.039795,4,1,0,50,0,0
86523,-78.60686,4,1,0,50,0,0
86765,-79.184616,4,1,0,50,0,0
87249,-80.36598,4,1,0,50,0,0
87491,-80.97,4,1,0,50,0,0
87733,-81.58315,4,1,0,50,0,0
87975,-82.205666,4,1,0,50,0,0
88217,-82.837746,4,1,0,50,0,0
88459,-83.47963,4,1,0,50,0,0
88701,-84.13153,4,1,0,50,0,0
88943,-84.7937,4,1,0,50,0,0
89183,-85.46077,4,1,0,50,0,0
89669,-90.2273,4,1,0,50,0,0
89911,-92.810165,4,1,0,50,0,0
90636,-101.51627,4,1,0,50,0,0
90878,-104.79766,4,1,0,50,0,0
91121,-108.31322,4,1,0,50,0,0
92088,-125.00001,4,1,0,50,0,0
93057,-62.5,4,1,0,50,0,1
93420,-76.9230769230769,4,1,0,50,0,1
108541,-62.5,4,1,0,50,0,1
108781,-76.9230769230769,4,1,0,50,0,1
123055,-76.92308,4,1,0,50,0,1
123298,-74.442116,4,1,0,50,0,1
123419,-72.659386,4,1,0,50,0,1
123540,-70.72098,4,1,0,50,0,1
123782,-66.625374,4,1,0,50,0,1
124024,-62.500004,4,1,0,50,0,0
124266,-125.000016,4,1,0,40,0,0
126927,-111.111115,4,1,0,40,0,0
127169,-113.20902,4,1,0,40,0,0
127411,-115.38768,4,1,0,40,0,0
127652,-117.64229,4,1,0,40,0,0
127894,-119.99669,4,1,0,40,0,0
128136,-122.44726,4,1,0,40,0,0
128378,-125.00001,4,1,0,40,0,0
131524,-111.111111111111,4,1,0,40,0,0
138541,-113.636363636364,4,1,0,40,0,0
139024,-119.047619047619,4,1,0,40,0,0
139508,-125,4,1,0,40,0,0
140233,-100,4,1,0,40,0,0
140475,-102.04082,4,1,0,40,0,0
140717,-104.16667,4,1,0,40,0,0
140959,-106.38298,4,1,0,40,0,0
141201,-108.69565,4,1,0,40,0,0
141443,-111.111115,4,1,0,40,0,0
142169,-100,4,1,0,40,0,0
142411,-102.042534,4,1,0,40,0,0
142652,-104.161285,4,1,0,40,0,0
142894,-106.379234,4,1,0,40,0,0
143136,-108.6937,4,1,0,40,0,0
143378,-111.111115,4,1,0,40,0,0
144104,-90.90909,4,1,0,40,0,0
144225,-92.592575,4,1,0,40,0,0
144346,-94.339615,4,1,0,40,0,0
144588,-98.039215,4,1,0,40,0,0
144830,-102.04082,4,1,0,40,0,0
145072,-106.38298,4,1,0,40,0,0
145313,-111.111115,4,1,0,40,0,0
145556,-108.15964,4,1,0,40,0,0
146040,-98.62925,4,1,0,40,0,0
146282,-93.43152,4,1,0,40,0,0
146523,-88.30672,4,1,0,40,0,0
146765,-83.33333,4,1,0,40,0,0
147170,-83.33333,4,1,0,50,0,0
147250,-62.5,4,1,0,50,0,1
147613,-76.9230769230769,4,1,0,50,0,1
162734,-62.5,4,1,0,50,0,1
162976,-76.9230769230769,4,1,0,50,0,1
178218,-62.5,4,1,0,50,0,1
178460,-76.9230769230769,4,1,0,50,0,1
184022,-76.92308,4,1,0,50,0,1
184265,-77.584816,4,1,0,50,0,1
184386,-78.0959,4,1,0,50,0,1
184507,-78.68917,4,1,0,50,0,1
184749,-80.09115,4,1,0,50,0,1
184991,-81.75866,4,1,0,50,0,1
185233,-83.685684,4,1,0,50,0,1
185475,-85.87923,4,1,0,50,0,1
185717,-88.35532,4,1,0,50,0,1
185960,-91.13792,4,1,0,50,0,0
186322,-95.95856,4,1,0,50,0,0
186685,-101.68902,4,1,0,50,0,0
187170,-111.111115,4,1,0,50,0,0

[HitObjects]
277,190,154,5,0,0:0:0:0:
277,190,637,1,8,0:0:0:0:
277,190,879,1,8,0:0:0:0:
245,146,1121,1,0,0:0:0:0:
232,147,1363,1,0,0:0:0:0:
229,146,1605,1,8,0:0:0:0:
240,130,2089,1,8,0:0:0:0:
257,117,2331,1,0,0:0:0:0:
257,117,2573,1,8,0:0:0:0:
252,116,3057,1,0,0:0:0:0:
238,118,3299,1,0,0:0:0:0:
238,118,3541,1,8,0:0:0:0:
238,118,3783,1,0,0:0:0:0:
238,118,4024,1,8,0:0:0:0:
238,118,4266,1,0,0:0:0:0:
238,118,4508,1,8,0:0:0:0:
226,107,4871,1,0,0:0:0:0:
226,107,4992,1,0,0:0:0:0:
227,104,5234,1,0,0:0:0:0:
227,104,5476,1,8,0:0:0:0:
226,107,5718,1,8,0:0:0:0:
226,107,5960,1,8,0:0:0:0:
227,104,6444,1,8,0:0:0:0:
226,107,6686,1,8,0:0:0:0:
226,107,6928,1,0,0:0:0:0:
225,115,7412,1,8,0:0:0:0:
226,107,7653,1,0,0:0:0:0:
226,107,7895,1,0,0:0:0:0:
236,107,8379,1,8,0:0:0:0:
236,107,8621,1,8,0:0:0:0:
235,108,8863,1,0,0:0:0:0:
236,107,9105,1,0,0:0:0:0:
216,88,9347,1,8,0:0:0:0:
216,88,9831,1,0,0:0:0:0:
216,88,10315,1,8,0:0:0:0:
229,84,10557,1,8,0:0:0:0:
229,84,10799,1,0,0:0:0:0:
231,70,11041,1,0,0:0:0:0:
237,68,11283,1,8,0:0:0:0:
238,70,11524,1,8,0:0:0:0:
238,70,11766,1,8,0:0:0:0:
238,70,12008,1,0,0:0:0:0:
237,68,12250,1,0,0:0:0:0:
232,81,12613,1,0,0:0:0:0:
232,81,12734,1,0,0:0:0:0:
231,83,12976,1,8,0:0:0:0:
231,83,13218,1,8,0:0:0:0:
232,81,13460,1,0,0:0:0:0:
232,81,13702,1,8,0:0:0:0:
231,83,13944,1,0,0:0:0:0:
231,83,14186,1,8,0:0:0:0:
240,89,14670,1,0,0:0:0:0:
223,141,14912,1,8,0:0:0:0:
217,112,15033,1,8,0:0:0:0:
216,105,15153,1,8,0:0:0:0:
271,164,15637,1,0,0:0:0:0:
271,164,15879,1,8,0:0:0:0:
221,131,16121,1,8,0:0:0:0:
134,149,16363,1,8,0:0:0:0:
196,141,16484,1,0,0:0:0:0:
302,140,16605,1,8,0:0:0:0:
227,116,16847,1,0,0:0:0:0:
238,90,17089,1,8,0:0:0:0:
239,101,17573,1,0,0:0:0:0:
239,101,17815,1,0,0:0:0:0:
238,90,18057,1,8,0:0:0:0:
200,114,18299,1,0,0:0:0:0:
186,97,18420,1,0,0:0:0:0:
193,93,18541,1,0,0:0:0:0:
230,102,18783,1,0,0:0:0:0:
229,101,19024,1,8,0:0:0:0:
229,88,19508,1,0,0:0:0:0:
229,88,19750,1,8,0:0:0:0:
229,88,19992,1,8,0:0:0:0:
202,110,20476,1,8,0:0:0:0:
197,86,20718,1,0,0:0:0:0:
284,192,20839,1,8,0:0:0:0:
264,136,21081,1,8,0:0:0:0:
245,89,21444,1,0,0:0:0:0:
245,89,21686,1,8,0:0:0:0:
266,115,21928,1,8,0:0:0:0:
226,118,22170,1,8,0:0:0:0:
226,118,22291,1,0,0:0:0:0:
226,118,22412,1,8,0:0:0:0:
199,83,22653,1,0,0:0:0:0:
201,68,22774,1,8,0:0:0:0:
221,78,23137,1,8,0:0:0:0:
226,75,23379,1,0,0:0:0:0:
218,73,23863,1,8,0:0:0:0:
218,77,23984,1,8,0:0:0:0:
218,73,24347,1,8,0:0:0:0:
218,73,24468,1,8,0:0:0:0:
218,73,24831,1,8,0:0:0:0:
218,77,24952,1,8,0:0:0:0:
242,39,25315,1,0,0:0:0:0:
236,57,25557,1,8,0:0:0:0:
236,57,25799,1,8,0:0:0:0:
236,57,26041,1,8,0:0:0:0:
225,42,26162,1,0,0:0:0:0:
225,42,26283,1,8,0:0:0:0:
225,43,26524,1,0,0:0:0:0:
242,77,26645,1,8,0:0:0:0:
263,88,26887,1,0,0:0:0:0:
263,88,27250,1,0,0:0:0:0:
233,107,27492,1,8,0:0:0:0:
233,107,27613,1,8,0:0:0:0:
246,77,27734,1,8,0:0:0:0:
240,88,27976,1,0,0:0:0:0:
240,88,28097,1,0,0:0:0:0:
245,78,28218,1,0,0:0:0:0:
229,85,28460,1,0,0:0:0:0:
229,85,28581,1,8,0:0:0:0:
243,70,28823,1,8,0:0:0:0:
237,69,29186,1,8,0:0:0:0:
241,83,29307,1,0,0:0:0:0:
241,83,29428,1,8,0:0:0:0:
170,112,29670,1,8,0:0:0:0:
222,118,29912,1,0,0:0:0:0:
194,98,30033,1,0,0:0:0:0:
187,91,30153,1,0,0:0:0:0:
245,93,30516,1,8,0:0:0:0:
245,93,30758,1,0,0:0:0:0:
19,99,31121,1,4,0:0:0:0:
192,140,31605,1,8,0:0:0:0:
192,140,31968,1,0,0:0:0:0:
192,140,32089,1,0,0:0:0:0:
187,136,32331,1,0,0:0:0:0:
187,136,32573,1,8,0:0:0:0:
180,132,33057,1,0,0:0:0:0:
180,132,33299,1,0,0:0:0:0:
179,132,33541,1,8,0:0:0:0:
180,132,33783,1,8,0:0:0:0:
180,132,34024,1,0,0:0:0:0:
180,132,34266,1,0,0:0:0:0:
222,73,34508,1,8,0:0:0:0:
222,73,34750,1,8,0:0:0:0:
222,73,34992,1,0,0:0:0:0:
248,113,35476,1,8,0:0:0:0:
221,106,35839,1,8,0:0:0:0:
221,106,35960,1,0,0:0:0:0:
225,85,36202,1,8,0:0:0:0:
232,89,36444,1,8,0:0:0:0:
231,89,36686,1,0,0:0:0:0:
231,89,36928,1,0,0:0:0:0:
236,88,37170,1,8,0:0:0:0:
246,89,37653,1,0,0:0:0:0:
245,89,37895,1,8,0:0:0:0:
245,89,38137,1,8,0:0:0:0:
246,89,38379,1,0,0:0:0:0:
269,85,38621,1,0,0:0:0:0:
19,99,38863,1,4,0:0:0:0:
199,157,39347,1,8,0:0:0:0:
192,138,39710,1,8,0:0:0:0:
192,138,39831,1,0,0:0:0:0:
193,134,40073,1,0,0:0:0:0:
193,134,40315,1,8,0:0:0:0:
192,138,40799,1,8,0:0:0:0:
193,134,41041,1,8,0:0:0:0:
193,134,41283,1,0,0:0:0:0:
192,138,41524,1,8,0:0:0:0:
192,138,41766,1,0,0:0:0:0:
193,134,42008,1,0,0:0:0:0:
193,134,42250,1,8,0:0:0:0:
192,138,42492,1,8,0:0:0:0:
192,138,42734,1,0,0:0:0:0:
233,99,43218,1,0,0:0:0:0:
233,99,43460,1,8,0:0:0:0:
222,97,44186,1,0,0:0:0:0:
222,97,44428,1,8,0:0:0:0:
256,192,45637,8,0,46363,0:0:0:0:
19,99,46605,5,12,0:0:0:0:
276,152,47089,1,8,0:0:0:0:
283,136,47331,1,0,0:0:0:0:
287,124,47452,1,0,0:0:0:0:
287,124,47573,1,0,0:0:0:0:
258,118,47815,1,0,0:0:0:0:
258,123,48057,1,8,0:0:0:0:
287,124,48541,1,0,0:0:0:0:
285,134,48783,1,8,0:0:0:0:
256,117,48903,1,8,0:0:0:0:
269,113,49024,1,8,0:0:0:0:
215,113,49266,1,8,0:0:0:0:
215,113,49508,1,0,0:0:0:0:
226,99,49629,1,8,0:0:0:0:
226,99,49750,1,0,0:0:0:0:
260,88,49992,1,8,0:0:0:0:
266,84,50113,1,0,0:0:0:0:
310,75,50234,1,8,0:0:0:0:
232,101,50476,1,0,0:0:0:0:
211,153,50718,1,0,0:0:0:0:
214,137,50960,1,8,0:0:0:0:
213,95,51323,1,0,0:0:0:0:
231,90,51444,1,0,0:0:0:0:
246,92,51686,1,0,0:0:0:0:
244,93,51928,1,8,0:0:0:0:
235,79,52170,1,8,0:0:0:0:
231,75,52412,1,0,0:0:0:0:
224,73,52895,1,8,0:0:0:0:
220,73,53137,1,0,0:0:0:0:
211,68,53379,1,0,0:0:0:0:
182,83,53621,1,8,0:0:0:0:
230,111,53863,1,8,0:0:0:0:
181,151,54105,1,8,0:0:0:0:
193,35,54347,1,0,0:0:0:0:
195,98,54831,1,8,0:0:0:0:
237,88,55073,1,0,0:0:0:0:
218,71,55194,1,0,0:0:0:0:
218,69,55315,1,0,0:0:0:0:
210,57,55557,1,0,0:0:0:0:
223,72,55799,1,8,0:0:0:0:
204,44,56283,1,0,0:0:0:0:
196,162,56524,1,0,0:0:0:0:
196,162,56645,1,8,0:0:0:0:
196,162,56766,1,0,0:0:0:0:
217,100,57008,1,0,0:0:0:0:
211,84,57250,1,8,0:0:0:0:
222,117,57492,1,8,0:0:0:0:
261,85,57734,1,8,0:0:0:0:
223,61,57855,1,0,0:0:0:0:
219,87,57976,1,8,0:0:0:0:
235,124,58218,1,0,0:0:0:0:
281,137,58460,1,0,0:0:0:0:
274,136,58702,1,8,0:0:0:0:
277,99,59065,1,0,0:0:0:0:
289,99,59186,1,0,0:0:0:0:
228,110,59428,1,0,0:0:0:0:
253,93,59670,1,8,0:0:0:0:
203,88,59912,1,0,0:0:0:0:
203,88,60153,1,8,0:0:0:0:
213,62,60637,1,8,0:0:0:0:
217,73,60879,1,8,0:0:0:0:
219,72,61121,1,0,0:0:0:0:
219,71,61242,1,0,0:0:0:0:
219,71,61363,1,0,0:0:0:0:
217,100,61605,1,8,0:0:0:0:
217,143,61847,1,0,0:0:0:0:
240,146,64024,1,0,0:0:0:0:
194,130,64266,1,8,0:0:0:0:
194,130,64508,1,8,0:0:0:0:
202,148,64750,1,8,0:0:0:0:
202,147,64992,1,8,0:0:0:0:
194,121,65234,1,8,0:0:0:0:
194,121,65476,1,8,0:0:0:0:
266,104,65960,1,0,0:0:0:0:
254,100,66202,1,8,0:0:0:0:
254,100,66444,1,8,0:0:0:0:
226,115,66686,1,8,0:0:0:0:
226,115,66807,1,0,0:0:0:0:
228,87,66928,1,8,0:0:0:0:
217,90,67291,1,8,0:0:0:0:
217,93,67533,1,8,0:0:0:0:
139,136,67895,1,0,0:0:0:0:
176,113,68137,1,8,0:0:0:0:
183,104,68379,1,8,0:0:0:0:
190,90,68621,1,0,0:0:0:0:
193,88,68742,1,0,0:0:0:0:
203,91,68863,1,0,0:0:0:0:
301,117,69226,1,8,0:0:0:0:
277,93,69468,1,0,0:0:0:0:
181,114,69589,1,8,0:0:0:0:
225,60,69831,1,0,0:0:0:0:
225,135,70315,1,8,0:0:0:0:
225,135,70436,1,0,0:0:0:0:
225,135,70799,1,8,0:0:0:0:
225,135,70920,1,0,0:0:0:0:
264,117,71283,1,8,0:0:0:0:
249,81,71403,1,0,0:0:0:0:
199,110,71766,1,0,0:0:0:0:
287,144,72008,1,8,0:0:0:0:
287,144,72250,1,8,0:0:0:0:
250,155,72492,1,8,0:0:0:0:
250,155,72613,1,0,0:0:0:0:
250,155,72734,1,8,0:0:0:0:
225,134,73097,1,8,0:0:0:0:
225,134,73339,1,0,0:0:0:0:
273,147,73702,1,0,0:0:0:0:
250,127,73944,1,8,0:0:0:0:
245,131,74065,1,8,0:0:0:0:
244,131,74186,1,8,0:0:0:0:
230,123,74428,1,0,0:0:0:0:
230,123,74549,1,0,0:0:0:0:
230,124,74670,1,0,0:0:0:0:
260,170,75033,1,8,0:0:0:0:
255,87,75274,1,8,0:0:0:0:
247,101,75516,1,8,0:0:0:0:
221,91,75637,1,0,0:0:0:0:
183,110,75879,1,8,0:0:0:0:
259,117,76121,1,0,0:0:0:0:
225,118,76242,1,0,0:0:0:0:
247,101,76363,1,0,0:0:0:0:
247,117,76605,1,8,0:0:0:0:
215,124,76847,1,8,0:0:0:0:
223,142,76968,1,0,0:0:0:0:
336,160,77210,1,8,0:0:0:0:
227,61,77573,1,0,0:0:0:0:
266,117,78057,1,8,0:0:0:0:
218,117,78420,1,8,0:0:0:0:
208,132,78541,1,0,0:0:0:0:
280,132,78783,1,0,0:0:0:0:
280,132,79024,1,8,0:0:0:0:
300,106,79508,1,0,0:0:0:0:
305,89,79750,1,0,0:0:0:0:
312,93,79992,1,8,0:0:0:0:
312,93,80234,1,8,0:0:0:0:
246,113,80476,1,0,0:0:0:0:
259,108,80718,1,0,0:0:0:0:
259,108,80960,1,8,0:0:0:0:
259,108,81202,1,8,0:0:0:0:
259,108,81444,1,0,0:0:0:0:
274,110,81928,1,8,0:0:0:0:
235,92,82291,1,0,0:0:0:0:
235,92,82412,1,0,0:0:0:0:
260,97,82653,1,0,0:0:0:0:
251,93,82895,1,8,0:0:0:0:
250,94,83016,1,0,0:0:0:0:
250,94,83137,1,8,0:0:0:0:
257,97,83379,1,0,0:0:0:0:
260,97,83621,1,8,0:0:0:0:
257,97,84105,1,0,0:0:0:0:
257,97,84347,1,8,0:0:0:0:
236,95,84589,1,8,0:0:0:0:
283,111,84831,1,8,0:0:0:0:
225,57,85315,1,0,0:0:0:0:
287,125,85799,1,8,0:0:0:0:
221,107,86162,1,0,0:0:0:0:
221,107,86283,1,0,0:0:0:0:
225,99,86524,1,0,0:0:0:0:
225,99,86766,1,8,0:0:0:0:
320,94,87250,1,8,0:0:0:0:
311,95,87492,1,8,0:0:0:0:
311,107,87734,1,0,0:0:0:0:
310,107,87976,1,8,0:0:0:0:
310,107,88218,1,0,0:0:0:0:
310,107,88460,1,0,0:0:0:0:
311,107,88702,1,8,0:0:0:0:
304,87,88944,1,8,0:0:0:0:
245,54,89186,1,0,0:0:0:0:
276,105,89670,1,0,0:0:0:0:
276,105,89912,1,8,0:0:0:0:
166,142,90637,1,0,0:0:0:0:
166,142,90879,1,8,0:0:0:0:
256,192,92089,8,0,92815,0:0:0:0:
19,99,93057,5,12,0:0:0:0:
206,154,93541,1,8,0:0:0:0:
202,142,93783,1,0,0:0:0:0:
210,81,93903,1,0,0:0:0:0:
210,81,94024,1,0,0:0:0:0:
205,83,94266,1,0,0:0:0:0:
194,96,94508,1,8,0:0:0:0:
226,99,94992,1,0,0:0:0:0:
203,92,95234,1,0,0:0:0:0:
216,110,95355,1,8,0:0:0:0:
288,114,95476,1,0,0:0:0:0:
178,101,95718,1,0,0:0:0:0:
207,89,95960,1,8,0:0:0:0:
193,97,96081,1,8,0:0:0:0:
195,90,96202,1,8,0:0:0:0:
184,85,96444,1,8,0:0:0:0:
186,84,96565,1,0,0:0:0:0:
186,85,96686,1,8,0:0:0:0:
229,122,96928,1,8,0:0:0:0:
298,66,97170,1,8,0:0:0:0:
268,87,97412,1,8,0:0:0:0:
191,93,97774,1,0,0:0:0:0:
191,93,97895,1,0,0:0:0:0:
191,93,98137,1,0,0:0:0:0:
202,60,98379,1,8,0:0:0:0:
196,74,98621,1,8,0:0:0:0:
194,75,98863,1,0,0:0:0:0:
187,82,99347,1,8,0:0:0:0:
189,81,99589,1,8,0:0:0:0:
188,74,99710,1,0,0:0:0:0:
188,76,99831,1,8,0:0:0:0:
187,77,100073,1,0,0:0:0:0:
236,82,100315,1,8,0:0:0:0:
198,153,100436,1,8,0:0:0:0:
251,128,100557,1,8,0:0:0:0:
207,99,100799,1,0,0:0:0:0:
241,125,101283,1,8,0:0:0:0:
222,162,101524,1,8,0:0:0:0:
213,135,101766,1,0,0:0:0:0:
189,120,102008,1,0,0:0:0:0:
193,102,102250,1,8,0:0:0:0:
240,100,102734,1,0,0:0:0:0:
222,98,102976,1,8,0:0:0:0:
177,104,103097,1,8,0:0:0:0:
186,104,103218,1,8,0:0:0:0:
185,95,103460,1,8,0:0:0:0:
172,92,103702,1,0,0:0:0:0:
171,95,103944,1,0,0:0:0:0:
171,95,104186,1,8,0:0:0:0:
254,88,104307,1,0,0:0:0:0:
181,122,104428,1,8,0:0:0:0:
255,110,104670,1,0,0:0:0:0:
209,135,104912,1,0,0:0:0:0:
253,140,105153,1,8,0:0:0:0:
239,116,105516,1,8,0:0:0:0:
239,116,105637,1,0,0:0:0:0:
239,116,105879,1,8,0:0:0:0:
242,79,106000,1,8,0:0:0:0:
239,116,106121,1,8,0:0:0:0:
264,89,106363,1,8,0:0:0:0:
262,92,106605,1,0,0:0:0:0:
251,88,107089,1,8,0:0:0:0:
205,114,107331,1,8,0:0:0:0:
205,114,107573,1,0,0:0:0:0:
204,102,107815,1,0,0:0:0:0:
267,137,108057,1,8,0:0:0:0:
184,160,108178,1,0,0:0:0:0:
224,131,108299,1,8,0:0:0:0:
19,99,108541,1,12,0:0:0:0:
250,193,108903,1,8,0:0:0:0:
250,193,109145,1,0,0:0:0:0:
268,120,109266,1,8,0:0:0:0:
266,132,109508,1,0,0:0:0:0:
266,132,109750,1,0,0:0:0:0:
266,132,109992,1,8,0:0:0:0:
266,97,110234,1,0,0:0:0:0:
225,119,110476,1,8,0:0:0:0:
231,113,110718,1,0,0:0:0:0:
233,122,110839,1,8,0:0:0:0:
231,113,111202,1,0,0:0:0:0:
233,103,111444,1,0,0:0:0:0:
219,98,111686,1,0,0:0:0:0:
226,103,111928,1,8,0:0:0:0:
220,79,112049,1,8,0:0:0:0:
181,136,112170,1,8,0:0:0:0:
196,111,112412,1,8,0:0:0:0:
270,131,112774,1,8,0:0:0:0:
223,94,113137,1,8,0:0:0:0:
234,60,113379,1,0,0:0:0:0:
234,60,113621,1,0,0:0:0:0:
232,62,113863,1,8,0:0:0:0:
227,76,114105,1,0,0:0:0:0:
212,73,114347,1,8,0:0:0:0:
207,72,114589,1,0,0:0:0:0:
206,71,114710,1,8,0:0:0:0:
196,78,115073,1,8,0:0:0:0:
270,76,115315,1,0,0:0:0:0:
234,51,115557,1,0,0:0:0:0:
225,83,115799,1,8,0:0:0:0:
368,122,115920,1,0,0:0:0:0:
175,153,116041,1,8,0:0:0:0:
230,72,116283,1,0,0:0:0:0:
272,110,116766,1,8,0:0:0:0:
271,99,117008,1,0,0:0:0:0:
224,79,117129,1,0,0:0:0:0:
224,79,117250,1,0,0:0:0:0:
224,79,117492,1,0,0:0:0:0:
224,79,117734,1,8,0:0:0:0:
219,93,118218,1,0,0:0:0:0:
237,93,118460,1,0,0:0:0:0:
281,146,118581,1,8,0:0:0:0:
283,141,118702,1,0,0:0:0:0:
290,78,118944,1,8,0:0:0:0:
249,103,119186,1,8,0:0:0:0:
230,79,119428,1,0,0:0:0:0:
219,75,119670,1,8,0:0:0:0:
219,75,119791,1,0,0:0:0:0:
216,76,119912,1,8,0:0:0:0:
350,92,120153,1,8,0:0:0:0:
276,127,120395,1,8,0:0:0:0:
273,123,120637,1,0,0:0:0:0:
206,157,121121,1,0,0:0:0:0:
223,127,121363,1,0,0:0:0:0:
258,137,121605,1,8,0:0:0:0:
255,121,122089,1,8,0:0:0:0:
249,121,122331,1,0,0:0:0:0:
246,116,122573,1,8,0:0:0:0:
246,116,122815,1,0,0:0:0:0:
256,134,123057,1,0,0:0:0:0:
184,84,123299,1,8,0:0:0:0:
247,43,123420,1,8,0:0:0:0:
243,48,123541,1,8,0:0:0:0:
252,90,123783,1,8,0:0:0:0:
147,80,124024,1,0,0:0:0:0:
235,152,126928,1,0,0:0:0:0:
235,152,127170,1,0,0:0:0:0:
235,152,127412,1,8,0:0:0:0:
206,145,127653,1,8,0:0:0:0:
199,146,127895,1,0,0:0:0:0:
199,146,128137,1,0,0:0:0:0:
199,146,128379,1,8,0:0:0:0:
209,143,131524,1,8,0:0:0:0:
188,131,131766,1,0,0:0:0:0:
192,172,132008,1,0,0:0:0:0:
192,172,132250,1,8,0:0:0:0:
192,172,132492,1,0,0:0:0:0:
192,172,132734,1,8,0:0:0:0:
192,172,132976,1,8,0:0:0:0:
192,172,133218,1,0,0:0:0:0:
192,172,133460,1,0,0:0:0:0:
192,172,133702,1,8,0:0:0:0:
192,172,133944,1,8,0:0:0:0:
192,172,134186,1,8,0:0:0:0:
284,144,134307,1,0,0:0:0:0:
192,172,134428,1,8,0:0:0:0:
192,172,134670,1,8,0:0:0:0:
189,116,135395,1,0,0:0:0:0:
189,116,135637,1,8,0:0:0:0:
189,116,135879,1,8,0:0:0:0:
189,116,136121,1,0,0:0:0:0:
200,88,136363,1,8,0:0:0:0:
197,93,136605,1,0,0:0:0:0:
197,93,136847,1,0,0:0:0:0:
197,93,137089,1,8,0:0:0:0:
197,93,137331,1,8,0:0:0:0:
197,93,137573,1,0,0:0:0:0:
197,93,137815,1,8,0:0:0:0:
197,93,138057,1,8,0:0:0:0:
241,94,138178,1,0,0:0:0:0:
197,93,138299,1,8,0:0:0:0:
197,93,138541,1,8,0:0:0:0:
143,113,139024,1,8,0:0:0:0:
143,113,139508,1,0,0:0:0:0:
219,150,140234,1,0,0:0:0:0:
219,150,140476,1,8,0:0:0:0:
249,138,140718,1,0,0:0:0:0:
282,144,140960,1,8,0:0:0:0:
260,129,141202,1,0,0:0:0:0:
191,110,142170,1,8,0:0:0:0:
172,101,142412,1,8,0:0:0:0:
191,110,142653,1,0,0:0:0:0:
196,109,142895,1,8,0:0:0:0:
196,112,143137,1,0,0:0:0:0:
196,121,144105,1,8,0:0:0:0:
196,121,144226,1,8,0:0:0:0:
196,121,144347,1,8,0:0:0:0:
271,131,144589,1,0,0:0:0:0:
271,131,144831,1,8,0:0:0:0:
271,131,145073,1,0,0:0:0:0:
251,118,145557,1,0,0:0:0:0:
251,118,146041,1,0,0:0:0:0:
251,118,146283,1,8,0:0:0:0:
251,118,146524,1,8,0:0:0:0:
251,118,146766,1,0,0:0:0:0:
19,99,147250,1,4,0:0:0:0:
211,172,147734,1,8,0:0:0:0:
203,159,147976,1,0,0:0:0:0:
205,130,148097,1,8,0:0:0:0:
196,138,148218,1,0,0:0:0:0:
196,140,148460,1,0,0:0:0:0:
208,109,148702,1,8,0:0:0:0:
355,78,149186,1,0,0:0:0:0:
224,121,149428,1,8,0:0:0:0:
231,137,149549,1,8,0:0:0:0:
243,126,149670,1,8,0:0:0:0:
265,72,150153,1,0,0:0:0:0:
254,77,150395,1,0,0:0:0:0:
256,123,150637,1,8,0:0:0:0:
271,113,150758,1,0,0:0:0:0:
193,103,150879,1,8,0:0:0:0:
229,113,151121,1,0,0:0:0:0:
211,88,151363,1,0,0:0:0:0:
207,87,151605,1,8,0:0:0:0:
243,128,151847,1,0,0:0:0:0:
243,128,151968,1,0,0:0:0:0:
243,128,152089,1,0,0:0:0:0:
230,133,152331,1,0,0:0:0:0:
230,133,152573,1,8,0:0:0:0:
241,82,152815,1,8,0:0:0:0:
241,82,153057,1,0,0:0:0:0:
220,91,153299,1,8,0:0:0:0:
220,92,153420,1,0,0:0:0:0:
220,92,153541,1,8,0:0:0:0:
217,95,153783,1,0,0:0:0:0:
216,91,153903,1,0,0:0:0:0:
218,93,154024,1,0,0:0:0:0:
219,175,154266,1,0,0:0:0:0:
284,91,154508,1,8,0:0:0:0:
265,133,154629,1,8,0:0:0:0:
296,148,154750,1,8,0:0:0:0:
226,98,154992,1,0,0:0:0:0:
223,132,155476,1,8,0:0:0:0:
223,132,155718,1,0,0:0:0:0:
188,124,155839,1,0,0:0:0:0:
188,124,155960,1,0,0:0:0:0:
280,68,156202,1,0,0:0:0:0:
255,106,156444,1,8,0:0:0:0:
247,57,156928,1,0,0:0:0:0:
198,81,157170,1,8,0:0:0:0:
203,127,157291,1,8,0:0:0:0:
196,113,157412,1,8,0:0:0:0:
183,91,157653,1,8,0:0:0:0:
177,98,157895,1,0,0:0:0:0:
186,79,158137,1,0,0:0:0:0:
186,81,158379,1,8,0:0:0:0:
286,77,158500,1,0,0:0:0:0:
286,77,158621,1,8,0:0:0:0:
193,102,158863,1,0,0:0:0:0:
250,81,159105,1,0,0:0:0:0:
253,49,159347,1,8,0:0:0:0:
234,67,159710,1,8,0:0:0:0:
229,68,159831,1,0,0:0:0:0:
221,55,160073,1,0,0:0:0:0:
221,56,160315,1,8,0:0:0:0:
221,56,160557,1,0,0:0:0:0:
221,56,160799,1,8,0:0:0:0:
192,106,161283,1,8,0:0:0:0:
181,101,161524,1,8,0:0:0:0:
177,87,161766,1,0,0:0:0:0:
232,68,161887,1,8,0:0:0:0:
193,125,162008,1,0,0:0:0:0:
234,74,162250,1,8,0:0:0:0:
195,109,162492,1,0,0:0:0:0:
19,99,162734,1,12,0:0:0:0:
292,187,163097,1,8,0:0:0:0:
292,187,163460,1,0,0:0:0:0:
252,116,163702,1,8,0:0:0:0:
252,116,163944,1,0,0:0:0:0:
252,116,164186,1,8,0:0:0:0:
196,160,164670,1,8,0:0:0:0:
286,114,164912,1,8,0:0:0:0:
286,114,165033,1,0,0:0:0:0:
266,150,165274,1,0,0:0:0:0:
262,117,165395,1,8,0:0:0:0:
272,54,165637,1,0,0:0:0:0:
270,61,165879,1,0,0:0:0:0:
269,63,166121,1,8,0:0:0:0:
269,72,166242,1,0,0:0:0:0:
254,130,166363,1,8,0:0:0:0:
198,115,166605,1,8,0:0:0:0:
304,144,166847,1,0,0:0:0:0:
304,144,166968,1,8,0:0:0:0:
277,101,167331,1,0,0:0:0:0:
200,71,167573,1,8,0:0:0:0:
233,57,167815,1,0,0:0:0:0:
266,114,168057,1,8,0:0:0:0:
296,101,168299,1,0,0:0:0:0:
265,106,168541,1,8,0:0:0:0:
270,100,168903,1,8,0:0:0:0:
234,109,169266,1,0,0:0:0:0:
234,76,169508,1,0,0:0:0:0:
286,65,169750,1,8,0:0:0:0:
237,65,169871,1,8,0:0:0:0:
239,60,169992,1,8,0:0:0:0:
203,134,170234,1,8,0:0:0:0:
234,76,170476,1,0,0:0:0:0:
246,92,170960,1,8,0:0:0:0:
245,88,171202,1,8,0:0:0:0:
242,86,171444,1,0,0:0:0:0:
241,87,171686,1,0,0:0:0:0:
241,87,171928,1,8,0:0:0:0:
270,55,172412,1,8,0:0:0:0:
177,115,172653,1,8,0:0:0:0:
262,128,172774,1,8,0:0:0:0:
177,115,172895,1,8,0:0:0:0:
218,95,173137,1,8,0:0:0:0:
228,81,173379,1,0,0:0:0:0:
226,83,173621,1,0,0:0:0:0:
224,83,173863,1,8,0:0:0:0:
256,73,173984,1,0,0:0:0:0:
266,101,174105,1,8,0:0:0:0:
248,96,174347,1,0,0:0:0:0:
170,176,174589,1,8,0:0:0:0:
235,136,174710,1,8,0:0:0:0:
204,136,174831,1,8,0:0:0:0:
285,112,175194,1,0,0:0:0:0:
285,112,175315,1,0,0:0:0:0:
285,112,175557,1,0,0:0:0:0:
285,112,175799,1,8,0:0:0:0:
280,108,176283,1,8,0:0:0:0:
284,104,176645,1,0,0:0:0:0:
286,104,176766,1,8,0:0:0:0:
280,108,177008,1,8,0:0:0:0:
300,56,177250,1,0,0:0:0:0:
290,67,177492,1,0,0:0:0:0:
262,77,177734,1,8,0:0:0:0:
311,79,177855,1,0,0:0:0:0:
214,78,177976,1,8,0:0:0:0:
19,99,178218,1,4,0:0:0:0:
235,174,178702,1,8,0:0:0:0:
301,109,178944,1,0,0:0:0:0:
301,109,179065,1,0,0:0:0:0:
231,132,179186,1,0,0:0:0:0:
289,101,179428,1,0,0:0:0:0:
287,103,179670,1,8,0:0:0:0:
272,105,180153,1,0,0:0:0:0:
228,105,180395,1,8,0:0:0:0:
234,73,180516,1,8,0:0:0:0:
223,77,180637,1,8,0:0:0:0:
218,82,180879,1,8,0:0:0:0:
224,73,181121,1,0,0:0:0:0:
219,74,181363,1,0,0:0:0:0:
223,77,181605,1,8,0:0:0:0:
242,73,181726,1,0,0:0:0:0:
271,104,181847,1,8,0:0:0:0:
250,64,182089,1,0,0:0:0:0:
242,71,182331,1,0,0:0:0:0:
260,77,182573,1,8,0:0:0:0:
251,68,182936,1,0,0:0:0:0:
254,69,183057,1,0,0:0:0:0:
261,70,183299,1,0,0:0:0:0:
254,149,183541,1,8,0:0:0:0:
254,115,184024,1,8,0:0:0:0:
224,82,184266,1,8,0:0:0:0:
224,82,184387,1,0,0:0:0:0:
224,82,184508,1,8,0:0:0:0:
239,67,184750,1,8,0:0:0:0:
230,73,184992,1,0,0:0:0:0:
224,82,185234,1,8,0:0:0:0:
220,104,185476,1,0,0:0:0:0:
209,44,185718,1,8,0:0:0:0:
256,186,185960,1,0,0:0:0:0:
256,202,186323,1,8,0:0:0:0:
238,136,186686,1,8,0:0:0:0:
238,136,187170,1,8,0:0:0:0:
