osu file format v14

[General]
AudioFilename: audio.mp3
AudioLeadIn: 0
PreviewTime: -1
Countdown: 0
SampleSet: Soft
StackLeniency: 0.7
Mode: 3
LetterboxInBreaks: 0
SpecialStyle: 0
WidescreenStoryboard: 0

[Editor]
DistanceSpacing: 1
BeatDivisor: 12
GridSize: 4
TimelineZoom: 2

[Metadata]
Title:Art of Love
TitleUnicode:Art of Love
Artist:Char
ArtistUnicode:Char
Creator:H1yoCoken
Version:Piano
Source:
Tags:
BeatmapID:4565269
BeatmapSetID:2164391

[Difficulty]
HPDrainRate:5
CircleSize:4
OverallDifficulty:5
ApproachRate:5
SliderMultiplier:1.4
SliderTickRate:1

[Events]
//Background and Video events
0,0,"a.jpg",0,0
//Break Periods
//Storyboard Layer 0 (Background)
//Storyboard Layer 1 (Fail)
//Storyboard Layer 2 (Pass)
//Storyboard Layer 3 (Foreground)
//Storyboard Layer 4 (Overlay)
//Storyboard Sound Samples

[TimingPoints]
0,1052.63157894737,4,2,0,100,1,0
67368,-133.333333333333,4,2,0,100,0,0
85789,-100,4,2,0,100,0,0
88421,-133.333333333333,4,2,0,100,0,0
90000,-100,4,2,0,100,0,0
92631,-133.333333333333,4,2,0,100,0,0
113684,-100,4,2,0,100,0,0
134736,-133.333333333333,4,2,0,100,0,0
151578,-117.647058823529,4,2,0,100,0,0
168426,-100,4,2,0,100,0,0
197894,-153.846153846154,4,2,0,100,0,0
201052,-133.333333333333,4,2,0,100,0,0
202107,-100,4,2,0,100,0,0

[HitObjects]
448,192,87,128,0,350:0:0:0:0:
320,192,87,128,0,350:0:0:0:0:
192,192,438,1,0,0:0:0:0:
64,192,438,1,0,0:0:0:0:
64,192,789,1,0,0:0:0:0:
192,192,789,1,0,0:0:0:0:
320,192,1140,128,0,1403:0:0:0:0:
448,192,1140,128,0,1403:0:0:0:0:
64,192,1491,1,0,0:0:0:0:
192,192,1491,1,0,0:0:0:0:
64,192,1842,1,0,0:0:0:0:
192,192,1842,1,0,0:0:0:0:
192,192,2192,1,0,0:0:0:0:
448,192,2192,128,0,2456:0:0:0:0:
64,192,2280,1,0,0:0:0:0:
192,192,2368,1,0,0:0:0:0:
320,192,2456,1,0,0:0:0:0:
192,192,2543,1,0,0:0:0:0:
64,192,2894,1,0,0:0:0:0:
320,192,2894,1,0,0:0:0:0:
192,192,3245,128,0,3508:0:0:0:0:
320,192,3596,1,0,0:0:0:0:
448,192,3596,1,0,0:0:0:0:
320,192,3771,128,0,4035:0:0:0:0:
64,192,3947,1,0,0:0:0:0:
192,192,3947,1,0,0:0:0:0:
192,192,4298,128,0,4561:0:0:0:0:
448,192,4649,1,0,0:0:0:0:
320,192,4649,1,0,0:0:0:0:
64,192,4824,128,0,5087:0:0:0:0:
320,192,5000,1,0,0:0:0:0:
448,192,5000,1,0,0:0:0:0:
192,192,5350,128,0,5701:0:0:0:0:
320,192,5701,1,0,0:0:0:0:
448,192,5701,1,0,0:0:0:0:
320,192,5877,128,0,6228:0:0:0:0:
192,192,6052,1,0,0:0:0:0:
64,192,6052,1,0,0:0:0:0:
320,192,6403,1,0,0:0:0:0:
448,192,6491,1,0,0:0:0:0:
192,192,6578,1,0,0:0:0:0:
320,192,6666,1,0,0:0:0:0:
448,192,6754,1,0,0:0:0:0:
64,192,6754,1,0,0:0:0:0:
320,192,6842,1,0,0:0:0:0:
192,192,6929,1,0,0:0:0:0:
320,192,7017,1,0,0:0:0:0:
448,192,7105,1,0,0:0:0:0:
64,192,7105,1,0,0:0:0:0:
320,192,7192,1,0,0:0:0:0:
192,192,7280,1,0,0:0:0:0:
320,192,7368,1,0,0:0:0:0:
64,192,7456,128,0,7719:0:0:0:0:
448,192,7807,1,0,0:0:0:0:
192,192,7807,1,0,0:0:0:0:
320,192,7982,128,0,8157:0:0:0:0:
448,192,8157,1,0,0:0:0:0:
192,192,8157,1,0,0:0:0:0:
448,192,8508,128,0,8771:0:0:0:0:
192,192,8859,1,0,0:0:0:0:
64,192,8859,1,0,0:0:0:0:
192,192,9210,1,0,0:0:0:0:
64,192,9210,1,0,0:0:0:0:
320,192,9561,128,0,9824:0:0:0:0:
64,192,9912,1,0,0:0:0:0:
192,192,9912,1,0,0:0:0:0:
192,192,10263,1,0,0:0:0:0:
64,192,10263,1,0,0:0:0:0:
192,192,10614,128,0,10964:0:0:0:0:
320,192,10964,1,0,0:0:0:0:
64,192,10964,1,0,0:0:0:0:
64,192,11315,128,0,11666:0:0:0:0:
448,192,11315,1,0,0:0:0:0:
320,192,11315,1,0,0:0:0:0:
192,192,11666,128,0,11842:0:0:0:0:
64,192,12017,1,0,0:0:0:0:
320,192,12017,1,0,0:0:0:0:
448,192,12017,1,0,0:0:0:0:
320,192,12192,128,0,12719:0:0:0:0:
64,192,12368,1,0,0:0:0:0:
192,192,12368,1,0,0:0:0:0:
192,192,12719,128,0,13070:0:0:0:0:
448,192,13070,1,0,0:0:0:0:
320,192,13070,1,0,0:0:0:0:
192,192,13245,1,0,0:0:0:0:
320,192,13421,1,0,0:0:0:0:
448,192,13421,1,0,0:0:0:0:
64,192,13771,1,0,0:0:0:0:
320,192,14122,1,0,0:0:0:0:
448,192,14122,1,0,0:0:0:0:
192,192,14473,1,0,0:0:0:0:
320,192,14473,1,0,0:0:0:0:
448,192,14473,1,0,0:0:0:0:
64,192,14824,1,0,0:0:0:0:
448,192,15175,1,0,0:0:0:0:
192,192,15175,1,0,0:0:0:0:
320,192,15350,1,0,0:0:0:0:
192,192,15526,1,0,0:0:0:0:
448,192,15526,1,0,0:0:0:0:
192,192,15877,1,0,0:0:0:0:
448,192,15877,128,0,16929:0:0:0:0:
64,192,16228,1,0,0:0:0:0:
192,192,16228,1,0,0:0:0:0:
320,192,16228,1,0,0:0:0:0:
64,192,16578,1,0,0:0:0:0:
192,192,16578,1,0,0:0:0:0:
320,192,16578,1,0,0:0:0:0:
192,192,16929,128,0,17894:0:0:0:0:
64,192,16929,128,0,17894:0:0:0:0:
320,192,17280,1,0,0:0:0:0:
448,192,17280,1,0,0:0:0:0:
320,192,17631,1,0,0:0:0:0:
448,192,17631,1,0,0:0:0:0:
192,192,17982,128,0,19035:0:0:0:0:
64,192,17982,128,0,19035:0:0:0:0:
320,192,18333,1,0,0:0:0:0:
448,192,18333,1,0,0:0:0:0:
320,192,18684,1,0,0:0:0:0:
448,192,18684,1,0,0:0:0:0:
320,192,19035,128,0,20087:0:0:0:0:
448,192,19035,1,0,0:0:0:0:
192,192,19122,1,0,0:0:0:0:
64,192,19210,1,0,0:0:0:0:
448,192,19385,1,0,0:0:0:0:
64,192,19385,1,0,0:0:0:0:
64,192,19736,1,0,0:0:0:0:
448,192,19736,1,0,0:0:0:0:
192,192,20087,128,0,20614:0:0:0:0:
64,192,20087,128,0,20614:0:0:0:0:
320,192,20438,1,0,0:0:0:0:
448,192,20438,1,0,0:0:0:0:
320,192,20614,128,0,20964:0:0:0:0:
448,192,20614,128,0,20964:0:0:0:0:
64,192,20789,1,0,0:0:0:0:
192,192,20789,1,0,0:0:0:0:
192,192,21140,128,0,21578:0:0:0:0:
320,192,21140,128,0,21578:0:0:0:0:
64,192,21491,1,0,0:0:0:0:
448,192,21491,1,0,0:0:0:0:
192,192,21666,128,0,22017:0:0:0:0:
64,192,21666,128,0,22017:0:0:0:0:
448,192,21842,1,0,0:0:0:0:
320,192,21842,1,0,0:0:0:0:
192,192,22192,128,0,22807:0:0:0:0:
320,192,22192,128,0,22807:0:0:0:0:
64,192,22543,1,0,0:0:0:0:
448,192,22543,1,0,0:0:0:0:
320,192,22894,128,0,23157:0:0:0:0:
448,192,22894,128,0,23157:0:0:0:0:
64,192,22894,1,0,0:0:0:0:
192,192,23245,1,0,0:0:0:0:
64,192,23333,1,0,0:0:0:0:
192,192,23421,1,0,0:0:0:0:
320,192,23508,1,0,0:0:0:0:
192,192,23596,1,0,0:0:0:0:
448,192,23596,1,0,0:0:0:0:
64,192,23684,1,0,0:0:0:0:
192,192,23771,1,0,0:0:0:0:
448,192,23859,1,0,0:0:0:0:
192,192,23947,1,0,0:0:0:0:
320,192,23947,1,0,0:0:0:0:
64,192,24035,1,0,0:0:0:0:
192,192,24122,1,0,0:0:0:0:
320,192,24210,1,0,0:0:0:0:
64,192,24298,128,0,24736:0:0:0:0:
448,192,24298,128,0,24736:0:0:0:0:
192,192,24824,128,0,25263:0:0:0:0:
448,192,24824,128,0,25263:0:0:0:0:
448,192,25350,128,0,26403:0:0:0:0:
320,192,26403,128,0,27368:0:0:0:0:
192,192,26403,1,0,0:0:0:0:
64,192,27456,1,0,0:0:0:0:
320,192,27456,128,0,28421:0:0:0:0:
64,192,28157,1,0,0:0:0:0:
192,192,28157,1,0,0:0:0:0:
320,192,28508,1,0,0:0:0:0:
448,192,28508,128,0,29473:0:0:0:0:
64,192,28859,1,0,0:0:0:0:
192,192,29078,1,0,0:0:0:0:
64,192,29210,1,0,0:0:0:0:
320,192,29210,1,0,0:0:0:0:
64,192,29561,1,0,0:0:0:0:
320,192,29561,128,0,30263:0:0:0:0:
448,192,29561,128,0,30263:0:0:0:0:
192,192,30350,1,0,0:0:0:0:
64,192,30526,1,0,0:0:0:0:
192,192,30614,128,0,31315:0:0:0:0:
448,192,30614,128,0,31315:0:0:0:0:
64,192,31403,1,0,0:0:0:0:
192,192,31578,1,0,0:0:0:0:
64,192,31666,128,0,32368:0:0:0:0:
448,192,31666,128,0,32719:0:0:0:0:
192,192,32500,1,0,0:0:0:0:
64,192,32631,1,0,0:0:0:0:
192,192,32719,1,0,0:0:0:0:
320,192,32719,128,0,33771:0:0:0:0:
64,192,32807,1,0,0:0:0:0:
192,192,32894,1,0,0:0:0:0:
192,192,33070,1,0,0:0:0:0:
448,192,33070,1,0,0:0:0:0:
64,192,33245,128,0,33771:0:0:0:0:
192,192,33421,1,0,0:0:0:0:
448,192,33771,128,0,35877:0:0:0:0:
320,192,34122,1,0,0:0:0:0:
64,192,34122,1,0,0:0:0:0:
192,192,34298,1,0,0:0:0:0:
320,192,34473,1,0,0:0:0:0:
64,192,34473,1,0,0:0:0:0:
192,192,34649,1,0,0:0:0:0:
320,192,34824,1,0,0:0:0:0:
64,192,34824,1,0,0:0:0:0:
320,192,35175,1,0,0:0:0:0:
192,192,35175,1,0,0:0:0:0:
64,192,35350,1,0,0:0:0:0:
192,192,35526,1,0,0:0:0:0:
320,192,35526,1,0,0:0:0:0:
192,192,35701,1,0,0:0:0:0:
320,192,35877,128,0,37982:0:0:0:0:
64,192,35877,1,0,0:0:0:0:
64,192,36228,1,0,0:0:0:0:
192,192,36228,1,0,0:0:0:0:
448,192,36403,1,0,0:0:0:0:
64,192,36578,1,0,0:0:0:0:
192,192,36578,1,0,0:0:0:0:
192,192,36754,1,0,0:0:0:0:
64,192,36929,1,0,0:0:0:0:
448,192,36929,1,0,0:0:0:0:
192,192,37280,1,0,0:0:0:0:
448,192,37280,1,0,0:0:0:0:
64,192,37456,1,0,0:0:0:0:
192,192,37631,1,0,0:0:0:0:
448,192,37631,1,0,0:0:0:0:
64,192,37719,1,0,0:0:0:0:
192,192,37807,1,0,0:0:0:0:
64,192,37894,1,0,0:0:0:0:
192,192,37982,1,0,0:0:0:0:
448,192,37982,128,0,40087:0:0:0:0:
320,192,38333,1,0,0:0:0:0:
64,192,38333,1,0,0:0:0:0:
192,192,38508,1,0,0:0:0:0:
64,192,38684,1,0,0:0:0:0:
320,192,38684,1,0,0:0:0:0:
192,192,38859,1,0,0:0:0:0:
64,192,39035,1,0,0:0:0:0:
320,192,39035,1,0,0:0:0:0:
64,192,39385,1,0,0:0:0:0:
320,192,39385,1,0,0:0:0:0:
320,192,39561,1,0,0:0:0:0:
64,192,39736,1,0,0:0:0:0:
320,192,39736,1,0,0:0:0:0:
192,192,39912,1,0,0:0:0:0:
192,192,40087,1,0,0:0:0:0:
64,192,40087,1,0,0:0:0:0:
320,192,40087,128,0,42192:0:0:0:0:
64,192,40438,1,0,0:0:0:0:
192,192,40438,1,0,0:0:0:0:
448,192,40614,1,0,0:0:0:0:
192,192,40789,1,0,0:0:0:0:
448,192,40789,1,0,0:0:0:0:
192,192,40964,1,0,0:0:0:0:
64,192,41140,1,0,0:0:0:0:
192,192,41491,1,0,0:0:0:0:
64,192,41491,1,0,0:0:0:0:
448,192,41666,1,0,0:0:0:0:
192,192,41842,1,0,0:0:0:0:
64,192,41842,1,0,0:0:0:0:
192,192,42017,1,0,0:0:0:0:
64,192,42192,1,0,0:0:0:0:
448,192,42192,128,0,44298:0:0:0:0:
320,192,42543,1,0,0:0:0:0:
64,192,42543,1,0,0:0:0:0:
192,192,42719,1,0,0:0:0:0:
320,192,42894,1,0,0:0:0:0:
64,192,42894,1,0,0:0:0:0:
192,192,43070,1,0,0:0:0:0:
320,192,43245,1,0,0:0:0:0:
64,192,43245,1,0,0:0:0:0:
320,192,43596,1,0,0:0:0:0:
192,192,43596,1,0,0:0:0:0:
64,192,43771,1,0,0:0:0:0:
192,192,43947,1,0,0:0:0:0:
320,192,43947,1,0,0:0:0:0:
192,192,44122,1,0,0:0:0:0:
320,192,44298,128,0,46403:0:0:0:0:
64,192,44298,1,0,0:0:0:0:
64,192,44649,1,0,0:0:0:0:
192,192,44649,1,0,0:0:0:0:
448,192,44824,1,0,0:0:0:0:
64,192,45000,1,0,0:0:0:0:
192,192,45000,1,0,0:0:0:0:
192,192,45175,1,0,0:0:0:0:
64,192,45350,1,0,0:0:0:0:
448,192,45350,1,0,0:0:0:0:
192,192,45701,1,0,0:0:0:0:
448,192,45701,1,0,0:0:0:0:
64,192,45877,1,0,0:0:0:0:
192,192,46052,1,0,0:0:0:0:
448,192,46052,1,0,0:0:0:0:
64,192,46140,1,0,0:0:0:0:
192,192,46228,1,0,0:0:0:0:
64,192,46315,1,0,0:0:0:0:
192,192,46403,1,0,0:0:0:0:
448,192,46403,128,0,48508:0:0:0:0:
320,192,46754,1,0,0:0:0:0:
64,192,46754,1,0,0:0:0:0:
192,192,46929,1,0,0:0:0:0:
64,192,47105,1,0,0:0:0:0:
320,192,47105,1,0,0:0:0:0:
192,192,47280,1,0,0:0:0:0:
64,192,47456,1,0,0:0:0:0:
320,192,47456,1,0,0:0:0:0:
64,192,47807,1,0,0:0:0:0:
320,192,47807,1,0,0:0:0:0:
320,192,47982,1,0,0:0:0:0:
64,192,48157,1,0,0:0:0:0:
320,192,48157,1,0,0:0:0:0:
192,192,48333,1,0,0:0:0:0:
192,192,48508,1,0,0:0:0:0:
64,192,48508,1,0,0:0:0:0:
320,192,48508,128,0,50087:0:0:0:0:
64,192,48859,1,0,0:0:0:0:
192,192,48859,1,0,0:0:0:0:
448,192,49035,1,0,0:0:0:0:
192,192,49210,1,0,0:0:0:0:
448,192,49210,1,0,0:0:0:0:
192,192,49385,1,0,0:0:0:0:
64,192,49561,1,0,0:0:0:0:
192,192,49912,1,0,0:0:0:0:
64,192,49912,1,0,0:0:0:0:
448,192,50087,1,0,0:0:0:0:
320,192,50614,128,0,52631:0:0:0:0:
64,192,50614,1,0,0:0:0:0:
448,192,50964,1,0,0:0:0:0:
64,192,50964,1,0,0:0:0:0:
192,192,51140,1,0,0:0:0:0:
64,192,51315,1,0,0:0:0:0:
448,192,51315,1,0,0:0:0:0:
448,192,51491,1,0,0:0:0:0:
64,192,51666,1,0,0:0:0:0:
64,192,52017,1,0,0:0:0:0:
448,192,52017,1,0,0:0:0:0:
192,192,52192,1,0,0:0:0:0:
192,192,52368,1,0,0:0:0:0:
448,192,52368,1,0,0:0:0:0:
64,192,52543,1,0,0:0:0:0:
320,192,52719,128,0,53245:0:0:0:0:
192,192,53070,1,0,0:0:0:0:
448,192,53070,1,0,0:0:0:0:
192,192,53245,128,0,53771:0:0:0:0:
448,192,53421,1,0,0:0:0:0:
320,192,53421,1,0,0:0:0:0:
64,192,53771,128,0,54298:0:0:0:0:
320,192,54122,1,0,0:0:0:0:
192,192,54122,1,0,0:0:0:0:
448,192,54298,128,0,54824:0:0:0:0:
64,192,54473,1,0,0:0:0:0:
192,192,54473,1,0,0:0:0:0:
64,192,54824,1,0,0:0:0:0:
320,192,54824,128,0,56842:0:0:0:0:
64,192,55175,1,0,0:0:0:0:
448,192,55175,1,0,0:0:0:0:
192,192,55350,1,0,0:0:0:0:
448,192,55526,1,0,0:0:0:0:
64,192,55526,1,0,0:0:0:0:
448,192,55701,1,0,0:0:0:0:
64,192,55877,1,0,0:0:0:0:
448,192,56228,1,0,0:0:0:0:
64,192,56228,1,0,0:0:0:0:
192,192,56403,1,0,0:0:0:0:
448,192,56578,1,0,0:0:0:0:
192,192,56578,1,0,0:0:0:0:
64,192,56754,1,0,0:0:0:0:
448,192,56929,128,0,57456:0:0:0:0:
320,192,57280,1,0,0:0:0:0:
192,192,57280,1,0,0:0:0:0:
64,192,57456,128,0,57982:0:0:0:0:
320,192,57631,1,0,0:0:0:0:
448,192,57631,1,0,0:0:0:0:
320,192,57982,128,0,58508:0:0:0:0:
192,192,58333,1,0,0:0:0:0:
64,192,58333,1,0,0:0:0:0:
448,192,58508,128,0,59035:0:0:0:0:
192,192,58684,1,0,0:0:0:0:
64,192,58684,1,0,0:0:0:0:
320,192,59035,128,0,61052:0:0:0:0:
64,192,59035,1,0,0:0:0:0:
448,192,59385,1,0,0:0:0:0:
64,192,59385,1,0,0:0:0:0:
192,192,59561,1,0,0:0:0:0:
64,192,59736,1,0,0:0:0:0:
448,192,59736,1,0,0:0:0:0:
448,192,59912,1,0,0:0:0:0:
64,192,60087,1,0,0:0:0:0:
64,192,60438,1,0,0:0:0:0:
448,192,60438,1,0,0:0:0:0:
192,192,60614,1,0,0:0:0:0:
192,192,60789,1,0,0:0:0:0:
448,192,60789,1,0,0:0:0:0:
64,192,60964,1,0,0:0:0:0:
320,192,61140,128,0,61666:0:0:0:0:
192,192,61491,1,0,0:0:0:0:
448,192,61491,1,0,0:0:0:0:
192,192,61666,128,0,62192:0:0:0:0:
448,192,61842,1,0,0:0:0:0:
320,192,61842,1,0,0:0:0:0:
64,192,62192,128,0,62719:0:0:0:0:
320,192,62543,1,0,0:0:0:0:
192,192,62543,1,0,0:0:0:0:
448,192,62719,128,0,63245:0:0:0:0:
64,192,62894,1,0,0:0:0:0:
192,192,62894,1,0,0:0:0:0:
64,192,63245,1,0,0:0:0:0:
320,192,63245,128,0,65263:0:0:0:0:
64,192,63596,1,0,0:0:0:0:
448,192,63596,1,0,0:0:0:0:
192,192,63771,1,0,0:0:0:0:
448,192,63947,1,0,0:0:0:0:
64,192,63947,1,0,0:0:0:0:
448,192,64122,1,0,0:0:0:0:
64,192,64298,1,0,0:0:0:0:
448,192,64649,1,0,0:0:0:0:
64,192,64649,1,0,0:0:0:0:
192,192,64824,1,0,0:0:0:0:
448,192,65000,1,0,0:0:0:0:
192,192,65000,1,0,0:0:0:0:
64,192,65175,1,0,0:0:0:0:
448,192,65350,128,0,65877:0:0:0:0:
320,192,65701,1,0,0:0:0:0:
192,192,65701,1,0,0:0:0:0:
64,192,65877,128,0,66403:0:0:0:0:
320,192,66052,1,0,0:0:0:0:
448,192,66052,1,0,0:0:0:0:
320,192,66403,128,0,66929:0:0:0:0:
192,192,66754,1,0,0:0:0:0:
64,192,66754,1,0,0:0:0:0:
448,192,66929,128,0,67456:0:0:0:0:
192,192,67105,1,0,0:0:0:0:
64,192,67105,1,0,0:0:0:0:
320,192,67456,1,0,0:0:0:0:
192,192,67807,1,0,0:0:0:0:
64,192,68157,1,0,0:0:0:0:
448,192,68508,1,0,0:0:0:0:
320,192,68859,1,0,0:0:0:0:
192,192,69210,1,0,0:0:0:0:
448,192,69561,1,0,0:0:0:0:
320,192,69912,1,0,0:0:0:0:
64,192,70263,1,0,0:0:0:0:
192,192,70614,1,0,0:0:0:0:
320,192,70964,1,0,0:0:0:0:
448,192,71315,1,0,0:0:0:0:
320,192,71666,1,0,0:0:0:0:
192,192,72017,1,0,0:0:0:0:
64,192,72368,1,0,0:0:0:0:
192,192,72719,1,0,0:0:0:0:
320,192,73070,1,0,0:0:0:0:
192,192,73421,1,0,0:0:0:0:
448,192,73771,1,0,0:0:0:0:
320,192,74122,1,0,0:0:0:0:
192,192,74473,1,0,0:0:0:0:
448,192,74824,1,0,0:0:0:0:
320,192,75175,1,0,0:0:0:0:
192,192,75526,1,0,0:0:0:0:
320,192,75877,128,0,76929:0:0:0:0:
64,192,75877,1,0,0:0:0:0:
448,192,76228,1,0,0:0:0:0:
192,192,76578,1,0,0:0:0:0:
192,192,76929,1,0,0:0:0:0:
448,192,76929,128,0,77982:0:0:0:0:
320,192,77280,1,0,0:0:0:0:
64,192,77631,1,0,0:0:0:0:
192,192,77982,1,0,0:0:0:0:
320,192,77982,128,0,79035:0:0:0:0:
448,192,78333,1,0,0:0:0:0:
64,192,78684,1,0,0:0:0:0:
64,192,79035,128,0,80087:0:0:0:0:
448,192,79035,1,0,0:0:0:0:
320,192,79385,1,0,0:0:0:0:
192,192,79736,1,0,0:0:0:0:
192,192,80087,128,0,81140:0:0:0:0:
320,192,80087,1,0,0:0:0:0:
448,192,80438,1,0,0:0:0:0:
64,192,80789,1,0,0:0:0:0:
320,192,81140,128,0,82192:0:0:0:0:
448,192,81140,1,0,0:0:0:0:
192,192,81491,1,0,0:0:0:0:
64,192,81842,1,0,0:0:0:0:
448,192,82192,128,0,83245:0:0:0:0:
320,192,82543,1,0,0:0:0:0:
192,192,82894,1,0,0:0:0:0:
192,192,83245,1,0,0:0:0:0:
320,192,83245,128,0,84298:0:0:0:0:
448,192,83596,1,0,0:0:0:0:
192,192,83947,1,0,0:0:0:0:
192,192,84298,128,0,84649:0:0:0:0:
448,192,84298,128,0,84649:0:0:0:0:
64,192,84298,128,0,84649:0:0:0:0:
320,192,84824,1,0,0:0:0:0:
64,192,85350,1,0,0:0:0:0:
192,192,85350,1,0,0:0:0:0:
448,192,85877,1,0,0:0:0:0:
320,192,86052,1,0,0:0:0:0:
192,192,86228,1,0,0:0:0:0:
64,192,86403,1,0,0:0:0:0:
192,192,86578,1,0,0:0:0:0:
320,192,86754,1,0,0:0:0:0:
64,192,86754,128,0,86929:0:0:0:0:
448,192,86929,1,0,0:0:0:0:
320,192,87105,1,0,0:0:0:0:
64,192,87105,128,0,87280:0:0:0:0:
448,192,87280,1,0,0:0:0:0:
192,192,87456,1,0,0:0:0:0:
320,192,87631,1,0,0:0:0:0:
448,192,87807,1,0,0:0:0:0:
192,192,87807,128,0,87982:0:0:0:0:
64,192,87982,1,0,0:0:0:0:
192,192,88157,1,0,0:0:0:0:
448,192,88157,128,0,88333:0:0:0:0:
320,192,88333,1,0,0:0:0:0:
448,192,88508,128,0,88859:0:0:0:0:
192,192,88508,128,0,88859:0:0:0:0:
64,192,88508,128,0,88859:0:0:0:0:
320,192,89035,1,0,0:0:0:0:
192,192,89561,1,0,0:0:0:0:
64,192,89561,1,0,0:0:0:0:
448,192,90087,1,0,0:0:0:0:
320,192,90263,1,0,0:0:0:0:
192,192,90438,1,0,0:0:0:0:
64,192,90614,1,0,0:0:0:0:
192,192,90789,1,0,0:0:0:0:
64,192,90964,128,0,91140:0:0:0:0:
320,192,90964,1,0,0:0:0:0:
448,192,91140,1,0,0:0:0:0:
64,192,91315,128,0,91491:0:0:0:0:
320,192,91315,1,0,0:0:0:0:
448,192,91491,1,0,0:0:0:0:
192,192,91666,1,0,0:0:0:0:
320,192,91842,1,0,0:0:0:0:
448,192,92017,1,0,0:0:0:0:
192,192,92017,128,0,92192:0:0:0:0:
64,192,92192,1,0,0:0:0:0:
192,192,92368,1,0,0:0:0:0:
448,192,92368,128,0,92543:0:0:0:0:
320,192,92543,1,0,0:0:0:0:
64,192,92719,128,0,92982:0:0:0:0:
192,192,93245,128,0,93508:0:0:0:0:
448,192,93771,128,0,94035:0:0:0:0:
320,192,94298,128,0,94561:0:0:0:0:
448,192,94824,128,0,95175:0:0:0:0:
192,192,95350,128,0,95614:0:0:0:0:
448,192,95877,128,0,96140:0:0:0:0:
192,192,96403,128,0,96754:0:0:0:0:
64,192,96929,128,0,97192:0:0:0:0:
192,192,97456,128,0,97719:0:0:0:0:
448,192,97982,128,0,98245:0:0:0:0:
320,192,98508,128,0,98771:0:0:0:0:
448,192,99035,128,0,99385:0:0:0:0:
192,192,99561,128,0,99824:0:0:0:0:
448,192,100087,128,0,100614:0:0:0:0:
64,192,101140,128,0,101403:0:0:0:0:
192,192,101666,128,0,101929:0:0:0:0:
448,192,102192,128,0,102456:0:0:0:0:
320,192,102719,128,0,102982:0:0:0:0:
448,192,103245,128,0,103596:0:0:0:0:
192,192,103771,128,0,104035:0:0:0:0:
448,192,104298,128,0,104561:0:0:0:0:
192,192,104824,128,0,105175:0:0:0:0:
64,192,105350,128,0,105614:0:0:0:0:
192,192,105877,128,0,106140:0:0:0:0:
448,192,106403,128,0,106666:0:0:0:0:
320,192,106929,128,0,107192:0:0:0:0:
448,192,107456,128,0,107807:0:0:0:0:
192,192,107982,128,0,108245:0:0:0:0:
448,192,108508,128,0,109298:0:0:0:0:
320,192,109561,128,0,110175:0:0:0:0:
192,192,110614,128,0,111403:0:0:0:0:
192,192,111666,128,0,112368:0:0:0:0:
64,192,112368,128,0,112719:0:0:0:0:
320,192,112719,128,0,113070:0:0:0:0:
448,192,112719,128,0,113684:0:0:0:0:
192,192,113070,128,0,113245:0:0:0:0:
320,192,113245,128,0,113684:0:0:0:0:
448,192,113771,128,0,114473:0:0:0:0:
320,192,113771,128,0,114473:0:0:0:0:
64,192,113771,1,0,0:0:0:0:
192,192,114561,1,0,0:0:0:0:
64,192,114736,1,0,0:0:0:0:
448,192,114824,128,0,115526:0:0:0:0:
192,192,114824,128,0,115526:0:0:0:0:
64,192,115614,1,0,0:0:0:0:
192,192,115789,1,0,0:0:0:0:
448,192,115877,128,0,116929:0:0:0:0:
64,192,115877,128,0,116578:0:0:0:0:
192,192,116710,1,0,0:0:0:0:
64,192,116842,1,0,0:0:0:0:
320,192,116929,128,0,117982:0:0:0:0:
192,192,116929,1,0,0:0:0:0:
64,192,117017,1,0,0:0:0:0:
192,192,117105,1,0,0:0:0:0:
448,192,117280,1,0,0:0:0:0:
192,192,117280,1,0,0:0:0:0:
64,192,117456,128,0,117982:0:0:0:0:
192,192,117631,1,0,0:0:0:0:
448,192,117982,128,0,120087:0:0:0:0:
64,192,118333,1,0,0:0:0:0:
320,192,118333,1,0,0:0:0:0:
192,192,118508,1,0,0:0:0:0:
64,192,118684,1,0,0:0:0:0:
320,192,118684,1,0,0:0:0:0:
192,192,118859,1,0,0:0:0:0:
64,192,119035,1,0,0:0:0:0:
320,192,119035,1,0,0:0:0:0:
192,192,119385,1,0,0:0:0:0:
320,192,119385,1,0,0:0:0:0:
64,192,119561,1,0,0:0:0:0:
320,192,119736,1,0,0:0:0:0:
192,192,119736,1,0,0:0:0:0:
192,192,119912,1,0,0:0:0:0:
64,192,120087,1,0,0:0:0:0:
320,192,120087,128,0,122192:0:0:0:0:
192,192,120438,1,0,0:0:0:0:
64,192,120438,1,0,0:0:0:0:
448,192,120614,1,0,0:0:0:0:
192,192,120789,1,0,0:0:0:0:
64,192,120789,1,0,0:0:0:0:
192,192,120964,1,0,0:0:0:0:
448,192,121140,1,0,0:0:0:0:
64,192,121140,1,0,0:0:0:0:
448,192,121491,1,0,0:0:0:0:
192,192,121491,1,0,0:0:0:0:
64,192,121666,1,0,0:0:0:0:
448,192,121842,1,0,0:0:0:0:
192,192,121842,1,0,0:0:0:0:
64,192,121929,1,0,0:0:0:0:
192,192,122017,1,0,0:0:0:0:
64,192,122105,1,0,0:0:0:0:
448,192,122192,128,0,124298:0:0:0:0:
192,192,122192,1,0,0:0:0:0:
64,192,122543,1,0,0:0:0:0:
320,192,122543,1,0,0:0:0:0:
192,192,122719,1,0,0:0:0:0:
320,192,122894,1,0,0:0:0:0:
64,192,122894,1,0,0:0:0:0:
192,192,123070,1,0,0:0:0:0:
320,192,123245,1,0,0:0:0:0:
64,192,123245,1,0,0:0:0:0:
320,192,123596,1,0,0:0:0:0:
64,192,123596,1,0,0:0:0:0:
320,192,123771,1,0,0:0:0:0:
320,192,123947,1,0,0:0:0:0:
64,192,123947,1,0,0:0:0:0:
192,192,124122,1,0,0:0:0:0:
320,192,124298,128,0,126403:0:0:0:0:
64,192,124298,1,0,0:0:0:0:
192,192,124298,1,0,0:0:0:0:
192,192,124649,1,0,0:0:0:0:
64,192,124649,1,0,0:0:0:0:
448,192,124824,1,0,0:0:0:0:
448,192,125000,1,0,0:0:0:0:
192,192,125000,1,0,0:0:0:0:
192,192,125175,1,0,0:0:0:0:
64,192,125350,1,0,0:0:0:0:
64,192,125701,1,0,0:0:0:0:
192,192,125701,1,0,0:0:0:0:
448,192,125877,1,0,0:0:0:0:
64,192,126052,1,0,0:0:0:0:
192,192,126052,1,0,0:0:0:0:
192,192,126228,1,0,0:0:0:0:
448,192,126403,128,0,128508:0:0:0:0:
64,192,126403,1,0,0:0:0:0:
64,192,126754,1,0,0:0:0:0:
320,192,126754,1,0,0:0:0:0:
192,192,126929,1,0,0:0:0:0:
64,192,127105,1,0,0:0:0:0:
320,192,127105,1,0,0:0:0:0:
192,192,127280,1,0,0:0:0:0:
64,192,127456,1,0,0:0:0:0:
320,192,127456,1,0,0:0:0:0:
192,192,127807,1,0,0:0:0:0:
320,192,127807,1,0,0:0:0:0:
64,192,127982,1,0,0:0:0:0:
320,192,128157,1,0,0:0:0:0:
192,192,128157,1,0,0:0:0:0:
192,192,128333,1,0,0:0:0:0:
64,192,128508,1,0,0:0:0:0:
320,192,128508,128,0,130614:0:0:0:0:
192,192,128859,1,0,0:0:0:0:
64,192,128859,1,0,0:0:0:0:
448,192,129035,1,0,0:0:0:0:
192,192,129210,1,0,0:0:0:0:
64,192,129210,1,0,0:0:0:0:
192,192,129385,1,0,0:0:0:0:
448,192,129561,1,0,0:0:0:0:
64,192,129561,1,0,0:0:0:0:
448,192,129912,1,0,0:0:0:0:
192,192,129912,1,0,0:0:0:0:
64,192,130087,1,0,0:0:0:0:
448,192,130263,1,0,0:0:0:0:
192,192,130263,1,0,0:0:0:0:
64,192,130350,1,0,0:0:0:0:
192,192,130438,1,0,0:0:0:0:
64,192,130526,1,0,0:0:0:0:
448,192,130614,128,0,132719:0:0:0:0:
192,192,130614,1,0,0:0:0:0:
64,192,130964,1,0,0:0:0:0:
320,192,130964,1,0,0:0:0:0:
192,192,131140,1,0,0:0:0:0:
320,192,131315,1,0,0:0:0:0:
64,192,131315,1,0,0:0:0:0:
192,192,131491,1,0,0:0:0:0:
320,192,131666,1,0,0:0:0:0:
64,192,131666,1,0,0:0:0:0:
320,192,132017,1,0,0:0:0:0:
64,192,132017,1,0,0:0:0:0:
320,192,132192,1,0,0:0:0:0:
320,192,132368,1,0,0:0:0:0:
64,192,132368,1,0,0:0:0:0:
192,192,132543,1,0,0:0:0:0:
320,192,132719,128,0,134298:0:0:0:0:
64,192,132719,1,0,0:0:0:0:
192,192,132719,1,0,0:0:0:0:
192,192,133070,1,0,0:0:0:0:
64,192,133070,1,0,0:0:0:0:
448,192,133245,1,0,0:0:0:0:
448,192,133421,1,0,0:0:0:0:
192,192,133421,1,0,0:0:0:0:
192,192,133596,1,0,0:0:0:0:
64,192,133771,1,0,0:0:0:0:
64,192,134122,1,0,0:0:0:0:
192,192,134122,1,0,0:0:0:0:
448,192,134298,1,0,0:0:0:0:
192,192,134824,1,0,0:0:0:0:
64,192,134824,1,0,0:0:0:0:
320,192,135175,1,0,0:0:0:0:
192,192,135526,1,0,0:0:0:0:
64,192,135877,1,0,0:0:0:0:
320,192,135877,1,0,0:0:0:0:
320,192,136228,1,0,0:0:0:0:
192,192,136578,1,0,0:0:0:0:
320,192,136929,1,0,0:0:0:0:
448,192,136929,1,0,0:0:0:0:
448,192,137280,1,0,0:0:0:0:
192,192,137631,1,0,0:0:0:0:
320,192,137631,1,0,0:0:0:0:
320,192,137982,1,0,0:0:0:0:
64,192,137982,1,0,0:0:0:0:
448,192,138333,1,0,0:0:0:0:
320,192,138508,1,0,0:0:0:0:
64,192,138684,1,0,0:0:0:0:
192,192,138684,1,0,0:0:0:0:
448,192,138859,1,0,0:0:0:0:
320,192,139035,1,0,0:0:0:0:
448,192,139035,1,0,0:0:0:0:
64,192,139385,1,0,0:0:0:0:
448,192,139561,1,0,0:0:0:0:
192,192,139736,1,0,0:0:0:0:
320,192,139736,1,0,0:0:0:0:
320,192,139912,1,0,0:0:0:0:
192,192,140087,1,0,0:0:0:0:
448,192,140087,1,0,0:0:0:0:
192,192,140438,1,0,0:0:0:0:
448,192,140614,1,0,0:0:0:0:
320,192,140789,1,0,0:0:0:0:
192,192,140789,1,0,0:0:0:0:
448,192,140964,1,0,0:0:0:0:
320,192,141140,1,0,0:0:0:0:
448,192,141140,1,0,0:0:0:0:
192,192,141491,1,0,0:0:0:0:
320,192,141842,1,0,0:0:0:0:
448,192,141842,1,0,0:0:0:0:
192,192,142192,1,0,0:0:0:0:
320,192,142192,1,0,0:0:0:0:
192,192,142368,1,0,0:0:0:0:
448,192,142543,1,0,0:0:0:0:
64,192,142719,1,0,0:0:0:0:
192,192,142894,1,0,0:0:0:0:
320,192,142894,1,0,0:0:0:0:
320,192,143070,1,0,0:0:0:0:
192,192,143245,1,0,0:0:0:0:
64,192,143245,1,0,0:0:0:0:
320,192,143596,1,0,0:0:0:0:
192,192,143947,1,0,0:0:0:0:
320,192,143947,1,0,0:0:0:0:
320,192,144298,1,0,0:0:0:0:
64,192,144298,1,0,0:0:0:0:
320,192,144649,1,0,0:0:0:0:
192,192,145000,1,0,0:0:0:0:
320,192,145000,1,0,0:0:0:0:
320,192,145350,1,0,0:0:0:0:
448,192,145350,1,0,0:0:0:0:
448,192,145701,1,0,0:0:0:0:
192,192,146052,1,0,0:0:0:0:
448,192,146052,1,0,0:0:0:0:
320,192,146403,1,0,0:0:0:0:
192,192,146403,1,0,0:0:0:0:
448,192,146754,1,0,0:0:0:0:
320,192,146929,1,0,0:0:0:0:
64,192,147105,1,0,0:0:0:0:
192,192,147105,1,0,0:0:0:0:
448,192,147280,1,0,0:0:0:0:
320,192,147456,1,0,0:0:0:0:
448,192,147456,1,0,0:0:0:0:
64,192,147807,1,0,0:0:0:0:
448,192,147982,1,0,0:0:0:0:
192,192,148157,1,0,0:0:0:0:
320,192,148157,1,0,0:0:0:0:
320,192,148333,1,0,0:0:0:0:
192,192,148508,1,0,0:0:0:0:
448,192,148508,1,0,0:0:0:0:
192,192,148859,1,0,0:0:0:0:
448,192,149035,1,0,0:0:0:0:
320,192,149210,1,0,0:0:0:0:
192,192,149210,1,0,0:0:0:0:
448,192,149385,1,0,0:0:0:0:
320,192,149561,1,0,0:0:0:0:
448,192,149561,1,0,0:0:0:0:
192,192,149912,1,0,0:0:0:0:
320,192,150263,1,0,0:0:0:0:
448,192,150263,1,0,0:0:0:0:
192,192,150614,1,0,0:0:0:0:
64,192,150614,1,0,0:0:0:0:
192,192,150789,1,0,0:0:0:0:
64,192,150789,1,0,0:0:0:0:
448,192,150964,1,0,0:0:0:0:
192,192,150964,1,0,0:0:0:0:
64,192,151140,1,0,0:0:0:0:
192,192,151666,128,0,152017:0:0:0:0:
320,192,152017,128,0,152368:0:0:0:0:
192,192,152368,128,0,152719:0:0:0:0:
64,192,152719,128,0,153070:0:0:0:0:
320,192,153070,128,0,153421:0:0:0:0:
192,192,153421,128,0,153771:0:0:0:0:
320,192,153771,128,0,154122:0:0:0:0:
448,192,154122,128,0,154473:0:0:0:0:
192,192,154473,128,0,154824:0:0:0:0:
320,192,154824,128,0,155175:0:0:0:0:
448,192,155175,128,0,155350:0:0:0:0:
320,192,155350,128,0,155526:0:0:0:0:
64,192,155526,128,0,155701:0:0:0:0:
448,192,155701,128,0,155877:0:0:0:0:
320,192,155877,128,0,156228:0:0:0:0:
64,192,156228,128,0,156403:0:0:0:0:
448,192,156403,128,0,156578:0:0:0:0:
192,192,156578,128,0,156754:0:0:0:0:
320,192,156754,128,0,156929:0:0:0:0:
192,192,156929,128,0,157192:0:0:0:0:
192,192,157280,128,0,157456:0:0:0:0:
448,192,157456,128,0,157631:0:0:0:0:
320,192,157631,128,0,157807:0:0:0:0:
448,192,157807,128,0,157982:0:0:0:0:
320,192,157982,128,0,158333:0:0:0:0:
192,192,158333,128,0,158684:0:0:0:0:
320,192,158684,128,0,159035:0:0:0:0:
192,192,159035,128,0,159210:0:0:0:0:
64,192,159210,128,0,159385:0:0:0:0:
448,192,159385,128,0,159561:0:0:0:0:
64,192,159561,128,0,159736:0:0:0:0:
192,192,159736,128,0,159912:0:0:0:0:
320,192,159912,128,0,160087:0:0:0:0:
192,192,160087,128,0,160438:0:0:0:0:
320,192,160438,128,0,160789:0:0:0:0:
192,192,160789,128,0,161140:0:0:0:0:
64,192,161140,128,0,161491:0:0:0:0:
320,192,161491,128,0,161842:0:0:0:0:
192,192,161842,128,0,162192:0:0:0:0:
320,192,162192,128,0,162543:0:0:0:0:
448,192,162543,128,0,162894:0:0:0:0:
192,192,162894,128,0,163245:0:0:0:0:
320,192,163245,128,0,163596:0:0:0:0:
448,192,163596,128,0,163771:0:0:0:0:
320,192,163771,128,0,163947:0:0:0:0:
64,192,163947,128,0,164122:0:0:0:0:
448,192,164122,128,0,164298:0:0:0:0:
320,192,164298,128,0,164649:0:0:0:0:
64,192,164649,128,0,164824:0:0:0:0:
448,192,164824,128,0,165000:0:0:0:0:
192,192,165000,128,0,165175:0:0:0:0:
320,192,165175,128,0,165350:0:0:0:0:
192,192,165350,128,0,165614:0:0:0:0:
192,192,165701,128,0,165877:0:0:0:0:
448,192,165877,128,0,166052:0:0:0:0:
320,192,166052,128,0,166228:0:0:0:0:
448,192,166228,128,0,166403:0:0:0:0:
320,192,166403,128,0,166754:0:0:0:0:
192,192,166754,128,0,167105:0:0:0:0:
320,192,167105,128,0,167456:0:0:0:0:
192,192,167456,128,0,167631:0:0:0:0:
64,192,167631,128,0,167807:0:0:0:0:
448,192,167807,128,0,167982:0:0:0:0:
64,192,167982,128,0,168157:0:0:0:0:
320,192,168508,128,0,170614:0:0:0:0:
192,192,168859,1,0,0:0:0:0:
64,192,169210,1,0,0:0:0:0:
64,192,169561,1,0,0:0:0:0:
64,192,169912,1,0,0:0:0:0:
192,192,169912,1,0,0:0:0:0:
64,192,170263,1,0,0:0:0:0:
192,192,170438,1,0,0:0:0:0:
192,192,170614,128,0,172719:0:0:0:0:
448,192,170614,1,0,0:0:0:0:
448,192,170964,1,0,0:0:0:0:
320,192,171315,1,0,0:0:0:0:
64,192,171666,1,0,0:0:0:0:
320,192,171842,1,0,0:0:0:0:
448,192,172017,1,0,0:0:0:0:
320,192,172192,1,0,0:0:0:0:
448,192,172368,1,0,0:0:0:0:
320,192,172543,1,0,0:0:0:0:
64,192,172719,128,0,173771:0:0:0:0:
320,192,172719,1,0,0:0:0:0:
448,192,173070,1,0,0:0:0:0:
320,192,173421,1,0,0:0:0:0:
320,192,173771,128,0,174824:0:0:0:0:
192,192,174122,1,0,0:0:0:0:
64,192,174473,1,0,0:0:0:0:
448,192,174824,128,0,175964:0:0:0:0:
192,192,174824,1,0,0:0:0:0:
320,192,175175,1,0,0:0:0:0:
192,192,175526,1,0,0:0:0:0:
64,192,175877,128,0,176052:0:0:0:0:
192,192,176052,128,0,176228:0:0:0:0:
320,192,176228,128,0,176403:0:0:0:0:
64,192,176403,128,0,176578:0:0:0:0:
192,192,176578,128,0,176754:0:0:0:0:
320,192,176754,128,0,176842:0:0:0:0:
448,192,176754,128,0,176842:0:0:0:0:
320,192,176929,128,0,179035:0:0:0:0:
192,192,177280,1,0,0:0:0:0:
64,192,177631,1,0,0:0:0:0:
64,192,177982,1,0,0:0:0:0:
64,192,178333,1,0,0:0:0:0:
192,192,178333,1,0,0:0:0:0:
64,192,178684,1,0,0:0:0:0:
192,192,178859,1,0,0:0:0:0:
192,192,179035,128,0,181140:0:0:0:0:
448,192,179035,1,0,0:0:0:0:
448,192,179385,1,0,0:0:0:0:
320,192,179736,1,0,0:0:0:0:
64,192,180087,1,0,0:0:0:0:
320,192,180263,1,0,0:0:0:0:
448,192,180438,1,0,0:0:0:0:
320,192,180614,1,0,0:0:0:0:
448,192,180789,1,0,0:0:0:0:
320,192,180964,1,0,0:0:0:0:
64,192,181140,128,0,182192:0:0:0:0:
320,192,181140,1,0,0:0:0:0:
448,192,181491,1,0,0:0:0:0:
320,192,181842,1,0,0:0:0:0:
320,192,182192,128,0,183245:0:0:0:0:
192,192,182543,1,0,0:0:0:0:
64,192,182894,1,0,0:0:0:0:
192,192,183245,5,0,0:0:0:0:
448,192,183245,128,0,184385:0:0:0:0:
320,192,183596,1,0,0:0:0:0:
192,192,183947,1,0,0:0:0:0:
64,192,184298,128,0,184473:0:0:0:0:
192,192,184473,128,0,184649:0:0:0:0:
320,192,184649,128,0,184824:0:0:0:0:
64,192,184824,128,0,185000:0:0:0:0:
192,192,185000,128,0,185175:0:0:0:0:
320,192,185175,128,0,185350:0:0:0:0:
448,192,185175,128,0,185350:0:0:0:0:
192,192,185350,128,0,185526:0:0:0:0:
320,192,185526,128,0,185701:0:0:0:0:
192,192,185701,128,0,185877:0:0:0:0:
448,192,185877,128,0,186052:0:0:0:0:
64,192,186052,128,0,186228:0:0:0:0:
320,192,186228,128,0,186403:0:0:0:0:
448,192,186228,128,0,186403:0:0:0:0:
64,192,186403,128,0,186578:0:0:0:0:
320,192,186578,128,0,186754:0:0:0:0:
64,192,186754,128,0,186929:0:0:0:0:
448,192,186929,128,0,187105:0:0:0:0:
64,192,187105,128,0,187280:0:0:0:0:
320,192,187280,128,0,187456:0:0:0:0:
448,192,187280,128,0,187456:0:0:0:0:
192,192,187456,128,0,187631:0:0:0:0:
64,192,187631,128,0,187807:0:0:0:0:
192,192,187807,128,0,187982:0:0:0:0:
320,192,187982,128,0,188157:0:0:0:0:
64,192,188157,128,0,188333:0:0:0:0:
192,192,188333,128,0,188508:0:0:0:0:
64,192,188508,128,0,189298:0:0:0:0:
448,192,188508,128,0,189298:0:0:0:0:
448,192,189561,128,0,189736:0:0:0:0:
320,192,189561,128,0,189736:0:0:0:0:
64,192,189912,1,0,0:0:0:0:
192,192,189912,1,0,0:0:0:0:
192,192,190263,1,0,0:0:0:0:
64,192,190263,1,0,0:0:0:0:
448,192,190614,128,0,190877:0:0:0:0:
320,192,190614,128,0,190877:0:0:0:0:
192,192,190964,1,0,0:0:0:0:
64,192,190964,1,0,0:0:0:0:
192,192,191315,1,0,0:0:0:0:
64,192,191315,1,0,0:0:0:0:
448,192,191666,128,0,191929:0:0:0:0:
192,192,191666,1,0,0:0:0:0:
64,192,191754,1,0,0:0:0:0:
192,192,191842,1,0,0:0:0:0:
320,192,191929,1,0,0:0:0:0:
192,192,192017,1,0,0:0:0:0:
320,192,192368,1,0,0:0:0:0:
64,192,192368,1,0,0:0:0:0:
192,192,192719,128,0,192982:0:0:0:0:
448,192,193070,1,0,0:0:0:0:
320,192,193070,1,0,0:0:0:0:
320,192,193245,128,0,193508:0:0:0:0:
192,192,193421,1,0,0:0:0:0:
64,192,193421,1,0,0:0:0:0:
192,192,193771,128,0,194035:0:0:0:0:
320,192,194122,1,0,0:0:0:0:
448,192,194122,1,0,0:0:0:0:
64,192,194298,128,0,194561:0:0:0:0:
448,192,194473,1,0,0:0:0:0:
320,192,194473,1,0,0:0:0:0:
192,192,194824,128,0,195350:0:0:0:0:
448,192,195175,1,0,0:0:0:0:
320,192,195175,1,0,0:0:0:0:
320,192,195350,128,0,195701:0:0:0:0:
64,192,195526,1,0,0:0:0:0:
192,192,195526,1,0,0:0:0:0:
320,192,195877,1,0,0:0:0:0:
448,192,195964,1,0,0:0:0:0:
192,192,196052,1,0,0:0:0:0:
320,192,196140,1,0,0:0:0:0:
64,192,196228,1,0,0:0:0:0:
448,192,196228,1,0,0:0:0:0:
320,192,196315,1,0,0:0:0:0:
192,192,196403,1,0,0:0:0:0:
320,192,196491,1,0,0:0:0:0:
64,192,196578,1,0,0:0:0:0:
448,192,196578,1,0,0:0:0:0:
320,192,196666,1,0,0:0:0:0:
192,192,196754,1,0,0:0:0:0:
320,192,196842,1,0,0:0:0:0:
64,192,196929,128,0,197192:0:0:0:0:
192,192,197280,1,0,0:0:0:0:
448,192,197280,1,0,0:0:0:0:
320,192,197456,128,0,197631:0:0:0:0:
448,192,197982,128,0,198157:0:0:0:0:
192,192,197982,1,0,0:0:0:0:
320,192,198333,1,0,0:0:0:0:
192,192,198684,1,0,0:0:0:0:
320,192,199035,128,0,199385:0:0:0:0:
448,192,199385,1,0,0:0:0:0:
192,192,199736,1,0,0:0:0:0:
192,192,200087,128,0,200789:0:0:0:0:
448,192,200438,1,0,0:0:0:0:
64,192,200789,128,0,201140:0:0:0:0:
320,192,200789,1,0,0:0:0:0:
192,192,201140,128,0,201491:0:0:0:0:
448,192,201140,128,0,202105:0:0:0:0:
320,192,201140,1,0,0:0:0:0:
64,192,201491,128,0,201666:0:0:0:0:
320,192,201491,1,0,0:0:0:0:
320,192,201666,128,0,202105:0:0:0:0:
64,192,201842,1,0,0:0:0:0:
64,192,202192,1,0,0:0:0:0:
320,192,202192,128,0,202894:0:0:0:0:
448,192,202192,128,0,202894:0:0:0:0:
192,192,202982,1,0,0:0:0:0:
64,192,203157,1,0,0:0:0:0:
192,192,203245,128,0,203947:0:0:0:0:
448,192,203245,128,0,203947:0:0:0:0:
64,192,204035,1,0,0:0:0:0:
192,192,204210,1,0,0:0:0:0:
64,192,204298,128,0,205000:0:0:0:0:
448,192,204298,128,0,205350:0:0:0:0:
192,192,205131,1,0,0:0:0:0:
64,192,205263,1,0,0:0:0:0:
192,192,205350,1,0,0:0:0:0:
320,192,205350,128,0,206403:0:0:0:0:
64,192,205438,1,0,0:0:0:0:
192,192,205526,1,0,0:0:0:0:
192,192,205701,1,0,0:0:0:0:
448,192,205701,1,0,0:0:0:0:
64,192,205877,128,0,206403:0:0:0:0:
192,192,206052,1,0,0:0:0:0:
448,192,206403,128,0,208508:0:0:0:0:
320,192,206754,1,0,0:0:0:0:
64,192,206754,1,0,0:0:0:0:
192,192,206929,1,0,0:0:0:0:
320,192,207105,1,0,0:0:0:0:
64,192,207105,1,0,0:0:0:0:
192,192,207280,1,0,0:0:0:0:
320,192,207456,1,0,0:0:0:0:
64,192,207456,1,0,0:0:0:0:
320,192,207807,1,0,0:0:0:0:
192,192,207807,1,0,0:0:0:0:
64,192,207982,1,0,0:0:0:0:
192,192,208157,1,0,0:0:0:0:
320,192,208157,1,0,0:0:0:0:
192,192,208333,1,0,0:0:0:0:
320,192,208508,128,0,210614:0:0:0:0:
64,192,208508,1,0,0:0:0:0:
64,192,208859,1,0,0:0:0:0:
192,192,208859,1,0,0:0:0:0:
448,192,209035,1,0,0:0:0:0:
64,192,209210,1,0,0:0:0:0:
192,192,209210,1,0,0:0:0:0:
192,192,209385,1,0,0:0:0:0:
64,192,209561,1,0,0:0:0:0:
448,192,209561,1,0,0:0:0:0:
192,192,209912,1,0,0:0:0:0:
448,192,209912,1,0,0:0:0:0:
64,192,210087,1,0,0:0:0:0:
192,192,210263,1,0,0:0:0:0:
448,192,210263,1,0,0:0:0:0:
64,192,210350,1,0,0:0:0:0:
192,192,210438,1,0,0:0:0:0:
64,192,210526,1,0,0:0:0:0:
192,192,210614,1,0,0:0:0:0:
448,192,210614,128,0,212719:0:0:0:0:
320,192,210964,1,0,0:0:0:0:
64,192,210964,1,0,0:0:0:0:
192,192,211140,1,0,0:0:0:0:
64,192,211315,1,0,0:0:0:0:
320,192,211315,1,0,0:0:0:0:
192,192,211491,1,0,0:0:0:0:
64,192,211666,1,0,0:0:0:0:
320,192,211666,1,0,0:0:0:0:
64,192,212017,1,0,0:0:0:0:
320,192,212017,1,0,0:0:0:0:
320,192,212192,1,0,0:0:0:0:
64,192,212368,1,0,0:0:0:0:
320,192,212368,1,0,0:0:0:0:
192,192,212543,1,0,0:0:0:0:
192,192,212719,1,0,0:0:0:0:
64,192,212719,1,0,0:0:0:0:
320,192,212719,128,0,214824:0:0:0:0:
64,192,213070,1,0,0:0:0:0:
192,192,213070,1,0,0:0:0:0:
448,192,213245,1,0,0:0:0:0:
192,192,213421,1,0,0:0:0:0:
448,192,213421,1,0,0:0:0:0:
192,192,213596,1,0,0:0:0:0:
64,192,213771,1,0,0:0:0:0:
192,192,214122,1,0,0:0:0:0:
64,192,214122,1,0,0:0:0:0:
448,192,214298,1,0,0:0:0:0:
192,192,214473,1,0,0:0:0:0:
64,192,214473,1,0,0:0:0:0:
192,192,214649,1,0,0:0:0:0:
64,192,214824,1,0,0:0:0:0:
448,192,214824,128,0,216929:0:0:0:0:
320,192,215175,1,0,0:0:0:0:
64,192,215175,1,0,0:0:0:0:
192,192,215350,1,0,0:0:0:0:
320,192,215526,1,0,0:0:0:0:
64,192,215526,1,0,0:0:0:0:
192,192,215701,1,0,0:0:0:0:
320,192,215877,1,0,0:0:0:0:
64,192,215877,1,0,0:0:0:0:
320,192,216228,1,0,0:0:0:0:
192,192,216228,1,0,0:0:0:0:
64,192,216403,1,0,0:0:0:0:
192,192,216578,1,0,0:0:0:0:
320,192,216578,1,0,0:0:0:0:
192,192,216754,1,0,0:0:0:0:
320,192,216929,128,0,219035:0:0:0:0:
64,192,216929,1,0,0:0:0:0:
64,192,217280,1,0,0:0:0:0:
192,192,217280,1,0,0:0:0:0:
448,192,217456,1,0,0:0:0:0:
64,192,217631,1,0,0:0:0:0:
192,192,217631,1,0,0:0:0:0:
192,192,217807,1,0,0:0:0:0:
64,192,217982,1,0,0:0:0:0:
448,192,217982,1,0,0:0:0:0:
192,192,218333,1,0,0:0:0:0:
448,192,218333,1,0,0:0:0:0:
64,192,218508,1,0,0:0:0:0:
192,192,218684,1,0,0:0:0:0:
448,192,218684,1,0,0:0:0:0:
64,192,218771,1,0,0:0:0:0:
192,192,218859,1,0,0:0:0:0:
64,192,218947,1,0,0:0:0:0:
192,192,219035,1,0,0:0:0:0:
448,192,219035,128,0,221140:0:0:0:0:
320,192,219385,1,0,0:0:0:0:
64,192,219385,1,0,0:0:0:0:
192,192,219561,1,0,0:0:0:0:
64,192,219736,1,0,0:0:0:0:
320,192,219736,1,0,0:0:0:0:
192,192,219912,1,0,0:0:0:0:
64,192,220087,1,0,0:0:0:0:
320,192,220087,1,0,0:0:0:0:
64,192,220438,1,0,0:0:0:0:
320,192,220438,1,0,0:0:0:0:
320,192,220614,1,0,0:0:0:0:
64,192,220789,1,0,0:0:0:0:
320,192,220789,1,0,0:0:0:0:
192,192,220964,1,0,0:0:0:0:
192,192,221140,1,0,0:0:0:0:
64,192,221140,1,0,0:0:0:0:
320,192,221140,128,0,222719:0:0:0:0:
64,192,221491,1,0,0:0:0:0:
192,192,221491,1,0,0:0:0:0:
448,192,221666,1,0,0:0:0:0:
192,192,221842,1,0,0:0:0:0:
448,192,221842,1,0,0:0:0:0:
192,192,222017,1,0,0:0:0:0:
64,192,222192,1,0,0:0:0:0:
192,192,222543,1,0,0:0:0:0:
64,192,222543,1,0,0:0:0:0:
448,192,222719,1,0,0:0:0:0:
320,192,223245,128,0,225263:0:0:0:0:
64,192,223245,1,0,0:0:0:0:
448,192,223596,1,0,0:0:0:0:
64,192,223596,1,0,0:0:0:0:
192,192,223771,1,0,0:0:0:0:
64,192,223947,1,0,0:0:0:0:
448,192,223947,1,0,0:0:0:0:
448,192,224122,1,0,0:0:0:0:
64,192,224298,1,0,0:0:0:0:
64,192,224649,1,0,0:0:0:0:
448,192,224649,1,0,0:0:0:0:
192,192,224824,1,0,0:0:0:0:
192,192,225000,1,0,0:0:0:0:
448,192,225000,1,0,0:0:0:0:
64,192,225175,1,0,0:0:0:0:
320,192,225350,128,0,225877:0:0:0:0:
192,192,225701,1,0,0:0:0:0:
448,192,225701,1,0,0:0:0:0:
192,192,225877,128,0,226403:0:0:0:0:
448,192,226052,1,0,0:0:0:0:
320,192,226052,1,0,0:0:0:0:
64,192,226403,128,0,226929:0:0:0:0:
320,192,226754,1,0,0:0:0:0:
192,192,226754,1,0,0:0:0:0:
448,192,226929,128,0,227456:0:0:0:0:
64,192,227105,1,0,0:0:0:0:
192,192,227105,1,0,0:0:0:0:
320,192,227456,128,0,228508:0:0:0:0:
64,192,227456,1,0,0:0:0:0:
64,192,227807,1,0,0:0:0:0:
448,192,227807,1,0,0:0:0:0:
192,192,227982,1,0,0:0:0:0:
448,192,228157,1,0,0:0:0:0:
64,192,228157,1,0,0:0:0:0:
448,192,228333,1,0,0:0:0:0:
64,192,228508,1,0,0:0:0:0:
448,192,228508,128,0,229473:0:0:0:0:
320,192,228859,1,0,0:0:0:0:
64,192,228859,1,0,0:0:0:0:
192,192,229035,1,0,0:0:0:0:
320,192,229210,1,0,0:0:0:0:
192,192,229210,1,0,0:0:0:0:
64,192,229385,1,0,0:0:0:0:
448,192,229561,128,0,230614:0:0:0:0:
320,192,229912,1,0,0:0:0:0:
192,192,229912,1,0,0:0:0:0:
64,192,230087,128,0,230614:0:0:0:0:
320,192,230263,1,0,0:0:0:0:
192,192,230263,1,0,0:0:0:0:
320,192,230614,128,0,231578:0:0:0:0:
192,192,230964,1,0,0:0:0:0:
64,192,230964,1,0,0:0:0:0:
448,192,231140,128,0,231578:0:0:0:0:
192,192,231315,1,0,0:0:0:0:
64,192,231315,1,0,0:0:0:0:
320,192,231666,128,0,233684:0:0:0:0:
64,192,231666,1,0,0:0:0:0:
448,192,232017,1,0,0:0:0:0:
64,192,232017,1,0,0:0:0:0:
192,192,232192,1,0,0:0:0:0:
64,192,232368,1,0,0:0:0:0:
448,192,232368,1,0,0:0:0:0:
448,192,232543,1,0,0:0:0:0:
64,192,232719,1,0,0:0:0:0:
64,192,233070,1,0,0:0:0:0:
448,192,233070,1,0,0:0:0:0:
192,192,233245,1,0,0:0:0:0:
192,192,233421,1,0,0:0:0:0:
448,192,233421,1,0,0:0:0:0:
64,192,233596,1,0,0:0:0:0:
320,192,233771,128,0,234298:0:0:0:0:
192,192,234122,1,0,0:0:0:0:
448,192,234122,1,0,0:0:0:0:
192,192,234298,128,0,234824:0:0:0:0:
448,192,234473,1,0,0:0:0:0:
320,192,234473,1,0,0:0:0:0:
64,192,234824,128,0,235350:0:0:0:0:
320,192,235175,1,0,0:0:0:0:
192,192,235175,1,0,0:0:0:0:
448,192,235350,128,0,235877:0:0:0:0:
64,192,235526,1,0,0:0:0:0:
192,192,235526,1,0,0:0:0:0:
64,192,235877,1,0,0:0:0:0:
320,192,235877,128,0,236929:0:0:0:0:
64,192,236228,1,0,0:0:0:0:
448,192,236228,1,0,0:0:0:0:
192,192,236403,1,0,0:0:0:0:
448,192,236578,1,0,0:0:0:0:
64,192,236578,1,0,0:0:0:0:
448,192,236754,1,0,0:0:0:0:
64,192,236929,1,0,0:0:0:0:
448,192,236929,128,0,237807:0:0:0:0:
320,192,237280,1,0,0:0:0:0:
64,192,237280,1,0,0:0:0:0:
192,192,237456,1,0,0:0:0:0:
320,192,237631,1,0,0:0:0:0:
192,192,237631,1,0,0:0:0:0:
64,192,237807,1,0,0:0:0:0:
448,192,237982,128,0,239035:0:0:0:0:
320,192,238333,1,0,0:0:0:0:
192,192,238333,1,0,0:0:0:0:
64,192,238508,128,0,239035:0:0:0:0:
192,192,238684,1,0,0:0:0:0:
320,192,238684,1,0,0:0:0:0:
320,192,239035,128,0,240087:0:0:0:0:
192,192,239385,1,0,0:0:0:0:
64,192,239385,1,0,0:0:0:0:
448,192,239561,128,0,240087:0:0:0:0:
192,192,239736,1,0,0:0:0:0:
64,192,239736,1,0,0:0:0:0:
192,192,240087,128,0,240789:0:0:0:0:
