osu file format v14

[General]
AudioFilename: audio.mp3
AudioLeadIn: 0
PreviewTime: 48887
Countdown: 1
SampleSet: Soft
StackLeniency: 0.7
Mode: 0
LetterboxInBreaks: 0
WidescreenStoryboard: 1

[Editor]
Bookmarks: 17009,49185,61583,73841,134776,162781
DistanceSpacing: 1.4
BeatDivisor: 3
GridSize: 4
TimelineZoom: 2.599999

[Metadata]
Title:La Ley y La Trampa
TitleUnicode:La Ley y La Trampa
Artist:Chaqueno Palavecino
ArtistUnicode:ChaqueƱo Palavecino
Creator:MaestroSplinter
Version:Amargo y Retruco
Source:
Tags:
BeatmapID:1832051
BeatmapSetID:876611

[Difficulty]
HPDrainRate:5
CircleSize:4
OverallDifficulty:8
ApproachRate:9.2
SliderMultiplier:2
SliderTickRate:1

[Events]
//Background and Video events
0,0,"chaqueno2.jpg",0,0
//Break Periods
//Storyboard Layer 0 (Background)
//Storyboard Layer 1 (Fail)
//Storyboard Layer 2 (Pass)
//Storyboard Layer 3 (Foreground)
//Storyboard Sound Samples

[TimingPoints]
156,510.725229826353,4,2,0,80,1,0
7476,510.725229826353,4,2,0,80,1,0
9349,510.725229826353,4,2,0,80,1,0
16414,-100,4,2,0,5,0,0
16499,-100,4,2,0,80,0,0
27735,515.10989010989,4,2,0,80,1,0
29795,512.820512820513,4,2,0,80,1,0
33897,510.725229826353,4,2,0,80,1,0
42068,515.10989010989,4,2,0,80,1,0
42068,-119.047619047619,4,2,0,80,0,0
43956,-100,4,2,0,80,0,0
44128,510.725229826353,4,2,0,80,1,0
47703,504.201680672269,4,2,0,80,1,0
48207,510.725229826353,4,2,0,80,1,0
49228,521.739130434783,4,2,0,80,1,1
49488,-100,4,2,0,5,0,1
49575,-100,4,2,0,80,0,0
50271,517.241379310345,4,2,0,80,1,1
50529,-100,4,2,0,5,0,1
50615,-100,4,2,0,80,0,0
51305,516.129032258065,4,2,0,80,1,0
51305,-83.3333333333333,4,2,0,80,0,1
52337,-83.3333333333333,4,2,0,80,0,0
52853,-83.3333333333333,4,2,0,80,0,1
57498,510.725229826353,4,2,0,80,1,1
57498,-83.3333333333333,4,2,0,80,0,1
65668,-83.3333333333333,4,2,0,80,0,0
73841,511.770726714432,4,2,0,80,1,1
73841,-100,4,2,0,80,0,0
81005,515.10989010989,4,2,0,80,1,0
82550,-66.6666666666667,4,2,0,80,0,0
83074,510.725229826353,4,2,0,80,1,0
83074,-90.9090909090909,4,2,0,80,0,0
85116,515.10989010989,4,2,0,80,1,0
87176,510.725229826353,4,2,0,80,1,0
91261,512.820512820513,4,2,0,80,1,0
99466,515.10989010989,4,2,0,80,1,0
101526,510.725229826353,4,2,0,80,1,0
103739,510.725229826353,4,2,0,80,1,0
105611,506.41458474004,4,2,0,80,1,0
107636,515.10989010989,4,2,0,80,1,0
111756,512.820512820513,4,2,0,80,1,0
111926,-100,4,2,0,5,0,0
112012,510.725229826353,4,2,0,80,1,0
112182,-100,4,2,0,5,0,0
112267,510.725229826353,4,2,0,80,1,0
112394,-100,4,2,0,5,0,0
112437,-100,4,2,0,80,0,0
112692,-100,4,2,0,5,0,0
112777,-100,4,2,0,80,0,0
112905,-100,4,2,0,5,0,0
112947,-100,4,2,0,80,0,0
113203,-100,4,2,0,5,0,0
113288,-100,4,2,0,80,0,0
113416,-100,4,2,0,5,0,0
113458,-100,4,2,0,80,0,0
113714,-100,4,2,0,5,0,0
113799,-100,4,2,0,80,0,0
113926,-100,4,2,0,5,0,0
113969,-100,4,2,0,80,0,0
114224,-100,4,2,0,5,0,0
114309,-100,4,2,0,80,0,0
114437,-100,4,2,0,5,0,0
114480,-100,4,2,0,80,0,0
114735,-100,4,2,0,5,0,0
114820,-100,4,2,0,80,0,0
114948,-100,4,2,0,5,0,0
114990,-100,4,2,0,80,0,0
115246,-100,4,2,0,5,0,0
115331,-100,4,2,0,80,0,0
115842,-117.647058823529,4,2,0,80,0,0
117714,-100,4,2,0,80,0,0
122992,512.820512820513,4,2,0,80,1,0
122992,-90.9090909090909,4,2,0,80,0,1
123333,-90.9090909090909,4,2,0,80,0,0
124017,-90.9090909090909,4,2,0,80,0,1
124359,-90.9090909090909,4,2,0,80,0,0
125043,-90.9090909090909,4,2,0,80,0,1
126068,508.474576271186,4,2,0,80,1,0
126068,-80,4,2,0,80,0,1
127084,512.820512820513,4,2,0,80,1,1
127084,-83.3333333333333,4,2,0,80,0,1
139391,508.474576271186,4,2,0,80,1,1
139391,-83.3333333333333,4,2,0,80,0,0
147526,512.820512820513,4,2,0,80,1,0
147526,-83.3333333333333,4,2,0,80,0,0
153679,510.725229826353,4,2,0,80,1,0
157764,-90.9090909090909,4,2,0,80,0,0
161850,508.474576271186,4,2,0,80,1,0
161850,-100,4,2,12,80,0,0

[Colours]
Combo1 : 255,0,0
Combo2 : 255,98,21
Combo3 : 212,212,212
SliderBorder : 255,255,255
SliderTrackOverride : 0,10,20

[HitObjects]
106,113,156,6,0,P|76:98|12:94,2,66.6666666666667
164,212,666,2,0,P|194:198|227:193,2,66.6666666666667
93,336,1177,1,0,0:0:0:0:
48,236,1347,1,0,0:0:0:0:
96,346,1517,1,0,0:0:0:0:
216,296,1688,2,0,B|281:277|277:325|351:307,1,133.333333333333
512,207,2198,6,0,L|506:289,2,66.6666666666667
422,153,2709,2,0,L|412:72,2,66.6666666666667
357,251,3220,1,0,0:0:0:0:
238,222,3390,1,0,0:0:0:0:
372,255,3560,1,0,0:0:0:0:
268,135,3731,2,0,P|205:136|154:184,1,133.333333333333
103,264,4241,5,0,0:0:0:0:
72,126,4412,2,0,P|36:115|-5:113,1,66.6666666666667
107,290,4752,1,0,0:0:0:0:
155,181,4922,2,0,P|190:170|232:168,1,66.6666666666667
362,182,5263,1,0,0:0:0:0:
294,85,5433,1,0,0:0:0:0:
372,196,5603,1,0,0:0:0:0:
506,114,5773,2,0,L|497:180,2,66.6666666666667
360,58,6284,5,0,0:0:0:0:
480,18,6454,1,0,0:0:0:0:
345,66,6625,1,0,0:0:0:0:
496,180,6795,2,0,L|505:114,2,66.6666666666667
473,309,7306,1,0,0:0:0:0:
297,171,7476,5,0,0:0:0:0:
307,266,7646,1,0,0:0:0:0:
317,361,7816,1,0,0:0:0:0:
385,206,7986,5,0,0:0:0:0:
235,326,8156,1,0,0:0:0:0:
377,214,8327,1,0,0:0:0:0:
186,248,8497,5,0,0:0:0:0:
398,307,8667,1,0,0:0:0:0:
173,244,8837,1,0,0:0:0:0:
358,126,9008,5,0,0:0:0:0:
317,361,9178,1,0,0:0:0:0:
159,243,9348,5,0,0:0:0:0:
265,190,9519,2,0,P|296:185|322:189,2,33.3333333333333
159,243,9859,2,0,P|79:242|32:202,1,133.333333333333
105,96,10370,2,0,L|119:184,1,66.6666666666667
190,15,10710,1,0,0:0:0:0:
269,163,10881,2,0,L|255:251,1,66.6666666666667
189,95,11221,1,0,0:0:0:0:
348,223,11391,5,0,0:0:0:0:
286,47,11562,1,0,0:0:0:0:
172,195,11732,1,0,0:0:0:0:
364,123,11902,2,0,P|391:126|443:143,1,66.6666666666667
200,100,12243,1,0,0:0:0:0:
248,261,12413,5,0,0:0:0:0:
287,47,12583,1,0,0:0:0:0:
396,246,12753,2,0,P|428:250|461:248,1,66.6666666666667
269,161,13094,1,0,0:0:0:0:
328,342,13264,1,0,0:0:0:0:
269,161,13434,5,0,0:0:0:0:
245,264,13605,1,0,0:0:0:0:
221,367,13775,1,0,0:0:0:0:
176,194,13945,5,0,0:0:0:0:
313,340,14115,1,0,0:0:0:0:
128,384,14286,1,0,0:0:0:0:
266,177,14456,5,0,0:0:0:0:
221,367,14626,1,0,0:0:0:0:
90,223,14796,1,0,0:0:0:0:
306,251,14966,5,0,0:0:0:0:
92,309,15137,1,0,0:0:0:0:
319,246,15307,1,0,0:0:0:0:
125,72,15477,6,0,P|137:107|148:158,1,66.6666666666667
213,257,15818,2,0,P|221:224|232:193,1,66.6666666666667
329,144,16158,2,0,P|375:130|449:141,1,100
512,195,16499,2,0,P|466:155|437:16,1,200
350,0,17180,1,0,0:0:0:0:
350,0,17350,1,0,0:0:0:0:
295,101,17520,6,0,B|199:141|199:61|99:101,1,200
15,151,18201,1,0,0:0:0:0:
32,40,18371,1,0,0:0:0:0:
149,169,18542,2,0,P|147:207|134:247,1,66.6666666666667
94,90,18882,1,0,0:0:0:0:
27,229,19052,2,0,P|32:266|48:305,2,66.6666666666667
149,358,19563,6,0,B|183:371|183:371|298:344,1,133.333333333333
393,288,20074,2,0,L|314:268,1,66.6666666666667
254,199,20414,1,0,0:0:0:0:
212,364,20584,2,0,L|277:349,1,66.6666666666667
328,271,20925,1,0,0:0:0:0:
166,237,21095,2,0,P|127:224|79:227,1,66.6666666666667
254,199,21436,1,0,0:0:0:0:
5,178,21606,6,0,P|53:138|134:131,1,133.333333333333
235,112,22117,2,0,P|199:48|190:40,1,66.6666666666667
314,18,22457,1,0,0:0:0:0:
348,132,22627,2,0,P|312:196|303:204,1,66.6666666666667
235,112,22968,1,0,0:0:0:0:
209,272,23138,2,0,P|189:244|178:213,2,66.6666666666667
336,357,23649,5,0,0:0:0:0:
448,308,23819,2,0,P|486:317|523:336,1,66.6666666666667
336,357,24160,5,0,0:0:0:0:
386,233,24330,2,0,P|418:209|455:193,1,66.6666666666667
336,357,24670,5,0,0:0:0:0:
288,232,24840,2,0,P|290:192|302:153,1,66.6666666666667
336,357,25181,5,0,0:0:0:0:
224,306,25351,2,0,P|195:278|173:244,1,66.6666666666667
302,99,25692,6,0,L|295:178,1,66.6666666666667
244,34,26032,1,0,0:0:0:0:
187,162,26202,2,0,L|194:241,1,66.6666666666667
302,289,26543,1,0,0:0:0:0:
302,289,26713,2,0,L|295:368,1,66.6666666666667
192,228,27054,1,0,0:0:0:0:
298,161,27224,2,0,P|332:153|392:156,2,66.6666666666667
132,72,27735,6,0,P|162:128|178:211,1,133.333333333333
239,297,28250,2,0,P|247:263|263:237,1,66.6666666666667
177,195,28593,1,0,0:0:0:0:
160,364,28765,2,0,P|152:330|136:304,1,66.6666666666667
276,376,29108,2,0,B|345:396|343:356|411:368,1,133.333333333333
512,380,29623,1,0,0:0:0:0:
400,272,29795,6,0,P|384:236|384:184,1,66.6666666666667
420,60,30136,1,0,0:0:0:0:
496,248,30307,1,0,0:0:0:0:
320,116,30478,1,0,0:0:0:0:
512,144,30649,1,0,0:0:0:0:
316,264,30820,2,0,P|252:240|168:232,1,133.333333333333
32,216,31333,1,0,0:0:0:0:
112,176,31504,1,0,0:0:0:0:
108,276,31675,1,0,0:0:0:0:
36,104,31846,5,0,0:0:0:0:
128,72,32017,1,0,0:0:0:0:
220,40,32188,1,0,0:0:0:0:
52,16,32359,5,0,0:0:0:0:
204,132,32530,1,0,0:0:0:0:
52,16,32700,1,0,0:0:0:0:
80,240,32871,5,0,0:0:0:0:
128,72,33042,1,0,0:0:0:0:
80,240,33213,1,0,0:0:0:0:
272,180,33384,5,0,0:0:0:0:
96,148,33555,1,0,0:0:0:0:
156,308,33726,1,0,0:0:0:0:
346,138,33897,6,0,P|288:96|228:110,1,133.333333333333
346,226,34407,2,0,L|419:214,1,66.6666666666667
272,180,34748,1,0,0:0:0:0:
351,318,34918,2,0,L|424:306,1,66.6666666666667
259,276,35258,1,0,0:0:0:0:
346,226,35429,1,0,0:0:0:0:
265,370,35599,1,0,0:0:0:0:
172,234,35769,1,0,0:0:0:0:
394,151,35939,6,0,P|434:201|424:265,1,133.333333333333
261,206,36450,2,0,P|268:173|287:146,1,66.6666666666667
346,226,36791,1,0,0:0:0:0:
191,259,36961,2,0,P|175:229|173:196,1,66.6666666666667
197,98,37301,1,0,0:0:0:0:
283,303,37472,1,0,0:0:0:0:
95,216,37642,1,0,0:0:0:0:
306,112,37812,1,0,0:0:0:0:
99,333,37982,6,0,P|99:314|99:292,5,33.3333333333333,8|0|0|0|0|0,0:0|0:0|0:0|0:0|0:0|0:0,0:0:0:0:
66,231,38493,2,0,P|83:225|105:219,5,33.3333333333333
153,170,39004,2,0,P|164:185|176:203,5,33.3333333333333,8|0|0|0|0|0,0:0|0:0|0:0|0:0|0:0|0:0,0:0:0:0:
239,233,39514,2,0,P|229:248|215:266,5,33.3333333333333
307,282,40025,6,0,P|318:267|330:248,5,33.3333333333333,8|0|0|0|0|0,0:0|0:0|0:0|0:0|0:0|0:0,0:0:0:0:
393,219,40536,2,0,P|382:204|369:187,5,33.3333333333333
357,119,41047,2,0,P|340:124|320:133,5,33.3333333333333,8|0|0|0|0|0,0:0|0:0|0:0|0:0|0:0|0:0,0:0:0:0:
250,121,41557,2,0,P|250:140|251:162,5,33.3333333333333
171,146,42068,2,0,P|84:131|203:62,1,335.999989746094,8|8,0:0|0:0,0:0:0:0:
262,192,43269,1,0,0:0:0:0:
302,21,43441,1,0,0:0:0:0:
171,146,43613,1,0,0:0:0:0:
343,117,43785,1,0,0:0:0:0:
191,51,43956,2,0,P|152:40|77:37,1,66.6666666666667
35,200,44298,6,0,P|121:167|177:168,1,133.333333333333
295,245,44808,1,0,0:0:0:0:
295,245,44979,2,0,P|306:207|322:176,1,66.6666666666667
161,166,45319,1,0,0:0:0:0:
218,312,45489,2,0,P|210:273|196:241,1,66.6666666666667
332,172,45830,1,0,0:0:0:0:
310,356,46000,1,0,0:0:0:0:
250,113,46170,6,0,P|305:75|373:80,1,133.333333333333
461,176,46681,2,0,B|419:190|419:190|303:165,1,133.333333333333
184,167,47192,1,0,0:0:0:0:
298,82,47362,1,0,0:0:0:0:
210,258,47532,2,0,L|143:250,1,66.6666666666667
15,195,47871,1,0,0:0:0:0:
172,140,48039,1,0,0:0:0:0:
24,352,48207,6,0,B|125:321|121:393|219:362,1,200
332,336,48887,1,0,0:0:0:0:
168,276,49058,1,0,0:0:0:0:
324,136,49228,6,0,P|312:190|310:247,1,100,8|0,0:0|0:0,0:0:0:0:
224,132,49575,1,0,0:0:0:0:
408,208,49749,1,0,0:0:0:0:
200,268,49923,1,0,0:0:0:0:
280,64,50097,1,0,0:0:0:0:
264,332,50271,6,0,P|220:356|160:352,1,100,8|0,0:0|0:0,0:0:0:0:
64,336,50615,1,0,0:0:0:0:
224,256,50788,1,0,0:0:0:0:
56,200,50960,1,0,0:0:0:0:
171,355,51133,1,0,0:0:0:0:
268,172,51305,6,0,P|288:116|316:80,1,79.9999975585938,8|0,0:0|0:0,0:0:0:0:
216,264,51649,1,0,0:0:0:0:
168,112,51821,2,0,P|143:57|112:24,1,79.9999975585938,8|0,0:0|0:0,0:0:0:0:
268,172,52165,1,0,0:0:0:0:
340,28,52337,2,0,B|426:7|421:55|495:41,1,159.999995117188,8|0,0:0|0:0,0:0:0:0:
324,136,52853,2,0,P|272:116|252:92,1,79.9999975585938,2|0,0:0|0:0,0:0:0:0:
340,28,53197,1,0,0:0:0:0:
396,184,53369,5,0,0:0:0:0:
244,116,53541,1,0,0:0:0:0:
424,76,53713,1,0,0:0:0:0:
276,228,53885,2,0,P|224:224|180:208,1,79.9999975585938,8|0,0:0|0:0,0:0:0:0:
336,136,54229,1,0,0:0:0:0:
396,324,54401,1,0,0:0:0:0:
272,244,54573,1,0,0:0:0:0:
452,188,54745,1,0,0:0:0:0:
280,348,54917,2,0,P|236:356|176:352,1,79.9999975585938,8|0,0:0|0:0,0:0:0:0:
24,276,55261,1,0,0:0:0:0:
24,276,55434,6,0,L|32:360,1,79.9999975585938
196,216,55778,1,0,0:0:0:0:
176,384,55950,2,0,L|184:300,1,79.9999975585938,8|0,0:0|0:0,0:0:0:0:
15,172,56294,1,0,0:0:0:0:
30,331,56466,2,0,L|14:171,1,159.999995117188
145,144,56982,2,0,L|258:128,1,79.9999975585938,8|0,0:0|0:0,0:0:0:0:
65,70,57326,1,0,0:0:0:0:
121,249,57498,5,0,0:0:0:0:
161,29,57668,1,0,0:0:0:0:
290,220,57838,1,0,0:0:0:0:
100,117,58008,2,0,P|59:103|-2:97,1,79.9999975585938,8|0,0:0|0:0,0:0:0:0:
249,73,58349,1,0,0:0:0:0:
57,201,58519,1,0,0:0:0:0:
161,29,58689,1,0,0:0:0:0:
221,253,58859,1,0,0:0:0:0:
333,120,59030,2,0,P|374:106|435:100,1,79.9999975585938,8|0,0:0|0:0,0:0:0:0:
342,295,59370,1,0,0:0:0:0:
192,65,59540,6,0,P|206:100|213:146,1,79.9999975585938,8|0,0:0|0:0,0:0:0:0:
282,11,59881,1,0,0:0:0:0:
370,200,60051,2,0,P|353:233|342:278,1,79.9999975585938,8|0,0:0|0:0,0:0:0:0:
302,136,60392,1,0,0:0:0:0:
248,354,60562,2,0,P|194:339|85:343,1,159.999995117188,8|0,0:0|0:0,0:0:0:0:
0,252,61073,2,0,P|37:235|82:225,1,79.9999975585938,2|0,0:0|0:0,0:0:0:0:
199,203,61413,1,0,0:0:0:0:
17,42,61583,5,0,0:0:0:0:
223,115,61754,1,0,0:0:0:0:
16,169,61924,1,0,0:0:0:0:
208,22,62094,2,0,P|266:30|292:43,1,79.9999975585938,8|0,0:0|0:0,0:0:0:0:
463,155,62435,1,0,0:0:0:0:
368,0,62605,1,0,0:0:0:0:
337,218,62775,1,0,0:0:0:0:
469,25,62945,1,0,0:0:0:0:
266,130,63115,2,0,P|208:122|182:109,1,79.9999975585938,8|0,0:0|0:0,0:0:0:0:
367,32,63456,1,0,0:0:0:0:
342,250,63626,5,0,0:0:0:0:
244,47,63796,1,0,0:0:0:0:
197,289,63967,5,0,0:0:0:0:
392,125,64137,2,0,P|433:126|483:151,1,79.9999975585938,8|0,0:0|0:0,0:0:0:0:
355,360,64477,5,0,0:0:0:0:
208,194,64648,2,0,P|170:197|119:226,2,79.9999975585938
388,216,65158,1,0,0:0:0:0:
193,279,65329,1,0,0:0:0:0:
325,146,65499,1,0,0:0:0:0:
355,360,65669,6,0,P|309:351|255:352,1,79.9999975585938
433,280,66010,2,0,P|479:271|533:272,1,79.9999975585938
332,257,66350,1,0,0:0:0:0:
450,381,66520,1,0,0:0:0:0:
275,350,66691,6,0,P|315:352|355:360,1,79.9999975585938
512,270,67031,2,0,P|472:272|433:280,1,79.9999975585938
304,159,67372,1,0,0:0:0:0:
443,101,67542,1,0,0:0:0:0:
281,251,67712,6,0,P|228:217|216:189,1,79.9999975585938
312,79,68052,1,0,0:0:0:0:
312,79,68223,2,0,P|306:119|303:177,1,79.9999975585938
191,290,68563,1,0,0:0:0:0:
191,290,68733,2,0,P|185:214|171:122,1,159.999995117188
149,23,69244,1,0,0:0:0:0:
12,89,69414,5,0,0:0:0:0:
172,131,69585,1,0,0:0:0:0:
49,270,69755,2,0,P|41:225|24:178,2,79.9999975585938
140,374,70266,2,0,P|148:329|165:282,1,79.9999975585938
249,204,70606,2,0,P|261:242|267:281,1,79.9999975585938
343,363,70947,2,0,B|427:386|420:338|499:352,1,159.999995117188
283,287,71457,1,0,0:0:0:0:
474,186,71628,6,0,P|492:229|495:284,1,79.9999975585938
307,177,71968,1,0,0:0:0:0:
380,290,72138,1,0,0:0:0:0:
474,186,72309,2,0,P|492:143|495:88,1,79.9999975585938
380,290,72649,1,0,0:0:0:0:
307,177,72819,2,0,P|292:132|294:77,1,79.9999975585938
397,17,73160,1,0,0:0:0:0:
474,186,73330,1,0,0:0:0:0:
303,94,73500,1,0,0:0:0:0:
502,56,73670,1,0,0:0:0:0:
306,218,73841,6,0,P|274:205|190:197,2,66.6666666666667
397,324,74352,2,0,P|429:311|513:303,2,66.6666666666667
276,372,74864,1,0,0:0:0:0:
236,272,75035,1,0,0:0:0:0:
279,382,75205,1,0,0:0:0:0:
132,304,75376,2,0,B|60:284|60:324|0:304,1,133.333333333333
152,148,75888,6,0,P|155:186|168:256,2,66.6666666666667
48,96,76399,2,0,P|52:63|56:29,2,66.6666666666667
239,84,76911,1,0,0:0:0:0:
152,148,77082,1,0,0:0:0:0:
247,78,77252,1,0,0:0:0:0:
320,252,77423,2,0,P|328:200|356:116,1,133.333333333333
176,163,77935,5,0,0:0:0:0:
206,261,78105,2,0,P|213:293|217:326,1,66.6666666666667
358,217,78446,1,0,0:0:0:0:
319,312,78617,2,0,P|309:343|301:376,1,66.6666666666667
281,145,78958,2,0,P|341:115|423:129,1,133.333333333333
358,217,79470,1,0,0:0:0:0:
320,24,79641,1,0,0:0:0:0:
356,206,79811,1,0,0:0:0:0:
216,121,79982,6,0,P|156:91|74:105,1,133.333333333333
139,193,80494,1,0,0:0:0:0:
177,0,80664,1,0,0:0:0:0:
141,182,80835,1,0,0:0:0:0:
352,92,81005,5,0,0:0:0:0:
373,198,81176,1,0,0:0:0:0:
394,304,81348,1,0,0:0:0:0:
271,158,81520,5,0,0:0:0:0:
482,243,81691,1,0,0:0:0:0:
450,48,81863,1,0,0:0:0:0:
291,267,82035,5,0,0:0:0:0:
472,138,82206,1,0,0:0:0:0:
487,361,82378,1,0,0:0:0:0:
327,175,82550,6,0,B|227:143|234:215|131:192,1,200.000007629395
179,107,83065,5,0,0:0:0:0:
291,267,83244,1,0,0:0:0:0:
291,267,83329,1,0,0:0:0:0:
291,267,83414,1,0,0:0:0:0:
96,64,83584,2,0,P|148:24|232:32,1,146.666671142578
364,112,84095,2,0,P|331:100|286:100,1,73.3333355712891
320,0,84435,1,0,0:0:0:0:
192,204,84606,2,0,P|223:189|267:185,1,73.3333355712891
192,108,84946,1,0,0:0:0:0:
244,280,85116,5,0,0:0:0:0:
468,216,85287,1,0,0:0:0:0:
244,176,85459,1,0,0:0:0:0:
416,336,85631,2,0,P|452:332|520:304,1,66.6666666666667
360,108,85974,5,0,0:0:0:0:
316,348,86146,1,0,0:0:0:0:
468,216,86317,1,0,0:0:0:0:
252,88,86489,2,0,P|216:92|148:120,1,66.6666666666667
20,152,86833,1,0,0:0:0:0:
168,12,87004,1,0,0:0:0:0:
172,192,87176,5,0,0:0:0:0:
64,32,87346,1,0,0:0:0:0:
72,272,87516,1,0,0:0:0:0:
204,96,87686,5,0,0:0:0:0:
0,160,87856,1,0,0:0:0:0:
224,252,88027,1,0,0:0:0:0:
96,96,88197,5,0,0:0:0:0:
147,355,88367,1,0,0:0:0:0:
315,158,88537,1,0,0:0:0:0:
45,239,88708,5,0,0:0:0:0:
288,304,88878,1,0,0:0:0:0:
223,68,89048,1,0,0:0:0:0:
124,308,89218,6,0,P|132:344|140:392,1,66.6666666666667
232,199,89559,2,0,P|222:234|211:282,1,66.6666666666667
48,132,89899,2,0,P|59:166|72:213,1,66.6666666666667
191,70,90240,2,0,B|291:38|284:110|387:87,1,200.000007629395
504,48,90921,1,0,0:0:0:0:
342,0,91091,1,0,0:0:0:0:
474,141,91261,6,0,B|483:185|483:185|447:339,1,200
353,360,91944,1,0,0:0:0:0:
374,271,92115,1,0,0:0:0:0:
265,384,92286,2,0,P|232:373|191:366,1,66.6666666666667
353,360,92628,1,0,0:0:0:0:
272,230,92799,2,0,P|282:263|290:304,2,66.6666666666667
459,88,93312,6,0,P|392:80|329:61,1,133.333333333333
153,115,93825,2,0,P|185:107|216:96,1,66.6666666666667
247,2,94166,1,0,0:0:0:0:
359,176,94337,2,0,P|326:168|295:157,1,66.6666666666667
329,61,94679,1,0,0:0:0:0:
205,198,94850,2,0,L|216:278,1,66.6666666666667
295,157,95192,1,0,0:0:0:0:
266,368,95363,6,0,P|198:343|96:347,1,133.333333333333
0,279,95876,2,0,P|34:259|59:251,1,66.6666666666667
185,220,96218,1,0,0:0:0:0:
94,132,96389,2,0,P|59:112|34:104,1,66.6666666666667
79,254,96731,1,0,0:0:0:0:
193,130,96902,2,0,P|227:110|252:102,2,66.6666666666667
339,6,97414,6,0,P|342:61|361:151,1,133.333333333333
411,256,97927,1,0,0:0:0:0:
479,154,98098,2,0,P|489:115|491:82,1,66.6666666666667
463,330,98440,1,0,0:0:0:0:
360,189,98611,2,0,P|349:150|347:117,1,66.6666666666667
292,367,98953,1,0,0:0:0:0:
427,249,99124,2,0,P|465:238|498:236,1,66.6666666666667
292,367,99466,6,0,B|248:376|248:376|139:351,1,133.333333333333
24,308,99981,2,0,L|98:290,1,66.6666666666667
183,250,100324,1,0,0:0:0:0:
225,371,100496,2,0,L|161:356,1,66.6666666666667
105,181,100839,1,0,0:0:0:0:
183,250,101011,1,0,0:0:0:0:
17,220,101183,1,0,0:0:0:0:
201,148,101354,1,0,0:0:0:0:
0,0,101526,6,0,P|19:64|32:155,1,133.333333333333
130,59,102036,2,0,P|122:91|117:124,1,66.6666666666667
214,24,102377,1,0,0:0:0:0:
296,158,102547,2,0,P|288:125|283:92,1,66.6666666666667
222,211,102887,1,0,0:0:0:0:
392,138,103058,2,0,P|458:142|513:185,1,133.333333333333
423,226,103568,1,0,0:0:0:0:
489,60,103739,5,0,0:0:0:0:
420,239,103909,1,0,0:0:0:0:
331,112,104079,1,0,0:0:0:0:
510,181,104249,1,0,0:0:0:0:
299,222,104419,1,0,0:0:0:0:
512,350,104590,6,0,P|435:354|342:393,1,133.333333333333
228,308,105100,2,0,P|261:310|292:321,1,66.6666666666667
391,256,105441,1,0,0:0:0:0:
245,171,105611,5,0,0:0:0:0:
428,97,105779,1,0,0:0:0:0:
215,86,105948,1,0,0:0:0:0:
396,181,106117,5,0,0:0:0:0:
302,38,106286,1,0,0:0:0:0:
318,232,106455,1,0,0:0:0:0:
428,97,106623,5,0,0:0:0:0:
223,173,106792,1,0,0:0:0:0:
396,181,106961,1,0,0:0:0:0:
213,20,107130,5,0,0:0:0:0:
318,232,107299,1,0,0:0:0:0:
302,38,107467,1,0,0:0:0:0:
243,303,107636,6,0,P|145:275|62:277,1,133.333333333333
0,179,108151,2,0,P|30:166|63:159,1,66.6666666666667
195,144,108494,1,0,0:0:0:0:
67,28,108666,2,0,P|36:14|3:7,1,66.6666666666667
195,144,109009,1,0,0:0:0:0:
173,27,109181,1,0,0:0:0:0:
114,213,109353,1,0,0:0:0:0:
67,28,109524,1,0,0:0:0:0:
208,231,109696,6,0,P|272:212|362:219,1,133.333333333333
449,292,110211,2,0,P|405:296|332:328,1,66.6666666666667
427,191,110554,1,0,0:0:0:0:
281,363,110726,2,0,P|323:374|389:419,1,66.6666666666667
166,369,111070,1,0,0:0:0:0:
299,278,111241,1,0,0:0:0:0:
113,224,111413,1,0,0:0:0:0:
303,140,111585,1,0,0:0:0:0:
41,289,111756,6,0,P|33:254|20:215,1,66.6666666666667
113,224,112012,2,0,P|115:187|121:151,1,66.6666666666667
137,44,112267,6,0,P|163:45|194:63,1,50
244,108,112437,2,0,P|289:110|350:86,1,100
484,48,112777,6,0,P|479:77|477:105,1,50
411,143,112947,2,0,P|418:194|424:249,1,100
413,355,113288,6,0,P|387:354|356:336,1,50
306,291,113458,2,0,P|261:289|199:318,1,100
4,301,113799,6,0,P|29:306|63:297,1,50
123,266,113969,2,0,P|166:275|219:319,1,100
283,208,114309,6,0,P|293:181|295:159,1,50
203,98,114480,2,0,P|182:130|180:192,1,100
270,255,114820,6,0,P|272:230|282:207,1,50
386,225,114990,2,0,P|386:274|362:317,1,100
268,363,115331,1,0,0:0:0:0:
183,309,115501,1,0,0:0:0:0:
270,255,115671,1,0,0:0:0:0:
171,317,115842,6,0,B|102:309|50:367|50:367|-33:285|26:182,1,340.000006484985
69,50,117033,1,0,0:0:0:0:
135,227,117204,1,0,0:0:0:0:
175,77,117374,1,0,0:0:0:0:
27,182,117544,1,0,0:0:0:0:
210,165,117714,2,0,P|241:169|283:185,1,66.6666666666667
463,338,118055,6,0,P|441:268|446:161,1,133.333333333333
454,107,118565,1,0,0:0:0:0:
353,163,118736,1,0,0:0:0:0:
439,23,118906,2,0,P|507:35|528:52,1,66.6666666666667
438,208,119246,1,0,0:0:0:0:
365,70,119417,2,0,P|297:82|276:99,2,66.6666666666667
130,54,119927,5,0,0:0:0:0:
283,160,120098,1,0,0:0:0:0:
116,191,120268,1,0,0:0:0:0:
295,16,120438,2,0,P|281:74|280:158,1,133.333333333333
240,336,120949,5,0,0:0:0:0:
177,127,121119,1,0,0:0:0:0:
120,328,121289,1,0,0:0:0:0:
304,260,121460,2,0,B|372:240|372:284|436:260,1,133.333333333333
512,188,121970,2,0,P|468:156|420:156,1,100
352,104,122311,2,0,P|396:72|444:72,1,100
423,155,122651,5,0,0:0:0:0:
364,0,122821,1,0,0:0:0:0:
332,200,122992,6,0,P|272:184|196:184,1,110.000003356934,8|0,0:0|0:0,0:0:0:0:
64,196,123333,1,0,0:0:0:0:
260,268,123504,1,0,0:0:0:0:
56,288,123675,1,0,0:0:0:0:
240,167,123846,1,0,0:0:0:0:
48,4,124017,6,0,P|62:54|68:119,1,110.000003356934,8|0,0:0|0:0,0:0:0:0:
166,11,124359,1,0,0:0:0:0:
64,196,124530,1,0,0:0:0:0:
264,179,124701,1,0,0:0:0:0:
55,106,124872,1,0,0:0:0:0:
254,268,125043,6,0,P|298:260|330:244,1,73.3333355712891
272,99,125385,1,0,0:0:0:0:
243,357,125556,2,0,P|199:349|167:333,1,73.3333355712891
264,179,125897,1,0,0:0:0:0:
330,366,126068,6,0,P|403:348|505:348,1,166.666666666667
372,267,126576,2,0,P|331:255|290:251,1,83.3333333333333,2|0,0:0|0:0,0:0:0:0:
500,189,126915,1,0,0:0:0:0:
302,60,127084,5,0,0:0:0:0:
488,185,127254,1,0,0:0:0:0:
240,191,127425,1,0,0:0:0:0:
448,88,127596,2,0,P|477:77|526:75,1,79.9999975585938,8|0,0:0|0:0,0:0:0:0:
247,115,127938,5,0,0:0:0:0:
382,242,128109,1,0,0:0:0:0:
336,27,128280,1,0,0:0:0:0:
256,287,128451,1,0,0:0:0:0:
133,84,128622,2,0,P|89:74|43:76,1,79.9999975585938,8|0,0:0|0:0,0:0:0:0:
248,366,128964,1,0,0:0:0:0:
248,366,129135,6,0,L|256:282,1,79.9999975585938
88,168,129477,1,0,0:0:0:0:
103,337,129648,2,0,L|96:258,1,79.9999975585938,8|0,0:0|0:0,0:0:0:0:
248,366,129989,1,0,0:0:0:0:
263,207,130160,2,0,L|247:367,1,159.999995117188
202,139,130673,2,0,P|239:119|292:125,1,79.9999975585938,8|0,0:0|0:0,0:0:0:0:
436,149,131015,1,0,0:0:0:0:
215,48,131186,5,0,0:0:0:0:
430,11,131357,1,0,0:0:0:0:
263,207,131528,1,0,0:0:0:0:
435,288,131699,2,0,P|470:273|520:258,1,79.9999975585938,8|0,0:0|0:0,0:0:0:0:
335,132,132041,5,0,0:0:0:0:
306,357,132212,1,0,0:0:0:0:
440,161,132383,1,0,0:0:0:0:
501,377,132554,1,0,0:0:0:0:
288,224,132725,2,0,P|248:227|195:240,1,79.9999975585938,8|0,0:0|0:0,0:0:0:0:
62,338,133066,1,0,0:0:0:0:
188,149,133237,6,0,P|199:117|203:57,1,79.9999975585938,8|0,0:0|0:0,0:0:0:0:
215,384,133579,1,0,0:0:0:0:
65,182,133750,2,0,P|54:150|50:90,1,79.9999975585938,8|0,0:0|0:0,0:0:0:0:
50,360,134092,1,0,0:0:0:0:
264,256,134263,6,0,B|344:232|344:280|420:256,1,159.999995117188,8|0,0:0|0:0,0:0:0:0:
507,188,134776,2,0,P|513:144|502:97,1,79.9999975585938,2|0,0:0|0:0,0:0:0:0:
393,141,135118,1,0,0:0:0:0:
493,370,135289,5,0,0:0:0:0:
327,257,135460,1,0,0:0:0:0:
507,188,135631,1,0,0:0:0:0:
357,376,135801,2,0,P|314:375|270:362,1,79.9999975585938,8|0,0:0|0:0,0:0:0:0:
70,367,136143,1,0,0:0:0:0:
309,249,136314,1,0,0:0:0:0:
50,247,136485,1,0,0:0:0:0:
278,365,136656,1,0,0:0:0:0:
136,161,136827,2,0,P|117:80|117:48,1,79.9999975585938
171,300,137169,5,0,0:0:0:0:
281,46,137340,1,0,0:0:0:0:
361,346,137511,1,0,0:0:0:0:
125,180,137682,1,0,0:0:0:0:
423,80,137853,2,0,P|466:86|510:101,1,79.9999975585938
266,16,138195,1,0,0:0:0:0:
140,163,138366,2,0,P|100:157|62:146,2,79.9999975585938
230,242,138878,1,0,0:0:0:0:
167,47,139049,1,0,0:0:0:0:
300,179,139219,1,0,0:0:0:0:
86,209,139391,6,0,P|95:163|94:109,1,79.9999975585938
166,287,139729,2,0,P|175:333|174:387,1,79.9999975585938
189,186,140068,1,0,0:0:0:0:
65,304,140238,1,0,0:0:0:0:
96,129,140407,6,0,P|94:169|84:207,1,79.9999975585938
176,366,140746,2,0,P|174:326|166:287,1,79.9999975585938
301,215,141085,1,0,0:0:0:0:
281,384,141255,1,0,0:0:0:0:
237,146,141424,6,0,P|281:122|316:122,1,79.9999975585938
309,294,141763,1,0,0:0:0:0:
309,294,141934,2,0,P|303:254|300:196,1,79.9999975585938
432,54,142272,1,0,0:0:0:0:
431,53,142441,2,0,P|417:129|410:214,1,159.999995117188
401,317,142950,1,0,0:0:0:0:
321,250,143119,1,0,0:0:0:0:
495,274,143289,1,0,0:0:0:0:
384,164,143458,5,0,0:0:0:0:
308,353,143627,1,0,0:0:0:0:
308,353,143797,1,0,0:0:0:0:
232,216,143967,2,0,B|120:185|128:273|-3:236,1,239.999992675781
63,154,144645,1,0,0:0:0:0:
188,294,144814,1,0,0:0:0:0:
145,100,144984,2,0,P|76:61|-2:74,1,159.999995117188
143,192,145492,6,0,P|201:180|234:148,1,79.9999975585938
322,44,145831,1,0,0:0:0:0:
322,44,146001,2,0,P|312:141|314:216,1,159.999995117188
231,76,146509,1,0,0:0:0:0:
400,156,146679,1,0,0:0:0:0:
236,261,146848,1,0,0:0:0:0:
393,162,147018,1,0,0:0:0:0:
351,359,147187,5,0,0:0:0:0:
320,225,147357,1,0,0:0:0:0:
260,364,147526,2,0,P|299:366|339:375,1,79.9999975585938
154,347,147867,2,0,P|114:338|74:334,1,79.9999975585938
297,222,148209,1,0,0:0:0:0:
159,255,148380,1,0,0:0:0:0:
338,374,148551,6,0,P|299:366|260:364,1,79.9999975585938
75,334,148893,2,0,P|114:335|154:343,1,79.9999975585938
297,222,149235,1,0,0:0:0:0:
159,255,149406,1,0,0:0:0:0:
276,61,149577,6,0,P|300:105|300:140,1,79.9999975585938
128,133,149919,1,0,0:0:0:0:
128,133,150090,2,0,P|168:127|219:127,1,79.9999975585938
368,256,150431,1,0,0:0:0:0:
368,256,150602,2,0,P|289:244|205:238,1,159.999995117188
59,233,151115,1,0,0:0:0:0:
207,124,151286,1,0,0:0:0:0:
144,317,151457,1,0,0:0:0:0:
79,119,151628,5,0,0:0:0:0:
210,235,151799,1,0,0:0:0:0:
210,235,151970,1,0,0:0:0:0:
262,57,152141,2,0,B|315:48|315:48|508:94,1,239.999992675781
311,133,152825,1,0,0:0:0:0:
464,4,152996,1,0,0:0:0:0:
341,218,153167,2,0,P|276:212|237:186,1,79.9999975585938
77,42,153508,6,0,B|-3:40|-42:132|15:215|121:210|144:128|144:128|116:195|159:306|259:325|473:248|328:37|225:88|225:88|275:351|275:351|330:345|477:270|439:139|422:95|389:54|354:30,1,1439.99995605469
365,14,156743,1,0,0:0:0:0:
35,76,157764,6,0,P|102:35|186:58,1,146.666671142578
250,128,158275,2,0,P|248:157|238:200,1,73.3333355712891
117,133,158616,1,0,0:0:0:0:
272,31,158786,5,0,0:0:0:0:
377,46,158956,1,0,0:0:0:0:
482,61,159126,1,0,0:0:0:0:
341,241,159296,5,0,0:0:0:0:
272,31,159467,1,0,0:0:0:0:
269,317,159637,1,0,0:0:0:0:
494,179,159807,5,0,0:0:0:0:
226,111,159977,1,0,0:0:0:0:
445,267,160148,1,0,0:0:0:0:
194,225,160318,5,0,0:0:0:0:
434,106,160488,1,0,0:0:0:0:
94,145,160658,1,0,0:0:0:0:
317,362,160829,5,0,0:0:0:0:
243,37,160999,1,0,0:0:0:0:
232,319,161169,1,0,0:0:0:0:
410,124,161339,5,0,0:0:0:0:
90,55,161510,1,0,0:0:0:0:
417,12,161680,1,0,0:0:0:0:
71,182,161850,1,4,0:0:0:0:
