osu file format v14

[General]
AudioFilename: audio.mp3
AudioLeadIn: 0
PreviewTime: 55837
Countdown: 0
SampleSet: Normal
StackLeniency: 0.7
Mode: 1
LetterboxInBreaks: 0
WidescreenStoryboard: 0

[Editor]
Bookmarks: 1541,11541,24041,34041,43884,56541,76541
DistanceSpacing: 0.8
BeatDivisor: 4
GridSize: 32
TimelineZoom: 2.8

[Metadata]
Title:Ukiyoe Yokochou
TitleUnicode:浮世絵横丁
Artist:Chaos City Niigata
ArtistUnicode:魔界都市ニイガタ
Creator:_DUSK_
Version:Oni
Source:Muse Dash
Tags:BOFU2017 -LEGENDA EST A MYTH- BMS of Fighters Ultimate GroundbreakinG 2017 Compilation album tatamiser 黄泉路テヂーモ tedjimo yomigy dawn-system yoa かゆき kayuki 自動車原付 gentsuki jidousya 紅蓮月影 jazz piano electronic instrumental
BeatmapID:2300274
BeatmapSetID:1088536

[Difficulty]
HPDrainRate:5.5
CircleSize:5
OverallDifficulty:6
ApproachRate:9
SliderMultiplier:1.4
SliderTickRate:1

[Events]
//Background and Video events
0,0,"bg2.jpg",0,0
//Break Periods
//Storyboard Layer 0 (Background)
//Storyboard Layer 1 (Fail)
//Storyboard Layer 2 (Pass)
//Storyboard Layer 3 (Foreground)
//Storyboard Layer 4 (Overlay)
//Storyboard Sound Samples

[TimingPoints]
297,312.5,4,1,0,50,1,0
297,-133.333333333333,4,1,0,50,0,0
6547,-111.111111111111,4,1,0,80,0,0
9515,-117.647058823529,4,1,0,80,0,0
10140,-125,4,1,0,80,0,0
10218,-125,4,1,0,50,0,0
11468,-111.111111111111,4,1,0,100,0,0
14047,-108.695652173913,4,1,0,100,0,0
32797,-106.382978723404,4,1,0,100,0,0
32953,-104.166666666667,4,1,0,100,0,0
33109,-102.040816326531,4,1,0,100,0,0
33265,-100,4,1,0,100,0,0
33422,-98.0392156862745,4,1,0,100,0,0
33578,-96.1538461538461,4,1,0,100,0,0
33734,-94.3396226415094,4,1,0,100,0,0
34047,-95.2380952380952,4,1,0,100,0,0
44047,-111.111111111111,4,1,0,80,0,0
45843,-95.2380952380952,4,1,0,100,0,0
46547,-111.111111111111,4,1,0,80,0,0
48343,-95.2380952380952,4,1,0,100,0,0
49047,-111.111111111111,4,1,0,100,0,0
49125,-109.89010989011,4,1,0,100,0,0
49203,-108.695652173913,4,1,0,100,0,0
49281,-107.52688172043,4,1,0,100,0,0
49359,-106.382978723404,4,1,0,100,0,0
50453,-104.166666666667,4,1,0,100,0,0
50609,-102.040816326531,4,1,0,100,0,0
50765,-100,4,1,0,100,0,0
51000,-98.0392156862745,4,1,0,100,0,0
51312,-96.1538461538461,4,1,0,100,0,0
51859,-94.3396226415094,4,1,0,100,0,0
52328,-92.5925925925926,4,1,0,100,0,0
52797,-90.9090909090909,4,1,0,100,0,0
53265,-89.2857142857143,4,1,0,100,0,0
53734,-87.719298245614,4,1,0,100,0,0
53968,-86.2068965517241,4,1,0,100,0,0
54203,-84.0336134453781,4,1,0,100,0,0
54437,-81.3008130081301,4,1,0,100,0,0
54672,-78.125,4,1,0,100,0,0
54906,-75.7575757575758,4,1,0,100,0,0
55140,-71.9424460431655,4,1,0,100,0,0
55297,-117.647058823529,4,1,0,100,0,0
55922,-111.111111111111,4,1,0,100,0,0
56234,-105.263157894737,4,1,0,100,0,0
56547,-95.2380952380952,4,1,0,100,0,0
76781,-111.111111111111,4,1,0,100,0,0
79047,-100,4,1,0,100,0,0
89125,-133.333333333333,4,1,0,80,0,0
93890,-129.87012987013,4,1,0,100,0,0
94515,-126.582278481013,4,1,0,100,0,0
95140,-123.456790123457,4,1,0,100,0,0
95765,-120.481927710843,4,1,0,100,0,0
96078,-117.647058823529,4,1,0,100,0,0
96390,-114.942528735632,4,1,0,100,0,0
96703,-113.636363636364,4,1,0,100,0,0
96859,-112.359550561798,4,1,0,100,0,0
97015,-111.111111111111,4,1,0,100,0,0
97172,-109.89010989011,4,1,0,100,0,0
97328,-108.695652173913,4,1,0,100,0,0
97484,-107.52688172043,4,1,0,100,0,0
97640,-106.382978723404,4,1,0,100,0,0
97797,-105.263157894737,4,1,0,100,0,0
97875,-104.166666666667,4,1,0,100,0,0
97953,-103.092783505155,4,1,0,100,0,0
98031,-102.040816326531,4,1,0,100,0,0
98109,-101.010101010101,4,1,0,100,0,0
98187,-100,4,1,0,100,0,0
98265,-99.009900990099,4,1,0,100,0,0
98343,-98.0392156862745,4,1,0,100,0,0
98422,-97.0873786407767,4,1,0,100,0,0
98500,-96.1538461538461,4,1,0,100,0,0
98578,-95.2380952380952,4,1,0,100,0,0
98656,-94.3396226415094,4,1,0,100,0,0
98734,-93.4579439252336,4,1,0,100,0,0
98812,-92.5925925925926,4,1,0,100,0,0
98890,-91.743119266055,4,1,0,100,0,0
99047,-142.857142857143,4,1,0,10,0,0
100297,-166.666666666667,4,1,0,20,0,0
100843,-166.666666666667,4,1,0,40,0,0
103656,-66.6666666666667,4,1,0,100,0,0
104047,-90.9090909090909,4,1,0,100,0,1
121547,-90.9090909090909,4,1,0,100,0,0
121625,-111.111111111111,4,1,0,100,0,0
122640,-83.3333333333333,4,1,0,100,0,0
123812,-111.111111111111,4,1,0,100,0,0

[HitObjects]
256,192,1547,5,0,0:0:0:0:
256,192,2015,1,0,0:0:0:0:
256,192,2640,1,0,0:0:0:0:
256,192,2797,1,0,0:0:0:0:
256,192,3265,1,0,0:0:0:0:
256,192,3578,1,0,0:0:0:0:
256,192,3890,1,0,0:0:0:0:
256,192,4047,1,0,0:0:0:0:
256,192,4515,1,0,0:0:0:0:
256,192,5140,1,0,0:0:0:0:
256,192,5297,1,0,0:0:0:0:
256,192,5765,1,0,0:0:0:0:
256,192,6078,1,0,0:0:0:0:
256,192,6547,1,12,0:0:0:0:
256,192,6703,1,0,0:0:0:0:
256,192,6859,1,8,0:0:0:0:
256,192,6963,1,0,0:0:0:0:
256,192,7067,1,0,0:0:0:0:
256,192,7172,1,8,0:0:0:0:
256,192,7328,1,0,0:0:0:0:
256,192,7484,1,0,0:0:0:0:
256,192,7562,1,0,0:0:0:0:
256,192,7640,1,8,0:0:0:0:
256,192,7718,1,8,0:0:0:0:
256,192,7797,1,0,0:0:0:0:
256,192,8005,1,8,0:0:0:0:
256,192,8109,1,0,0:0:0:0:
256,192,8265,1,8,0:0:0:0:
256,192,8422,1,0,0:0:0:0:
256,192,8500,1,8,0:0:0:0:
256,192,8578,1,0,0:0:0:0:
256,192,8734,1,8,0:0:0:0:
256,192,8838,1,0,0:0:0:0:
256,192,8942,1,0,0:0:0:0:
256,192,9047,1,8,0:0:0:0:
256,192,9515,1,0,0:0:0:0:
256,192,10140,1,0,0:0:0:0:
256,192,10297,12,0,11390,0:0:0:0:
256,192,11547,5,4,0:0:0:0:
256,192,11859,1,0,0:0:0:0:
256,192,11963,1,0,0:0:0:0:
256,192,12067,1,0,0:0:0:0:
256,192,12172,1,8,0:0:0:0:
256,192,12380,1,8,0:0:0:0:
256,192,12484,1,0,0:0:0:0:
256,192,12692,1,0,0:0:0:0:
256,192,12797,1,8,0:0:0:0:
256,192,13109,1,8,0:0:0:0:
256,192,13265,1,8,0:0:0:0:
256,192,13422,1,0,0:0:0:0:
256,192,13500,1,0,0:0:0:0:
256,192,13578,1,8,0:0:0:0:
256,192,14047,1,4,0:0:0:0:
256,192,14203,1,0,0:0:0:0:
256,192,14359,1,8,0:0:0:0:
256,192,14515,1,0,0:0:0:0:
256,192,14672,1,8,0:0:0:0:
256,192,14828,1,0,0:0:0:0:
256,192,14906,1,0,0:0:0:0:
256,192,14984,1,8,0:0:0:0:
256,192,15140,1,8,0:0:0:0:
256,192,15297,1,0,0:0:0:0:
256,192,15375,1,0,0:0:0:0:
256,192,15609,1,8,0:0:0:0:
256,192,15687,1,8,0:0:0:0:
256,192,15843,1,8,0:0:0:0:
256,192,16078,1,0,0:0:0:0:
256,192,16234,1,8,0:0:0:0:
256,192,16390,1,8,0:0:0:0:
256,192,16547,1,0,0:0:0:0:
256,192,16859,1,8,0:0:0:0:
256,192,17015,1,0,0:0:0:0:
256,192,17172,1,8,0:0:0:0:
256,192,17328,1,0,0:0:0:0:
256,192,17484,1,8,0:0:0:0:
256,192,17797,1,0,0:0:0:0:
256,192,17953,1,8,0:0:0:0:
256,192,18109,1,8,0:0:0:0:
256,192,18265,1,0,0:0:0:0:
256,192,18422,1,8,0:0:0:0:
256,192,18500,1,8,0:0:0:0:
256,192,18578,1,0,0:0:0:0:
256,192,18734,1,8,0:0:0:0:
256,192,19047,1,0,0:0:0:0:
256,192,19203,1,0,0:0:0:0:
256,192,19359,1,8,0:0:0:0:
256,192,19515,1,0,0:0:0:0:
256,192,19672,1,8,0:0:0:0:
256,192,19828,1,0,0:0:0:0:
256,192,19906,1,8,0:0:0:0:
256,192,19984,1,0,0:0:0:0:
256,192,20140,1,8,0:0:0:0:
256,192,20297,1,0,0:0:0:0:
256,192,20375,1,0,0:0:0:0:
256,192,20453,1,8,0:0:0:0:
256,192,20531,1,8,0:0:0:0:
256,192,20609,1,0,0:0:0:0:
256,192,20765,1,0,0:0:0:0:
256,192,20843,1,8,0:0:0:0:
256,192,21078,1,0,0:0:0:0:
256,192,21234,1,8,0:0:0:0:
256,192,21390,1,0,0:0:0:0:
256,192,21547,1,0,0:0:0:0:
256,192,21859,1,8,0:0:0:0:
256,192,22015,1,0,0:0:0:0:
256,192,22093,1,0,0:0:0:0:
256,192,22172,1,0,0:0:0:0:
256,192,22328,1,0,0:0:0:0:
256,192,22484,1,8,0:0:0:0:
256,192,22640,1,8,0:0:0:0:
256,192,22797,1,0,0:0:0:0:
256,192,22953,1,8,0:0:0:0:
256,192,23031,1,0,0:0:0:0:
256,192,23109,1,8,0:0:0:0:
256,192,23187,1,8,0:0:0:0:
256,192,23265,1,0,0:0:0:0:
256,192,23422,1,8,0:0:0:0:
256,192,23500,1,8,0:0:0:0:
256,192,23578,1,0,0:0:0:0:
256,192,23656,1,0,0:0:0:0:
256,192,23734,1,8,0:0:0:0:
256,192,23890,1,8,0:0:0:0:
256,192,23968,1,8,0:0:0:0:
256,192,24047,1,0,0:0:0:0:
256,192,24359,1,8,0:0:0:0:
256,192,24437,1,0,0:0:0:0:
256,192,24515,1,0,0:0:0:0:
256,192,24672,1,8,0:0:0:0:
256,192,24750,1,0,0:0:0:0:
256,192,24906,1,0,0:0:0:0:
256,192,24984,1,8,0:0:0:0:
256,192,25140,1,8,0:0:0:0:
256,192,25297,1,0,0:0:0:0:
256,192,25375,1,8,0:0:0:0:
256,192,25609,1,8,0:0:0:0:
256,192,25687,1,8,0:0:0:0:
256,192,25843,1,8,0:0:0:0:
256,192,25922,1,0,0:0:0:0:
256,192,26078,1,0,0:0:0:0:
256,192,26234,1,8,0:0:0:0:
256,192,26390,1,8,0:0:0:0:
256,192,26547,1,0,0:0:0:0:
256,192,26781,1,0,0:0:0:0:
256,192,26859,1,8,0:0:0:0:
256,192,27015,1,0,0:0:0:0:
256,192,27093,1,0,0:0:0:0:
256,192,27172,1,8,0:0:0:0:
256,192,27328,1,0,0:0:0:0:
256,192,27484,1,8,0:0:0:0:
256,192,27640,1,8,0:0:0:0:
256,192,27797,1,0,0:0:0:0:
256,192,28109,1,8,0:0:0:0:
256,192,28265,1,0,0:0:0:0:
256,192,28422,1,8,0:0:0:0:
256,192,28500,1,8,0:0:0:0:
256,192,28578,1,0,0:0:0:0:
256,192,28734,1,8,0:0:0:0:
256,192,28812,1,0,0:0:0:0:
256,192,28890,1,8,0:0:0:0:
256,192,29047,1,0,0:0:0:0:
256,192,29359,1,8,0:0:0:0:
256,192,29515,1,0,0:0:0:0:
256,192,29672,1,8,0:0:0:0:
256,192,29828,1,0,0:0:0:0:
256,192,29906,1,0,0:0:0:0:
256,192,29984,1,8,0:0:0:0:
256,192,30140,1,8,0:0:0:0:
256,192,30297,1,0,0:0:0:0:
256,192,30375,1,0,0:0:0:0:
256,192,30453,1,8,0:0:0:0:
256,192,30609,1,8,0:0:0:0:
256,192,30687,1,0,0:0:0:0:
256,192,30765,1,0,0:0:0:0:
256,192,30843,1,8,0:0:0:0:
256,192,31078,1,0,0:0:0:0:
256,192,31234,1,8,0:0:0:0:
256,192,31390,1,8,0:0:0:0:
256,192,31547,1,0,0:0:0:0:
256,192,31703,1,8,0:0:0:0:
256,192,31781,1,0,0:0:0:0:
256,192,31859,1,8,0:0:0:0:
256,192,32015,1,0,0:0:0:0:
256,192,32172,1,8,0:0:0:0:
256,192,32328,1,8,0:0:0:0:
256,192,32484,1,8,0:0:0:0:
256,192,32640,1,8,0:0:0:0:
256,192,32797,5,0,0:0:0:0:
256,192,32953,1,0,0:0:0:0:
256,192,33109,1,0,0:0:0:0:
256,192,33265,1,0,0:0:0:0:
256,192,33422,1,0,0:0:0:0:
256,192,33578,1,0,0:0:0:0:
256,192,33734,1,8,0:0:0:0:
256,192,34047,1,4,0:0:0:0:
256,192,34359,1,8,0:0:0:0:
256,192,34515,1,0,0:0:0:0:
256,192,34672,1,8,0:0:0:0:
256,192,34750,1,8,0:0:0:0:
256,192,34828,1,0,0:0:0:0:
256,192,34984,1,8,0:0:0:0:
256,192,35140,1,0,0:0:0:0:
256,192,35218,1,8,0:0:0:0:
256,192,35297,1,0,0:0:0:0:
256,192,35453,1,0,0:0:0:0:
256,192,35609,1,8,0:0:0:0:
256,192,35765,1,0,0:0:0:0:
256,192,35922,1,8,0:0:0:0:
256,192,36000,1,8,0:0:0:0:
256,192,36078,1,0,0:0:0:0:
256,192,36234,1,8,0:0:0:0:
256,192,36390,1,0,0:0:0:0:
256,192,36547,1,8,0:0:0:0:
256,192,36859,1,8,0:0:0:0:
256,192,37015,1,0,0:0:0:0:
256,192,37172,1,8,0:0:0:0:
256,192,37250,1,0,0:0:0:0:
256,192,37328,1,8,0:0:0:0:
256,192,37484,1,0,0:0:0:0:
256,192,37562,1,8,0:0:0:0:
256,192,37718,1,8,0:0:0:0:
256,192,37797,1,0,0:0:0:0:
256,192,37953,1,0,0:0:0:0:
256,192,38109,1,8,0:0:0:0:
256,192,38265,1,0,0:0:0:0:
256,192,38422,1,8,0:0:0:0:
256,192,38578,1,0,0:0:0:0:
256,192,38656,1,8,0:0:0:0:
256,192,38734,1,8,0:0:0:0:
256,192,38890,1,8,0:0:0:0:
256,192,39047,1,0,0:0:0:0:
256,192,39359,1,8,0:0:0:0:
256,192,39515,1,0,0:0:0:0:
256,192,39672,1,8,0:0:0:0:
256,192,39750,1,0,0:0:0:0:
256,192,39828,1,8,0:0:0:0:
256,192,39984,1,8,0:0:0:0:
256,192,40140,1,8,0:0:0:0:
256,192,40297,1,0,0:0:0:0:
256,192,40505,1,8,0:0:0:0:
256,192,40609,1,8,0:0:0:0:
256,192,40713,1,0,0:0:0:0:
256,192,40922,1,8,0:0:0:0:
256,192,41130,1,0,0:0:0:0:
256,192,41234,1,8,0:0:0:0:
256,192,41338,1,8,0:0:0:0:
256,192,41547,1,0,0:0:0:0:
256,192,41859,1,8,0:0:0:0:
256,192,42015,1,0,0:0:0:0:
256,192,42093,1,8,0:0:0:0:
256,192,42172,1,0,0:0:0:0:
256,192,42328,1,0,0:0:0:0:
256,192,42484,1,8,0:0:0:0:
256,192,42640,1,8,0:0:0:0:
256,192,42718,1,8,0:0:0:0:
256,192,42797,1,0,0:0:0:0:
256,192,42953,1,0,0:0:0:0:
256,192,43109,1,8,0:0:0:0:
256,192,43265,1,0,0:0:0:0:
256,192,43343,1,0,0:0:0:0:
256,192,43422,1,8,0:0:0:0:
256,192,43578,1,0,0:0:0:0:
256,192,43656,1,8,0:0:0:0:
256,192,43734,1,0,0:0:0:0:
256,192,43890,1,12,0:0:0:0:
256,192,44203,1,0,0:0:0:0:
256,192,44281,1,0,0:0:0:0:
256,192,44359,1,8,0:0:0:0:
256,192,44437,1,8,0:0:0:0:
256,192,44515,1,0,0:0:0:0:
256,192,44672,1,0,0:0:0:0:
256,192,44750,1,8,0:0:0:0:
256,192,44828,1,8,0:0:0:0:
256,192,44984,1,0,0:0:0:0:
256,192,45062,1,8,0:0:0:0:
256,192,45140,1,0,0:0:0:0:
256,192,45218,1,8,0:0:0:0:
256,192,45297,1,0,0:0:0:0:
256,192,45453,1,0,0:0:0:0:
256,192,45531,1,8,0:0:0:0:
256,192,45609,1,0,0:0:0:0:
256,192,45687,1,0,0:0:0:0:
256,192,45765,1,8,0:0:0:0:
256,192,45922,1,4,0:0:0:0:
256,192,46156,1,4,0:0:0:0:
256,192,46390,1,4,0:0:0:0:
256,192,46625,1,0,0:0:0:0:
256,192,46703,1,0,0:0:0:0:
256,192,46781,1,8,0:0:0:0:
256,192,46859,1,8,0:0:0:0:
256,192,46937,1,0,0:0:0:0:
256,192,47093,1,0,0:0:0:0:
256,192,47172,1,8,0:0:0:0:
256,192,47250,1,8,0:0:0:0:
256,192,47406,1,0,0:0:0:0:
256,192,47484,1,8,0:0:0:0:
256,192,47562,1,0,0:0:0:0:
256,192,47718,1,0,0:0:0:0:
256,192,47797,1,0,0:0:0:0:
256,192,47875,1,0,0:0:0:0:
256,192,47953,1,8,0:0:0:0:
256,192,48109,1,8,0:0:0:0:
256,192,48187,1,8,0:0:0:0:
256,192,48265,1,0,0:0:0:0:
256,192,48422,1,8,0:0:0:0:
256,192,48578,1,0,0:0:0:0:
256,192,48656,1,8,0:0:0:0:
256,192,48812,1,8,0:0:0:0:
256,192,48890,1,0,0:0:0:0:
256,192,49125,1,0,0:0:0:0:
256,192,49203,1,8,0:0:0:0:
256,192,49281,1,0,0:0:0:0:
256,192,49359,1,8,0:0:0:0:
256,192,49515,1,0,0:0:0:0:
256,192,49593,1,8,0:0:0:0:
256,192,49672,1,0,0:0:0:0:
256,192,49828,1,8,0:0:0:0:
256,192,49906,1,0,0:0:0:0:
256,192,49984,1,8,0:0:0:0:
256,192,50062,1,0,0:0:0:0:
256,192,50140,1,8,0:0:0:0:
256,192,50453,1,8,0:0:0:0:
256,192,50609,1,0,0:0:0:0:
256,192,50765,1,12,0:0:0:0:
256,192,51000,1,12,0:0:0:0:
256,192,51312,1,12,0:0:0:0:
256,192,51859,1,12,0:0:0:0:
256,192,52328,1,12,0:0:0:0:
256,192,52797,1,12,0:0:0:0:
256,192,53265,1,12,0:0:0:0:
256,192,53734,1,12,0:0:0:0:
256,192,53968,1,12,0:0:0:0:
256,192,54203,1,12,0:0:0:0:
256,192,54437,1,12,0:0:0:0:
256,192,54672,1,12,0:0:0:0:
256,192,54906,1,12,0:0:0:0:
256,192,55140,1,12,0:0:0:0:
256,192,55453,1,0,0:0:0:0:
256,192,55922,1,0,0:0:0:0:
256,192,56234,1,8,0:0:0:0:
256,192,56547,1,4,0:0:0:0:
256,192,56859,1,8,0:0:0:0:
256,192,57015,1,0,0:0:0:0:
256,192,57172,1,8,0:0:0:0:
256,192,57328,1,8,0:0:0:0:
256,192,57406,1,8,0:0:0:0:
256,192,57484,1,0,0:0:0:0:
256,192,57640,1,8,0:0:0:0:
256,192,57797,1,0,0:0:0:0:
256,192,57953,1,8,0:0:0:0:
256,192,58109,1,8,0:0:0:0:
256,192,58265,1,0,0:0:0:0:
256,192,58343,1,0,0:0:0:0:
256,192,58422,1,8,0:0:0:0:
256,192,58734,1,8,0:0:0:0:
256,192,58890,1,0,0:0:0:0:
256,192,59047,1,8,0:0:0:0:
256,192,59203,1,8,0:0:0:0:
256,192,59281,1,8,0:0:0:0:
256,192,59359,1,0,0:0:0:0:
256,192,59515,1,8,0:0:0:0:
256,192,59672,1,0,0:0:0:0:
256,192,59828,1,8,0:0:0:0:
256,192,59906,1,8,0:0:0:0:
256,192,59984,1,0,0:0:0:0:
256,192,60062,1,0,0:0:0:0:
256,192,60140,1,8,0:0:0:0:
256,192,60453,1,0,0:0:0:0:
256,192,60609,1,8,0:0:0:0:
256,192,60765,1,0,0:0:0:0:
256,192,60843,1,8,0:0:0:0:
256,192,60922,1,0,0:0:0:0:
256,192,61078,1,0,0:0:0:0:
256,192,61234,1,8,0:0:0:0:
256,192,61390,1,8,0:0:0:0:
256,192,61547,1,0,0:0:0:0:
256,192,61859,1,8,0:0:0:0:
256,192,62015,1,0,0:0:0:0:
256,192,62093,1,0,0:0:0:0:
256,192,62172,1,8,0:0:0:0:
256,192,62328,1,8,0:0:0:0:
256,192,62406,1,0,0:0:0:0:
256,192,62484,1,8,0:0:0:0:
256,192,62640,1,8,0:0:0:0:
256,192,62797,1,0,0:0:0:0:
256,192,62953,1,0,0:0:0:0:
256,192,63031,1,0,0:0:0:0:
256,192,63109,1,8,0:0:0:0:
256,192,63265,1,0,0:0:0:0:
256,192,63422,1,8,0:0:0:0:
256,192,63734,1,8,0:0:0:0:
256,192,63890,1,8,0:0:0:0:
256,192,64047,1,0,0:0:0:0:
256,192,64203,1,0,0:0:0:0:
256,192,64359,1,8,0:0:0:0:
256,192,64437,1,0,0:0:0:0:
256,192,64515,1,0,0:0:0:0:
256,192,64672,1,8,0:0:0:0:
256,192,64828,1,8,0:0:0:0:
256,192,64984,1,0,0:0:0:0:
256,192,65140,1,8,0:0:0:0:
256,192,65297,1,0,0:0:0:0:
256,192,65453,1,0,0:0:0:0:
256,192,65609,1,8,0:0:0:0:
256,192,65765,1,0,0:0:0:0:
256,192,65922,1,8,0:0:0:0:
256,192,66000,1,8,0:0:0:0:
256,192,66078,1,0,0:0:0:0:
256,192,66156,1,0,0:0:0:0:
256,192,66234,1,8,0:0:0:0:
256,192,66547,1,8,0:0:0:0:
256,192,66859,1,8,0:0:0:0:
256,192,67015,1,0,0:0:0:0:
256,192,67172,1,8,0:0:0:0:
256,192,67328,1,0,0:0:0:0:
256,192,67406,1,8,0:0:0:0:
256,192,67484,1,0,0:0:0:0:
256,192,67640,1,8,0:0:0:0:
256,192,67797,1,0,0:0:0:0:
256,192,67953,1,0,0:0:0:0:
256,192,68109,1,8,0:0:0:0:
256,192,68265,1,0,0:0:0:0:
256,192,68343,1,0,0:0:0:0:
256,192,68422,1,8,0:0:0:0:
256,192,68734,1,8,0:0:0:0:
256,192,68890,1,0,0:0:0:0:
256,192,68968,1,0,0:0:0:0:
256,192,69047,1,8,0:0:0:0:
256,192,69203,1,8,0:0:0:0:
256,192,69281,1,8,0:0:0:0:
256,192,69359,1,8,0:0:0:0:
256,192,69515,1,0,0:0:0:0:
256,192,69672,1,0,0:0:0:0:
256,192,69828,1,8,0:0:0:0:
256,192,69984,1,0,0:0:0:0:
256,192,70140,1,8,0:0:0:0:
256,192,70453,1,0,0:0:0:0:
256,192,70609,1,8,0:0:0:0:
256,192,70765,1,0,0:0:0:0:
256,192,70843,1,8,0:0:0:0:
256,192,70922,1,0,0:0:0:0:
256,192,71000,1,8,0:0:0:0:
256,192,71078,1,0,0:0:0:0:
256,192,71234,1,8,0:0:0:0:
256,192,71390,1,8,0:0:0:0:
256,192,71468,1,8,0:0:0:0:
256,192,71547,1,0,0:0:0:0:
256,192,71859,1,8,0:0:0:0:
256,192,72015,1,0,0:0:0:0:
256,192,72172,1,8,0:0:0:0:
256,192,72328,1,0,0:0:0:0:
256,192,72406,1,8,0:0:0:0:
256,192,72484,1,8,0:0:0:0:
256,192,72640,1,8,0:0:0:0:
256,192,72797,1,0,0:0:0:0:
256,192,72953,1,0,0:0:0:0:
256,192,73109,1,8,0:0:0:0:
256,192,73265,1,0,0:0:0:0:
256,192,73343,1,0,0:0:0:0:
256,192,73422,1,8,0:0:0:0:
256,192,73734,1,8,0:0:0:0:
256,192,73890,1,8,0:0:0:0:
256,192,74047,1,0,0:0:0:0:
256,192,74203,1,0,0:0:0:0:
256,192,74359,1,8,0:0:0:0:
256,192,74437,1,8,0:0:0:0:
256,192,74515,1,0,0:0:0:0:
256,192,74672,1,8,0:0:0:0:
256,192,74828,1,8,0:0:0:0:
256,192,74984,1,0,0:0:0:0:
256,192,75140,1,8,0:0:0:0:
256,192,75297,1,0,0:0:0:0:
256,192,75453,1,0,0:0:0:0:
256,192,75609,1,8,0:0:0:0:
256,192,75765,1,0,0:0:0:0:
256,192,75922,1,8,0:0:0:0:
256,192,76000,1,8,0:0:0:0:
256,192,76078,1,0,0:0:0:0:
256,192,76156,1,0,0:0:0:0:
256,192,76234,1,8,0:0:0:0:
256,192,76390,1,8,0:0:0:0:
256,192,76547,1,0,0:0:0:0:
256,192,76781,1,0,0:0:0:0:
256,192,76859,1,8,0:0:0:0:
256,192,77067,1,8,0:0:0:0:
256,192,77172,1,0,0:0:0:0:
256,192,77380,1,0,0:0:0:0:
256,192,77484,1,8,0:0:0:0:
256,192,77588,1,8,0:0:0:0:
256,192,77692,1,8,0:0:0:0:
256,192,77797,1,0,0:0:0:0:
256,192,78005,1,8,0:0:0:0:
256,192,78109,1,0,0:0:0:0:
256,192,78187,1,8,0:0:0:0:
256,192,78265,1,0,0:0:0:0:
256,192,78422,1,8,0:0:0:0:
256,192,78500,1,8,0:0:0:0:
256,192,78578,1,8,0:0:0:0:
256,192,79047,1,4,0:0:0:0:
256,192,79359,1,8,0:0:0:0:
256,192,79515,1,0,0:0:0:0:
256,192,79672,1,8,0:0:0:0:
256,192,79750,1,8,0:0:0:0:
256,192,79828,1,0,0:0:0:0:
256,192,79984,1,8,0:0:0:0:
256,192,80140,1,0,0:0:0:0:
256,192,80297,1,8,0:0:0:0:
256,192,80375,1,0,0:0:0:0:
256,192,80453,1,0,0:0:0:0:
256,192,80609,1,8,0:0:0:0:
256,192,80765,1,0,0:0:0:0:
256,192,80922,1,8,0:0:0:0:
256,192,81000,1,8,0:0:0:0:
256,192,81078,1,0,0:0:0:0:
256,192,81234,1,8,0:0:0:0:
256,192,81390,1,8,0:0:0:0:
256,192,81547,1,0,0:0:0:0:
256,192,81859,1,8,0:0:0:0:
256,192,81937,1,0,0:0:0:0:
256,192,82015,1,8,0:0:0:0:
256,192,82172,1,0,0:0:0:0:
256,192,82250,1,8,0:0:0:0:
256,192,82328,1,0,0:0:0:0:
256,192,82484,1,8,0:0:0:0:
256,192,82562,1,0,0:0:0:0:
256,192,82640,1,8,0:0:0:0:
256,192,82718,1,8,0:0:0:0:
256,192,82797,1,0,0:0:0:0:
256,192,82953,1,0,0:0:0:0:
256,192,83031,1,0,0:0:0:0:
256,192,83109,1,8,0:0:0:0:
256,192,83265,1,0,0:0:0:0:
256,192,83382,1,8,0:0:0:0:
256,192,83500,1,0,0:0:0:0:
256,192,83656,1,0,0:0:0:0:
256,192,83734,1,8,0:0:0:0:
256,192,84047,1,0,0:0:0:0:
256,192,84203,1,0,0:0:0:0:
256,192,84359,1,8,0:0:0:0:
256,192,84515,1,8,0:0:0:0:
256,192,84672,1,8,0:0:0:0:
256,192,84750,1,8,0:0:0:0:
256,192,84828,1,0,0:0:0:0:
256,192,84984,1,8,0:0:0:0:
256,192,85140,1,8,0:0:0:0:
256,192,85297,1,0,0:0:0:0:
256,192,85609,1,8,0:0:0:0:
256,192,85765,1,0,0:0:0:0:
256,192,85843,1,0,0:0:0:0:
256,192,85922,1,8,0:0:0:0:
256,192,86000,1,8,0:0:0:0:
256,192,86078,1,8,0:0:0:0:
256,192,86234,1,8,0:0:0:0:
256,192,86390,1,0,0:0:0:0:
256,192,86468,1,8,0:0:0:0:
256,192,86547,1,0,0:0:0:0:
256,192,86703,1,8,0:0:0:0:
256,192,86859,1,0,0:0:0:0:
256,192,86937,1,0,0:0:0:0:
256,192,87093,1,0,0:0:0:0:
256,192,87172,1,8,0:0:0:0:
256,192,87250,1,8,0:0:0:0:
256,192,87328,1,0,0:0:0:0:
256,192,87484,1,8,0:0:0:0:
256,192,87640,1,8,0:0:0:0:
256,192,87718,1,8,0:0:0:0:
256,192,87797,1,0,0:0:0:0:
256,192,88005,1,8,0:0:0:0:
256,192,88109,1,8,0:0:0:0:
256,192,88213,1,8,0:0:0:0:
256,192,88317,1,8,0:0:0:0:
256,192,88422,1,0,0:0:0:0:
256,192,88630,1,8,0:0:0:0:
256,192,88734,1,8,0:0:0:0:
256,192,88838,1,8,0:0:0:0:
256,192,88942,1,8,0:0:0:0:
256,192,89047,1,0,0:0:0:0:
256,192,90297,1,0,0:0:0:0:
256,192,91547,1,0,0:0:0:0:
256,192,92797,1,0,0:0:0:0:
256,192,93422,1,0,0:0:0:0:
256,192,93890,1,4,0:0:0:0:
256,192,94359,1,8,0:0:0:0:
256,192,94515,1,4,0:0:0:0:
256,192,94828,1,0,0:0:0:0:
256,192,94984,1,8,0:0:0:0:
256,192,95140,1,4,0:0:0:0:
256,192,95453,1,0,0:0:0:0:
256,192,95609,1,8,0:0:0:0:
256,192,95765,1,4,0:0:0:0:
256,192,96078,1,4,0:0:0:0:
256,192,96390,1,12,0:0:0:0:
256,192,96703,1,8,0:0:0:0:
256,192,96859,1,0,0:0:0:0:
256,192,97015,1,8,0:0:0:0:
256,192,97172,1,0,0:0:0:0:
256,192,97328,1,8,0:0:0:0:
256,192,97484,1,0,0:0:0:0:
256,192,97640,1,8,0:0:0:0:
256,192,97797,1,0,0:0:0:0:
256,192,97875,1,8,0:0:0:0:
256,192,97953,1,0,0:0:0:0:
256,192,98109,1,0,0:0:0:0:
256,192,98187,1,8,0:0:0:0:
256,192,98265,1,0,0:0:0:0:
256,192,98343,1,8,0:0:0:0:
256,192,98422,1,0,0:0:0:0:
256,192,98578,1,0,0:0:0:0:
256,192,98656,1,0,0:0:0:0:
256,192,98734,1,8,0:0:0:0:
256,192,98812,1,8,0:0:0:0:
256,192,98890,1,0,0:0:0:0:
256,192,100922,1,8,0:0:0:0:
256,192,101234,1,8,0:0:0:0:
256,192,101547,1,8,0:0:0:0:
256,192,102172,1,8,0:0:0:0:
256,192,102640,1,8,0:0:0:0:
256,192,102953,1,8,0:0:0:0:
256,192,103109,1,8,0:0:0:0:
256,192,103422,1,8,0:0:0:0:
256,192,103734,1,12,0:0:0:0:
256,192,104047,5,4,0:0:0:0:
256,192,104203,1,8,0:0:0:0:
256,192,104281,1,8,0:0:0:0:
256,192,104359,1,0,0:0:0:0:
256,192,104515,1,0,0:0:0:0:
256,192,104672,1,8,0:0:0:0:
256,192,104828,1,8,0:0:0:0:
256,192,104984,1,0,0:0:0:0:
256,192,105062,1,0,0:0:0:0:
256,192,105140,1,8,0:0:0:0:
256,192,105297,1,0,0:0:0:0:
256,192,105453,1,8,0:0:0:0:
256,192,105609,1,0,0:0:0:0:
256,192,105765,1,8,0:0:0:0:
256,192,106078,1,0,0:0:0:0:
256,192,106234,1,8,0:0:0:0:
256,192,106390,1,8,0:0:0:0:
256,192,106468,1,8,0:0:0:0:
256,192,106547,1,0,0:0:0:0:
256,192,106859,1,8,0:0:0:0:
256,192,107015,1,0,0:0:0:0:
256,192,107172,1,8,0:0:0:0:
256,192,107328,1,0,0:0:0:0:
256,192,107406,1,8,0:0:0:0:
256,192,107484,1,0,0:0:0:0:
256,192,107640,1,8,0:0:0:0:
256,192,107797,1,0,0:0:0:0:
256,192,107953,1,8,0:0:0:0:
256,192,108109,1,8,0:0:0:0:
256,192,108265,1,0,0:0:0:0:
256,192,108343,1,0,0:0:0:0:
256,192,108422,1,8,0:0:0:0:
256,192,108734,1,8,0:0:0:0:
256,192,108890,1,8,0:0:0:0:
256,192,108968,1,8,0:0:0:0:
256,192,109047,1,0,0:0:0:0:
256,192,109203,1,0,0:0:0:0:
256,192,109359,1,8,0:0:0:0:
256,192,109515,1,0,0:0:0:0:
256,192,109593,1,8,0:0:0:0:
256,192,109672,1,8,0:0:0:0:
256,192,109828,1,8,0:0:0:0:
256,192,109984,1,0,0:0:0:0:
256,192,110140,1,8,0:0:0:0:
256,192,110453,1,0,0:0:0:0:
256,192,110609,1,8,0:0:0:0:
256,192,110765,1,0,0:0:0:0:
256,192,110922,1,0,0:0:0:0:
256,192,111000,1,8,0:0:0:0:
256,192,111078,1,0,0:0:0:0:
256,192,111234,1,8,0:0:0:0:
256,192,111390,1,8,0:0:0:0:
256,192,111468,1,8,0:0:0:0:
256,192,111547,1,0,0:0:0:0:
256,192,111859,1,8,0:0:0:0:
256,192,112015,1,0,0:0:0:0:
256,192,112172,1,8,0:0:0:0:
256,192,112328,1,8,0:0:0:0:
256,192,112406,1,0,0:0:0:0:
256,192,112484,1,8,0:0:0:0:
256,192,112640,1,8,0:0:0:0:
256,192,112718,1,0,0:0:0:0:
256,192,112797,1,0,0:0:0:0:
256,192,112953,1,0,0:0:0:0:
256,192,113109,1,8,0:0:0:0:
256,192,113265,1,0,0:0:0:0:
256,192,113343,1,0,0:0:0:0:
256,192,113422,1,8,0:0:0:0:
256,192,113734,1,8,0:0:0:0:
256,192,113890,1,0,0:0:0:0:
256,192,114047,1,8,0:0:0:0:
256,192,114203,1,0,0:0:0:0:
256,192,114281,1,8,0:0:0:0:
256,192,114515,1,8,0:0:0:0:
256,192,114593,1,0,0:0:0:0:
256,192,114672,1,8,0:0:0:0:
256,192,114828,1,0,0:0:0:0:
256,192,114906,1,8,0:0:0:0:
256,192,115062,1,0,0:0:0:0:
256,192,115140,1,8,0:0:0:0:
256,192,115218,1,0,0:0:0:0:
256,192,115297,1,8,0:0:0:0:
256,192,115453,1,0,0:0:0:0:
256,192,115531,1,8,0:0:0:0:
256,192,115765,1,8,0:0:0:0:
256,192,115843,1,8,0:0:0:0:
256,192,115922,1,8,0:0:0:0:
256,192,116078,1,0,0:0:0:0:
256,192,116156,1,0,0:0:0:0:
256,192,116234,1,8,0:0:0:0:
256,192,116312,1,8,0:0:0:0:
256,192,116390,1,0,0:0:0:0:
256,192,116547,1,8,0:0:0:0:
256,192,116859,1,8,0:0:0:0:
256,192,116937,1,8,0:0:0:0:
256,192,117015,1,8,0:0:0:0:
256,192,117093,1,8,0:0:0:0:
256,192,117172,1,8,0:0:0:0:
256,192,117406,1,0,0:0:0:0:
256,192,117484,1,8,0:0:0:0:
256,192,117640,1,0,0:0:0:0:
256,192,117953,1,0,0:0:0:0:
256,192,118109,1,8,0:0:0:0:
256,192,118265,1,0,0:0:0:0:
256,192,118422,1,8,0:0:0:0:
256,192,118578,1,0,0:0:0:0:
256,192,118656,1,8,0:0:0:0:
256,192,118734,1,0,0:0:0:0:
256,192,118890,1,8,0:0:0:0:
256,192,119047,1,0,0:0:0:0:
256,192,119203,1,8,0:0:0:0:
256,192,119359,1,8,0:0:0:0:
256,192,119437,1,0,0:0:0:0:
256,192,119593,1,0,0:0:0:0:
256,192,119672,1,8,0:0:0:0:
256,192,119750,1,8,0:0:0:0:
256,192,119828,1,8,0:0:0:0:
256,192,119984,1,8,0:0:0:0:
256,192,120140,1,0,0:0:0:0:
256,192,120297,1,0,0:0:0:0:
256,192,120453,1,0,0:0:0:0:
256,192,120609,1,8,0:0:0:0:
256,192,120765,1,0,0:0:0:0:
256,192,120843,1,0,0:0:0:0:
256,192,120922,1,8,0:0:0:0:
256,192,121000,1,8,0:0:0:0:
256,192,121078,1,0,0:0:0:0:
256,192,121234,1,8,0:0:0:0:
256,192,121547,1,0,0:0:0:0:
256,192,122172,1,8,0:0:0:0:
256,192,122406,1,8,0:0:0:0:
256,192,122640,1,12,0:0:0:0:
256,192,122797,12,0,123734,0:0:0:0:
256,192,123942,5,8,0:0:0:0:
256,192,123994,1,8,0:0:0:0:
