osu file format v14

[General]
AudioFilename: audio.mp3
AudioLeadIn: 0
PreviewTime: 55837
Countdown: 0
SampleSet: Normal
StackLeniency: 0.7
Mode: 1
LetterboxInBreaks: 0
WidescreenStoryboard: 0

[Editor]
Bookmarks: 1541,11541,24041,34041,43884,56541,76541
DistanceSpacing: 0.8
BeatDivisor: 4
GridSize: 32
TimelineZoom: 2.8

[Metadata]
Title:Ukiyoe Yokochou
TitleUnicode:浮世絵横丁
Artist:Chaos City Niigata
ArtistUnicode:魔界都市ニイガタ
Creator:_DUSK_
Version:Futsuu
Source:Muse Dash
Tags:BOFU2017 -LEGENDA EST A MYTH- BMS of Fighters Ultimate GroundbreakinG 2017 Compilation album tatamiser 黄泉路テヂーモ tedjimo yomigy dawn-system yoa かゆき kayuki 自動車原付 gentsuki jidousya 紅蓮月影 jazz piano electronic instrumental
BeatmapID:2300272
BeatmapSetID:1088536

[Difficulty]
HPDrainRate:7
CircleSize:5
OverallDifficulty:4
ApproachRate:9
SliderMultiplier:1.4
SliderTickRate:1

[Events]
//Background and Video events
0,0,"bg4.jpg",0,0
//Break Periods
//Storyboard Layer 0 (Background)
//Storyboard Layer 1 (Fail)
//Storyboard Layer 2 (Pass)
//Storyboard Layer 3 (Foreground)
//Storyboard Layer 4 (Overlay)
//Storyboard Sound Samples

[TimingPoints]
297,312.5,4,1,0,50,1,0
297,-125,4,1,0,50,0,0
6547,-117.647058823529,4,1,0,80,0,0
10218,-117.647058823529,4,1,0,50,0,0
11468,-125,4,1,0,100,0,0
14047,-117.647058823529,4,1,0,100,0,0
34047,-111.111111111111,4,1,0,100,0,0
44047,-111.111111111111,4,1,0,80,0,0
45843,-111.111111111111,4,1,0,100,0,0
46547,-111.111111111111,4,1,0,80,0,0
48343,-111.111111111111,4,1,0,100,0,0
56547,-105.263157894737,4,1,0,100,0,0
76547,-107.52688172043,4,1,0,100,0,0
79047,-111.111111111111,4,1,0,100,0,0
89125,-125,4,1,0,80,0,0
93890,-121.951219512195,4,1,0,100,0,0
94515,-119.047619047619,4,1,0,100,0,0
95140,-116.279069767442,4,1,0,100,0,0
95765,-113.636363636364,4,1,0,100,0,0
96390,-111.111111111111,4,1,0,100,0,0
99047,-111.111111111111,4,1,0,10,0,0
100297,-125,4,1,0,20,0,0
100843,-125,4,1,0,40,0,0
103734,-120.481927710843,4,1,0,40,0,0
104047,-111.111111111111,4,1,0,100,0,1
121547,-111.111111111111,4,1,0,100,0,0

[HitObjects]
256,192,1547,5,0,0:0:0:0:
256,192,2015,1,0,0:0:0:0:
256,192,2640,1,0,0:0:0:0:
256,192,3265,1,0,0:0:0:0:
256,192,4047,1,0,0:0:0:0:
256,192,4515,1,0,0:0:0:0:
256,192,5140,1,0,0:0:0:0:
256,192,5765,1,0,0:0:0:0:
256,192,6547,1,12,0:0:0:0:
256,192,6859,1,0,0:0:0:0:
256,192,7172,1,8,0:0:0:0:
256,192,7328,1,0,0:0:0:0:
256,192,7484,1,8,0:0:0:0:
256,192,7797,1,0,0:0:0:0:
256,192,8109,1,8,0:0:0:0:
256,192,8265,1,0,0:0:0:0:
256,192,8578,1,8,0:0:0:0:
256,192,8734,1,0,0:0:0:0:
256,192,8890,1,0,0:0:0:0:
256,192,9047,1,8,0:0:0:0:
256,192,9515,1,0,0:0:0:0:
256,192,10140,1,0,0:0:0:0:
256,192,10297,12,0,11390,0:0:0:0:
256,192,11547,5,4,0:0:0:0:
256,192,11859,1,0,0:0:0:0:
256,192,12172,1,8,0:0:0:0:
256,192,12797,1,0,0:0:0:0:
256,192,13109,1,0,0:0:0:0:
256,192,13422,1,8,0:0:0:0:
256,192,13578,1,8,0:0:0:0:
256,192,14047,1,4,0:0:0:0:
256,192,14359,1,8,0:0:0:0:
256,192,14515,1,0,0:0:0:0:
256,192,14672,1,8,0:0:0:0:
256,192,14906,1,8,0:0:0:0:
256,192,15297,1,0,0:0:0:0:
256,192,15609,1,8,0:0:0:0:
256,192,15843,1,8,0:0:0:0:
256,192,16078,1,0,0:0:0:0:
256,192,16234,1,8,0:0:0:0:
256,192,16547,1,0,0:0:0:0:
256,192,17015,1,0,0:0:0:0:
256,192,17172,1,8,0:0:0:0:
256,192,17328,1,0,0:0:0:0:
256,192,17484,1,8,0:0:0:0:
256,192,17797,1,0,0:0:0:0:
256,192,17953,1,0,0:0:0:0:
256,192,18265,1,8,0:0:0:0:
256,192,19047,1,0,0:0:0:0:
256,192,19359,1,8,0:0:0:0:
256,192,19515,1,0,0:0:0:0:
256,192,19672,1,8,0:0:0:0:
256,192,19906,1,0,0:0:0:0:
256,192,20297,1,0,0:0:0:0:
256,192,20453,1,0,0:0:0:0:
256,192,20609,1,8,0:0:0:0:
256,192,20843,1,8,0:0:0:0:
256,192,21078,1,8,0:0:0:0:
256,192,21234,1,0,0:0:0:0:
256,192,21547,1,0,0:0:0:0:
256,192,22015,1,0,0:0:0:0:
256,192,22172,1,8,0:0:0:0:
256,192,22328,1,8,0:0:0:0:
256,192,22484,1,8,0:0:0:0:
256,192,22797,1,0,0:0:0:0:
256,192,23109,1,8,0:0:0:0:
256,192,23265,1,0,0:0:0:0:
256,192,23422,1,8,0:0:0:0:
256,192,23734,1,8,0:0:0:0:
256,192,24047,1,0,0:0:0:0:
256,192,24672,1,8,0:0:0:0:
256,192,24906,1,0,0:0:0:0:
256,192,25297,1,0,0:0:0:0:
256,192,25609,1,8,0:0:0:0:
256,192,25843,1,8,0:0:0:0:
256,192,26078,1,0,0:0:0:0:
256,192,26234,1,8,0:0:0:0:
256,192,26547,1,0,0:0:0:0:
256,192,27015,1,0,0:0:0:0:
256,192,27172,1,8,0:0:0:0:
256,192,27328,1,8,0:0:0:0:
256,192,27484,1,0,0:0:0:0:
256,192,27797,1,0,0:0:0:0:
256,192,27953,1,0,0:0:0:0:
256,192,28265,1,8,0:0:0:0:
256,192,29047,1,0,0:0:0:0:
256,192,29359,1,8,0:0:0:0:
256,192,29515,1,0,0:0:0:0:
256,192,29672,1,8,0:0:0:0:
256,192,29906,1,0,0:0:0:0:
256,192,30297,1,0,0:0:0:0:
256,192,30453,1,0,0:0:0:0:
256,192,30609,1,8,0:0:0:0:
256,192,30843,1,8,0:0:0:0:
256,192,31078,1,8,0:0:0:0:
256,192,31234,1,0,0:0:0:0:
256,192,31547,1,0,0:0:0:0:
256,192,32015,1,0,0:0:0:0:
256,192,32172,1,8,0:0:0:0:
256,192,32328,1,8,0:0:0:0:
256,192,32484,1,0,0:0:0:0:
256,192,32797,1,0,0:0:0:0:
256,192,33109,1,0,0:0:0:0:
256,192,33265,1,0,0:0:0:0:
256,192,33422,1,0,0:0:0:0:
256,192,33734,5,8,0:0:0:0:
256,192,34047,1,4,0:0:0:0:
256,192,34672,1,8,0:0:0:0:
256,192,34828,1,0,0:0:0:0:
256,192,34984,1,0,0:0:0:0:
256,192,35140,1,8,0:0:0:0:
256,192,35453,1,0,0:0:0:0:
256,192,35609,1,8,0:0:0:0:
256,192,35922,1,8,0:0:0:0:
256,192,36078,1,8,0:0:0:0:
256,192,36390,1,8,0:0:0:0:
256,192,36547,1,0,0:0:0:0:
256,192,36703,1,8,0:0:0:0:
256,192,36859,1,8,0:0:0:0:
256,192,37328,1,8,0:0:0:0:
256,192,37484,1,0,0:0:0:0:
256,192,37797,1,0,0:0:0:0:
256,192,37953,1,0,0:0:0:0:
256,192,38109,1,8,0:0:0:0:
256,192,38422,1,8,0:0:0:0:
256,192,38578,1,8,0:0:0:0:
256,192,38890,1,8,0:0:0:0:
256,192,39515,1,0,0:0:0:0:
256,192,39672,1,8,0:0:0:0:
256,192,39984,1,0,0:0:0:0:
256,192,40140,1,8,0:0:0:0:
256,192,40297,1,0,0:0:0:0:
256,192,40609,1,8,0:0:0:0:
256,192,41078,1,0,0:0:0:0:
256,192,41234,1,8,0:0:0:0:
256,192,41547,1,0,0:0:0:0:
256,192,41859,1,8,0:0:0:0:
256,192,42015,1,0,0:0:0:0:
256,192,42328,1,0,0:0:0:0:
256,192,42484,1,8,0:0:0:0:
256,192,42797,1,0,0:0:0:0:
256,192,43109,1,8,0:0:0:0:
256,192,43890,1,12,0:0:0:0:
256,192,44203,1,0,0:0:0:0:
256,192,44359,1,8,0:0:0:0:
256,192,44515,1,8,0:0:0:0:
256,192,44672,1,0,0:0:0:0:
256,192,44984,1,0,0:0:0:0:
256,192,45297,1,0,0:0:0:0:
256,192,45453,1,0,0:0:0:0:
256,192,45609,1,8,0:0:0:0:
256,192,45765,1,8,0:0:0:0:
256,192,45922,1,4,0:0:0:0:
256,192,46390,1,4,0:0:0:0:
256,192,46703,1,0,0:0:0:0:
256,192,46859,1,8,0:0:0:0:
256,192,47015,1,8,0:0:0:0:
256,192,47172,1,0,0:0:0:0:
256,192,47484,1,8,0:0:0:0:
256,192,47797,1,0,0:0:0:0:
256,192,47953,1,0,0:0:0:0:
256,192,48109,1,8,0:0:0:0:
256,192,48265,1,8,0:0:0:0:
256,192,48422,1,8,0:0:0:0:
256,192,48890,1,0,0:0:0:0:
256,192,49203,1,0,0:0:0:0:
256,192,49359,1,8,0:0:0:0:
256,192,49515,1,0,0:0:0:0:
256,192,49672,1,8,0:0:0:0:
256,192,49984,1,8,0:0:0:0:
256,192,50140,1,0,0:0:0:0:
256,192,50453,1,8,0:0:0:0:
256,192,50765,1,12,0:0:0:0:
256,192,51312,1,12,0:0:0:0:
256,192,51859,1,12,0:0:0:0:
256,192,52328,1,12,0:0:0:0:
256,192,52797,1,12,0:0:0:0:
256,192,53734,1,12,0:0:0:0:
256,192,54203,1,12,0:0:0:0:
256,192,54672,1,12,0:0:0:0:
256,192,55140,1,12,0:0:0:0:
256,192,55922,1,0,0:0:0:0:
256,192,56234,1,8,0:0:0:0:
256,192,56547,1,4,0:0:0:0:
256,192,57172,1,8,0:0:0:0:
256,192,57328,1,8,0:0:0:0:
256,192,57484,1,8,0:0:0:0:
256,192,57640,1,0,0:0:0:0:
256,192,57953,1,8,0:0:0:0:
256,192,58109,1,0,0:0:0:0:
256,192,58422,1,8,0:0:0:0:
256,192,58890,1,0,0:0:0:0:
256,192,59047,1,8,0:0:0:0:
256,192,59203,1,8,0:0:0:0:
256,192,59359,1,0,0:0:0:0:
256,192,59672,1,0,0:0:0:0:
256,192,59828,1,8,0:0:0:0:
256,192,59984,1,0,0:0:0:0:
256,192,60140,1,8,0:0:0:0:
256,192,60453,1,0,0:0:0:0:
256,192,60765,1,8,0:0:0:0:
256,192,61078,1,0,0:0:0:0:
256,192,61234,1,8,0:0:0:0:
256,192,61547,1,0,0:0:0:0:
256,192,62172,1,8,0:0:0:0:
256,192,62328,1,8,0:0:0:0:
256,192,62484,1,8,0:0:0:0:
256,192,62640,1,0,0:0:0:0:
256,192,62953,1,8,0:0:0:0:
256,192,63109,1,8,0:0:0:0:
256,192,63422,1,8,0:0:0:0:
256,192,63734,1,8,0:0:0:0:
256,192,63890,1,0,0:0:0:0:
256,192,64203,1,0,0:0:0:0:
256,192,64359,1,0,0:0:0:0:
256,192,64515,1,0,0:0:0:0:
256,192,64672,1,8,0:0:0:0:
256,192,64984,1,0,0:0:0:0:
256,192,65140,1,8,0:0:0:0:
256,192,65453,1,8,0:0:0:0:
256,192,65609,1,0,0:0:0:0:
256,192,65922,1,0,0:0:0:0:
256,192,66078,1,0,0:0:0:0:
256,192,66234,1,8,0:0:0:0:
256,192,66547,1,8,0:0:0:0:
256,192,67172,1,8,0:0:0:0:
256,192,67328,1,0,0:0:0:0:
256,192,67484,1,0,0:0:0:0:
256,192,67640,1,8,0:0:0:0:
256,192,67953,1,0,0:0:0:0:
256,192,68109,1,8,0:0:0:0:
256,192,68422,1,0,0:0:0:0:
256,192,68890,1,0,0:0:0:0:
256,192,69047,1,8,0:0:0:0:
256,192,69359,1,8,0:0:0:0:
256,192,69515,1,0,0:0:0:0:
256,192,69672,1,0,0:0:0:0:
256,192,69984,1,0,0:0:0:0:
256,192,70140,1,8,0:0:0:0:
256,192,70453,1,0,0:0:0:0:
256,192,70609,1,8,0:0:0:0:
256,192,70765,1,0,0:0:0:0:
256,192,71078,1,0,0:0:0:0:
256,192,71234,1,8,0:0:0:0:
256,192,71390,1,8,0:0:0:0:
256,192,71547,1,0,0:0:0:0:
256,192,72172,1,8,0:0:0:0:
256,192,72328,1,0,0:0:0:0:
256,192,72484,1,0,0:0:0:0:
256,192,72640,1,8,0:0:0:0:
256,192,72953,1,8,0:0:0:0:
256,192,73109,1,0,0:0:0:0:
256,192,73422,1,8,0:0:0:0:
256,192,73734,1,8,0:0:0:0:
256,192,73890,1,8,0:0:0:0:
256,192,74203,1,0,0:0:0:0:
256,192,74359,1,8,0:0:0:0:
256,192,74515,1,8,0:0:0:0:
256,192,74672,1,0,0:0:0:0:
256,192,74984,1,0,0:0:0:0:
256,192,75140,1,8,0:0:0:0:
256,192,75453,1,8,0:0:0:0:
256,192,75609,1,0,0:0:0:0:
256,192,75765,1,8,0:0:0:0:
256,192,76234,1,8,0:0:0:0:
256,192,76547,1,0,0:0:0:0:
256,192,76859,1,8,0:0:0:0:
256,192,77172,1,0,0:0:0:0:
256,192,77797,1,0,0:0:0:0:
256,192,78109,1,0,0:0:0:0:
256,192,78422,1,8,0:0:0:0:
256,192,78578,1,8,0:0:0:0:
256,192,79047,1,4,0:0:0:0:
256,192,79359,1,8,0:0:0:0:
256,192,79672,1,8,0:0:0:0:
256,192,79828,1,0,0:0:0:0:
256,192,79984,1,8,0:0:0:0:
256,192,80140,1,8,0:0:0:0:
256,192,80297,1,0,0:0:0:0:
256,192,80609,1,8,0:0:0:0:
256,192,80765,1,0,0:0:0:0:
256,192,81078,1,0,0:0:0:0:
256,192,81234,1,8,0:0:0:0:
256,192,81390,1,8,0:0:0:0:
256,192,81547,1,0,0:0:0:0:
256,192,81859,1,8,0:0:0:0:
256,192,82015,1,8,0:0:0:0:
256,192,82172,1,0,0:0:0:0:
256,192,82328,1,0,0:0:0:0:
256,192,82484,1,8,0:0:0:0:
256,192,82797,1,0,0:0:0:0:
256,192,83422,1,0,0:0:0:0:
256,192,83578,1,0,0:0:0:0:
256,192,83734,1,8,0:0:0:0:
256,192,84047,1,8,0:0:0:0:
256,192,84203,1,0,0:0:0:0:
256,192,84359,1,8,0:0:0:0:
256,192,84672,1,8,0:0:0:0:
256,192,84828,1,8,0:0:0:0:
256,192,84984,1,8,0:0:0:0:
256,192,85140,1,0,0:0:0:0:
256,192,85453,1,0,0:0:0:0:
256,192,85609,1,8,0:0:0:0:
256,192,85765,1,0,0:0:0:0:
256,192,86078,1,8,0:0:0:0:
256,192,86390,1,0,0:0:0:0:
256,192,86703,1,8,0:0:0:0:
256,192,86859,1,0,0:0:0:0:
256,192,87015,1,0,0:0:0:0:
256,192,87172,1,8,0:0:0:0:
256,192,87640,1,8,0:0:0:0:
256,192,87797,1,0,0:0:0:0:
256,192,88265,1,8,0:0:0:0:
256,192,88578,1,8,0:0:0:0:
256,192,88890,1,8,0:0:0:0:
256,192,89047,1,0,0:0:0:0:
256,192,90297,1,0,0:0:0:0:
256,192,91547,1,0,0:0:0:0:
256,192,92797,1,0,0:0:0:0:
256,192,93422,1,0,0:0:0:0:
256,192,93890,1,4,0:0:0:0:
256,192,94515,1,4,0:0:0:0:
256,192,95140,1,4,0:0:0:0:
256,192,95765,1,4,0:0:0:0:
256,192,96078,1,4,0:0:0:0:
256,192,96390,1,12,0:0:0:0:
256,192,96859,1,0,0:0:0:0:
256,192,97015,1,8,0:0:0:0:
256,192,97172,1,0,0:0:0:0:
256,192,97484,1,0,0:0:0:0:
256,192,97640,1,8,0:0:0:0:
256,192,97797,1,0,0:0:0:0:
256,192,97953,1,0,0:0:0:0:
256,192,98109,1,0,0:0:0:0:
256,192,98422,1,0,0:0:0:0:
256,192,98578,1,0,0:0:0:0:
256,192,98734,1,0,0:0:0:0:
256,192,98890,1,0,0:0:0:0:
256,192,100922,1,8,0:0:0:0:
256,192,101547,1,8,0:0:0:0:
256,192,102172,1,8,0:0:0:0:
256,192,102640,1,8,0:0:0:0:
256,192,103109,1,8,0:0:0:0:
256,192,103422,1,8,0:0:0:0:
256,192,103734,1,12,0:0:0:0:
256,192,104047,1,4,0:0:0:0:
256,192,104359,1,8,0:0:0:0:
256,192,104672,1,0,0:0:0:0:
256,192,104828,1,8,0:0:0:0:
256,192,104984,1,0,0:0:0:0:
256,192,105140,1,8,0:0:0:0:
256,192,105453,1,0,0:0:0:0:
256,192,105609,1,8,0:0:0:0:
256,192,105765,1,8,0:0:0:0:
256,192,106078,1,0,0:0:0:0:
256,192,106234,1,8,0:0:0:0:
256,192,106547,1,0,0:0:0:0:
256,192,107172,1,8,0:0:0:0:
256,192,107328,1,8,0:0:0:0:
256,192,107484,1,8,0:0:0:0:
256,192,107640,1,0,0:0:0:0:
256,192,107953,1,8,0:0:0:0:
256,192,108109,1,0,0:0:0:0:
256,192,108422,1,8,0:0:0:0:
256,192,108734,1,8,0:0:0:0:
256,192,108890,1,0,0:0:0:0:
256,192,109203,1,0,0:0:0:0:
256,192,109359,1,0,0:0:0:0:
256,192,109515,1,0,0:0:0:0:
256,192,109672,1,8,0:0:0:0:
256,192,109984,1,0,0:0:0:0:
256,192,110140,1,8,0:0:0:0:
256,192,110453,1,8,0:0:0:0:
256,192,110609,1,0,0:0:0:0:
256,192,110765,1,8,0:0:0:0:
256,192,110922,1,0,0:0:0:0:
256,192,111234,1,8,0:0:0:0:
256,192,111547,1,0,0:0:0:0:
256,192,112172,1,8,0:0:0:0:
256,192,112328,1,8,0:0:0:0:
256,192,112484,1,8,0:0:0:0:
256,192,112640,1,0,0:0:0:0:
256,192,112953,1,8,0:0:0:0:
256,192,113109,1,0,0:0:0:0:
256,192,113422,1,8,0:0:0:0:
256,192,113890,1,0,0:0:0:0:
256,192,114047,1,8,0:0:0:0:
256,192,114515,1,8,0:0:0:0:
256,192,114672,1,8,0:0:0:0:
256,192,115140,1,0,0:0:0:0:
256,192,115297,1,8,0:0:0:0:
256,192,115765,1,8,0:0:0:0:
256,192,115922,1,8,0:0:0:0:
256,192,116078,1,8,0:0:0:0:
256,192,116234,1,0,0:0:0:0:
256,192,116547,1,8,0:0:0:0:
256,192,116859,1,8,0:0:0:0:
256,192,117015,1,8,0:0:0:0:
256,192,117172,1,8,0:0:0:0:
256,192,117406,1,8,0:0:0:0:
256,192,117640,1,8,0:0:0:0:
256,192,117953,1,8,0:0:0:0:
256,192,118109,1,0,0:0:0:0:
256,192,118422,1,0,0:0:0:0:
256,192,118890,1,8,0:0:0:0:
256,192,119047,1,0,0:0:0:0:
256,192,119203,1,8,0:0:0:0:
256,192,119359,1,8,0:0:0:0:
256,192,119672,1,0,0:0:0:0:
256,192,119828,1,0,0:0:0:0:
256,192,119984,1,8,0:0:0:0:
256,192,120140,1,8,0:0:0:0:
256,192,120453,1,8,0:0:0:0:
256,192,120609,1,0,0:0:0:0:
256,192,120765,1,8,0:0:0:0:
256,192,120922,1,0,0:0:0:0:
256,192,121234,1,8,0:0:0:0:
256,192,121547,1,0,0:0:0:0:
256,192,122172,1,8,0:0:0:0:
256,192,122640,1,12,0:0:0:0:
256,192,122797,12,0,123942,0:0:0:0:
