osu file format v14

[General]
AudioFilename: audio.mp3
AudioLeadIn: 0
PreviewTime: 55291
Countdown: 0
SampleSet: Soft
StackLeniency: 0.7
Mode: 3
LetterboxInBreaks: 0
SpecialStyle: 0
WidescreenStoryboard: 0

[Editor]
DistanceSpacing: 0.8
BeatDivisor: 4
GridSize: 4
TimelineZoom: 1.7

[Metadata]
Title:Ukiyoe Yokochou
TitleUnicode:浮世絵横丁
Artist:Chaos City Niigata
ArtistUnicode:魔界都市ニイガタ
Creator:WinterSnow
Version:Normal
Source:Muse Dash
Tags:FAMoss BOFU2017 -LEGENDA EST A MYTH- The BMS of Fighters Ultimate GroundbreakinG 2017 Compilation album tatamiser 黄泉路テヂーモ tedjimo yomigy dawn-system yoa かゆき kayuki 自動車原付 gentsuki jidousya 紅蓮月影 jazzstep piano video game electronic jazz instrumental Bossa Nova Drum and bass DnB RearDawn Give Up Treatment Vol.1
BeatmapID:2756276
BeatmapSetID:1330313

[Difficulty]
HPDrainRate:7
CircleSize:4
OverallDifficulty:7
ApproachRate:5
SliderMultiplier:1.4
SliderTickRate:1

[Events]
//Background and Video events
0,0,"ukiyoe yokochou1.jpg",0,0
//Break Periods
//Storyboard Layer 0 (Background)
//Storyboard Layer 1 (Fail)
//Storyboard Layer 2 (Pass)
//Storyboard Layer 3 (Foreground)
//Storyboard Layer 4 (Overlay)
//Storyboard Sound Samples
Sample,90291,0,"piano_sus_059.wav",100
Sample,91541,0,"piano_sus_067.wav",100
Sample,92791,0,"piano_sus_075.wav",100
Sample,93416,0,"piano_sus_079.wav",100

[TimingPoints]
291,312.5,4,2,1,50,1,0
6541,-100,4,2,1,60,0,0
14041,-100,4,2,1,70,0,1
32634,-100,4,2,1,70,0,0
56541,-100,4,2,1,70,0,1
76541,-100,4,2,1,70,0,0
104041,-100,4,2,1,70,0,1
121541,-100,4,2,1,70,0,0
121697,-100,4,2,1,60,0,0

[HitObjects]
320,192,1541,5,2,0:0:0:0:
448,192,1541,128,4,1697:0:0:0:0:
192,192,1853,1,0,0:0:0:0:
64,192,2009,128,2,2478:0:0:0:0:
320,192,2478,1,0,0:0:0:0:
192,192,2634,128,2,3103:0:0:0:0:
448,192,3103,1,0,0:0:0:0:
320,192,3259,128,2,3416:0:0:0:0:
64,192,3416,1,0,0:0:0:0:
192,192,3572,128,2,3884:0:0:0:0:
448,192,3884,1,2,0:0:0:0:
64,192,4041,128,2,4353:0:0:0:0:
320,192,4353,1,0,0:0:0:0:
192,192,4509,128,2,4978:0:0:0:0:
448,192,4978,1,0,0:0:0:0:
320,192,5134,128,2,5603:0:0:0:0:
64,192,5603,1,0,0:0:0:0:
448,192,5759,128,2,5916:0:0:0:0:
192,192,5916,1,0,0:0:0:0:
320,192,6072,128,2,6541:0:0:0:0:
192,192,6541,1,2,0:0:0:0:
448,192,6541,128,4,6697:0:0:0:0:
64,192,7009,128,2,7322:0:0:0:0:
320,192,7009,1,4,0:0:0:0:
448,192,7322,1,0,0:0:0:0:
192,192,7478,1,6,0:0:0:0:
64,192,7634,1,2,0:0:0:0:
320,192,7634,128,0,8103:0:0:0:0:
192,192,8103,1,0,0:0:0:0:
64,192,8259,1,2,0:0:0:0:
448,192,8259,128,4,8572:0:0:0:0:
320,192,8572,1,0,0:0:0:0:
192,192,8728,1,0,0:0:0:0:
448,192,8884,1,2,0:0:0:0:
64,192,9041,128,2,9353:0:0:0:0:
320,192,9041,1,4,0:0:0:0:
192,192,9509,1,2,0:0:0:0:
320,192,9509,128,4,9978:0:0:0:0:
64,192,10134,1,0,0:0:0:0:
448,192,10134,128,0,11541:0:0:0:0:
64,192,11541,1,2,0:0:0:0:
320,192,11541,1,4,0:0:0:0:
192,192,11853,1,0,0:0:0:100:piano_hi_024.wav
320,192,12009,1,0,0:0:0:0:
448,192,12166,1,0,0:0:0:100:piano_hi_075.wav
64,192,12322,1,0,0:0:0:0:
320,192,12478,1,0,0:0:0:100:piano_hi_149.wav
192,192,12634,1,0,0:0:0:0:
64,192,12791,1,2,0:0:0:0:
448,192,12791,128,4,13103:0:0:0:0:
192,192,13103,128,2,13416:0:0:0:0:
320,192,13103,1,4,0:0:0:0:
64,192,13416,1,4,0:0:0:0:
448,192,13416,1,2,0:0:0:0:
320,192,13572,128,0,14041:0:0:0:0:
64,192,14041,1,2,0:0:0:0:
448,192,14041,1,4,0:0:0:0:
192,192,14197,1,0,0:0:0:0:
320,192,14353,1,8,0:0:0:0:
448,192,14353,1,0,0:0:0:0:
64,192,14509,1,0,0:0:0:0:
192,192,14666,128,0,14900:0:0:0:0:
64,192,14900,1,0,0:0:0:0:
320,192,14978,1,8,0:0:0:0:
448,192,14978,1,0,0:0:0:0:
64,192,15134,1,0,0:0:0:0:
448,192,15134,128,0,15369:0:0:0:0:
192,192,15369,128,0,15603:0:0:0:0:
64,192,15603,1,8,0:0:0:0:
448,192,15603,1,0,0:0:0:0:
320,192,15837,128,2,16072:0:0:0:0:
448,192,16072,1,2,0:0:0:0:
64,192,16228,1,8,0:0:0:0:
192,192,16228,1,0,0:0:0:0:
320,192,16384,1,0,0:0:0:0:
64,192,16541,128,2,16853:0:0:0:0:
192,192,16853,1,8,0:0:0:0:
448,192,16853,1,0,0:0:0:0:
320,192,17009,1,0,0:0:0:0:
64,192,17166,1,0,0:0:0:0:
448,192,17322,1,2,0:0:0:0:
64,192,17478,1,8,0:0:0:0:
192,192,17478,1,0,0:0:0:0:
320,192,17634,1,0,0:0:0:0:
192,192,17791,1,2,0:0:0:0:
448,192,17947,128,0,18103:0:0:0:0:
64,192,18103,1,8,0:0:0:0:
320,192,18103,1,0,0:0:0:0:
192,192,18259,128,0,19041:0:0:0:0:
448,192,18728,1,8,0:0:0:0:
64,192,19041,1,2,0:0:0:0:
448,192,19041,1,4,0:0:0:0:
320,192,19197,1,0,0:0:0:0:
64,192,19353,1,8,0:0:0:0:
192,192,19353,1,0,0:0:0:0:
320,192,19509,1,0,0:0:0:0:
448,192,19666,128,0,19900:0:0:0:0:
320,192,19900,1,0,0:0:0:0:
64,192,19978,1,8,0:0:0:0:
192,192,19978,1,0,0:0:0:0:
448,192,20134,1,0,0:0:0:0:
64,192,20291,1,2,0:0:0:0:
320,192,20447,1,0,0:0:0:0:
64,192,20603,1,8,0:0:0:0:
192,192,20603,1,0,0:0:0:0:
320,192,20759,1,0,0:0:0:0:
448,192,20837,128,2,21072:0:0:0:0:
192,192,21072,1,2,0:0:0:0:
64,192,21228,1,8,0:0:0:0:
448,192,21228,1,0,0:0:0:0:
320,192,21384,1,0,0:0:0:0:
192,192,21541,1,2,0:0:0:0:
64,192,21697,1,0,0:0:0:0:
320,192,21853,1,8,0:0:0:0:
448,192,21853,1,0,0:0:0:0:
64,192,22009,1,0,0:0:0:0:
448,192,22166,1,0,0:0:0:0:
64,192,22322,1,2,0:0:0:0:
320,192,22478,1,8,0:0:0:0:
448,192,22478,1,0,0:0:0:0:
192,192,22634,1,0,0:0:0:0:
64,192,22791,128,2,24041:0:0:0:0:
192,192,22947,1,0,0:0:0:0:
320,192,23103,1,8,0:0:0:0:
448,192,23103,1,0,0:0:0:0:
448,192,23337,1,2,0:0:0:0:
192,192,23572,1,2,0:0:0:0:
320,192,23728,1,8,0:0:0:0:
448,192,23728,1,0,0:0:0:0:
192,192,24041,1,4,0:0:0:0:
448,192,24041,1,2,0:0:0:0:
320,192,24197,1,0,0:0:0:0:
64,192,24353,1,8,0:0:0:0:
448,192,24353,1,0,0:0:0:0:
192,192,24509,1,0,0:0:0:0:
320,192,24666,128,0,24900:0:0:0:0:
448,192,24900,1,0,0:0:0:0:
64,192,24978,1,8,0:0:0:0:
192,192,24978,1,0,0:0:0:0:
64,192,25134,128,0,25369:0:0:0:0:
448,192,25134,1,0,0:0:0:0:
320,192,25369,128,0,25603:0:0:0:0:
64,192,25603,1,8,0:0:0:0:
448,192,25603,1,0,0:0:0:0:
192,192,25837,128,2,26072:0:0:0:0:
448,192,26072,1,2,0:0:0:0:
64,192,26228,1,8,0:0:0:0:
320,192,26228,1,0,0:0:0:0:
192,192,26384,1,0,0:0:0:0:
64,192,26541,128,2,26853:0:0:0:0:
192,192,26853,1,8,0:0:0:0:
320,192,26853,1,0,0:0:0:0:
448,192,27009,1,0,0:0:0:0:
192,192,27166,1,0,0:0:0:0:
64,192,27322,1,2,0:0:0:0:
320,192,27478,1,8,0:0:0:0:
448,192,27478,1,0,0:0:0:0:
192,192,27634,1,0,0:0:0:0:
448,192,27791,1,2,0:0:0:0:
64,192,27947,128,0,28103:0:0:0:0:
320,192,27947,1,0,0:0:0:0:
192,192,28259,1,0,0:0:0:0:
448,192,28416,1,0,0:0:0:0:
192,192,28572,1,2,0:0:0:0:
64,192,28728,1,8,0:0:0:0:
320,192,28728,1,0,0:0:0:0:
192,192,28884,1,0,0:0:0:0:
64,192,29041,1,2,0:0:0:0:
448,192,29041,1,4,0:0:0:0:
320,192,29197,1,0,0:0:0:0:
64,192,29353,1,8,0:0:0:0:
192,192,29353,1,0,0:0:0:0:
320,192,29509,1,0,0:0:0:0:
448,192,29666,128,0,29900:0:0:0:0:
320,192,29900,1,0,0:0:0:0:
64,192,29978,1,8,0:0:0:0:
192,192,29978,1,0,0:0:0:0:
448,192,30134,1,0,0:0:0:0:
64,192,30291,1,2,0:0:0:0:
320,192,30447,1,0,0:0:0:0:
64,192,30603,1,8,0:0:0:0:
192,192,30603,1,0,0:0:0:0:
320,192,30759,1,0,0:0:0:0:
448,192,30837,128,2,31072:0:0:0:0:
192,192,31072,1,2,0:0:0:0:
64,192,31228,1,8,0:0:0:0:
320,192,31228,1,0,0:0:0:0:
192,192,31384,1,0,0:0:0:0:
448,192,31541,1,2,0:0:0:0:
320,192,31697,1,0,0:0:0:0:
64,192,31853,1,8,0:0:0:0:
192,192,31853,1,0,0:0:0:0:
448,192,32009,1,0,0:0:0:0:
64,192,32166,1,0,0:0:0:0:
448,192,32322,1,2,0:0:0:0:
64,192,32478,1,8,0:0:0:0:
192,192,32478,1,0,0:0:0:0:
320,192,32634,1,2,0:0:0:0:
64,192,32791,1,2,0:0:0:0:
448,192,32791,1,0,0:0:0:0:
320,192,32947,1,2,0:0:0:0:
64,192,33103,1,2,0:0:0:0:
320,192,33181,1,0,0:0:0:0:
192,192,33337,1,0,0:0:0:0:
448,192,33416,1,2,0:0:0:0:
320,192,33572,1,2,0:0:0:0:
64,192,33728,1,0,0:0:0:100:dr_snare_at.wav
448,192,33728,1,0,0:0:0:0:
320,192,33884,128,0,34353:0:0:0:0:
64,192,34041,1,6,0:0:0:0:
64,192,34353,1,8,0:0:0:0:
192,192,34431,1,0,0:0:0:0:
320,192,34509,1,0,0:0:0:0:
448,192,34666,1,0,0:0:0:0:
192,192,34822,1,2,0:0:0:0:
64,192,34978,1,8,0:0:0:0:
320,192,34978,1,0,0:0:0:0:
192,192,35134,128,0,35447:0:0:0:0:
320,192,35447,1,0,0:0:0:0:
64,192,35603,1,8,0:0:0:0:
448,192,35603,128,0,35916:0:0:0:0:
320,192,35916,1,0,0:0:0:0:
64,192,36072,128,2,36384:0:0:0:0:
320,192,36228,1,8,0:0:0:0:
192,192,36384,128,2,36697:0:0:0:0:
320,192,36697,1,2,0:0:0:0:
64,192,36853,1,8,0:0:0:0:
448,192,36853,128,0,37791:0:0:0:0:
192,192,37478,1,8,0:0:0:0:
320,192,37791,1,2,0:0:0:0:
64,192,37947,1,0,0:0:0:0:
320,192,38103,1,8,0:0:0:0:
448,192,38103,1,0,0:0:0:0:
192,192,38259,1,2,0:0:0:0:
320,192,38416,1,0,0:0:0:0:
448,192,38572,128,2,38884:0:0:0:0:
192,192,38728,1,8,0:0:0:0:
320,192,38884,128,0,39353:0:0:0:0:
64,192,39353,1,8,0:0:0:0:
448,192,39353,1,0,0:0:0:0:
192,192,39509,1,0,0:0:0:0:
320,192,39666,1,0,0:0:0:0:
192,192,39744,1,0,0:0:0:0:
64,192,39822,1,2,0:0:0:0:
192,192,39978,1,8,0:0:0:0:
448,192,39978,1,0,0:0:0:0:
320,192,40134,128,0,40499:0:0:0:0:
448,192,40499,128,0,40707:0:0:0:0:
192,192,40707,128,0,40916:0:0:0:0:
320,192,40916,128,0,41124:0:0:0:0:
64,192,41124,128,0,41332:0:0:0:0:
448,192,41332,128,0,41541:0:0:0:0:
320,192,41541,128,2,42478:0:0:0:0:
64,192,41853,1,8,0:0:0:0:
448,192,42166,1,0,0:0:0:0:
64,192,42322,1,2,0:0:0:0:
192,192,42478,1,8,0:0:0:0:
64,192,42634,128,0,43416:0:0:0:0:
192,192,42791,1,2,0:0:0:0:
320,192,42947,1,2,0:0:0:0:
448,192,43103,1,8,0:0:0:0:
192,192,43259,1,0,0:0:0:0:
320,192,43416,1,0,0:0:0:0:
192,192,43650,1,0,0:0:0:0:
64,192,43884,1,2,0:0:0:0:
448,192,43884,128,4,44197:0:0:0:0:
192,192,44197,1,0,0:0:0:100:piano_hi_100.wav
320,192,44353,1,0,0:0:0:100:piano_hi_204.wav
192,192,44509,1,0,0:0:0:100:piano_hi_091.wav
64,192,44666,1,0,0:0:0:100:piano_hi_073.wav
448,192,44822,1,0,0:0:0:100:piano_hi_137.wav
192,192,44978,1,0,0:0:0:100:piano_hi_064.wav
64,192,45134,1,0,0:0:0:100:piano_hi_120.wav
320,192,45291,1,0,0:0:0:100:piano_hi_048.wav
192,192,45447,1,0,0:0:0:100:piano_hi_104.wav
448,192,45603,1,0,0:0:0:100:piano_hi_039.wav
320,192,45759,1,0,0:0:0:100:piano_hi_091.wav
64,192,45916,1,2,0:0:0:0:
192,192,45916,1,4,0:0:0:0:
64,192,46150,1,2,0:0:0:0:
192,192,46150,1,4,0:0:0:0:
320,192,46384,1,2,0:0:0:0:
448,192,46384,1,4,0:0:0:0:
192,192,46697,1,0,0:0:0:100:piano_hi_100.wav
320,192,46853,1,0,0:0:0:100:piano_hi_204.wav
192,192,47009,1,0,0:0:0:100:piano_hi_091.wav
64,192,47166,1,0,0:0:0:100:piano_hi_073.wav
448,192,47322,1,0,0:0:0:100:piano_hi_137.wav
192,192,47478,1,0,0:0:0:100:piano_hi_064.wav
64,192,47634,1,0,0:0:0:100:piano_hi_120.wav
448,192,47791,1,0,0:0:0:100:piano_hi_048.wav
320,192,47947,1,0,0:0:0:100:piano_hi_104.wav
64,192,48103,1,0,0:0:0:100:piano_hi_158.wav
192,192,48259,1,0,0:0:0:100:piano_hi_212.wav
320,192,48416,1,2,0:0:0:0:
448,192,48416,1,4,0:0:0:0:
64,192,48650,1,2,0:0:0:0:
192,192,48650,1,4,0:0:0:0:
320,192,48884,1,2,0:0:0:0:
448,192,48884,1,4,0:0:0:0:
192,192,49197,1,2,0:0:0:0:
64,192,49353,1,8,0:0:0:0:
448,192,49353,1,0,0:0:0:0:
192,192,49509,1,4,0:0:0:0:
320,192,49666,1,2,0:0:0:0:
448,192,49666,1,0,0:0:0:0:
192,192,49822,1,2,0:0:0:0:
64,192,49978,1,8,0:0:0:0:
448,192,49978,1,0,0:0:0:0:
320,192,50134,1,6,0:0:0:0:
64,192,50447,1,2,0:0:0:0:
448,192,50603,1,8,0:0:0:0:
64,192,50759,1,12,0:0:0:0:
192,192,50759,1,2,0:0:0:0:
320,192,50994,1,12,0:0:0:0:
448,192,50994,128,2,51306:0:0:0:0:
64,192,51306,128,2,51853:0:0:0:0:
192,192,51306,1,4,0:0:0:0:
448,192,51541,1,0,0:0:0:0:
192,192,51853,1,4,0:0:0:0:
320,192,51853,1,2,0:0:0:0:
320,192,52322,1,2,0:0:0:0:
448,192,52322,1,4,0:0:0:0:
64,192,52791,1,4,0:0:0:0:
320,192,52791,1,2,0:0:0:0:
192,192,53259,1,4,0:0:0:0:
448,192,53259,1,2,0:0:0:0:
64,192,53728,1,4,0:0:0:0:
320,192,53728,1,2,0:0:0:0:
448,192,53962,1,6,0:0:0:0:
320,192,54197,1,6,0:0:0:0:
192,192,54431,1,6,0:0:0:0:
320,192,54666,1,6,0:0:0:0:
192,192,54900,1,6,0:0:0:0:
64,192,55134,1,4,0:0:0:0:
448,192,55134,1,2,0:0:0:0:
64,192,55447,128,0,55916:0:0:0:0:
192,192,55916,1,0,0:0:0:100:piano_hi_098.wav
320,192,56228,1,0,0:0:0:100:piano_hi_144.wav
64,192,56541,128,2,56853:0:0:0:0:
448,192,56541,1,4,0:0:0:0:
320,192,56853,1,8,0:0:0:0:
448,192,56853,1,0,0:0:0:0:
192,192,57009,1,0,0:0:0:0:
320,192,57166,1,0,0:0:0:0:
448,192,57322,1,2,0:0:0:0:
64,192,57478,1,8,0:0:0:0:
192,192,57478,1,0,0:0:0:0:
320,192,57634,1,2,0:0:0:0:
448,192,57634,128,0,57947:0:0:0:0:
64,192,57791,1,2,0:0:0:0:
192,192,57947,1,2,0:0:0:0:
64,192,58103,1,8,0:0:0:0:
320,192,58103,1,0,0:0:0:0:
192,192,58259,1,0,0:0:0:0:
448,192,58416,128,0,58728:0:0:0:0:
320,192,58572,1,2,0:0:0:0:
64,192,58728,1,8,0:0:0:0:
192,192,58728,1,0,0:0:0:0:
448,192,58884,1,0,0:0:0:0:
192,192,59041,1,2,0:0:0:0:
448,192,59197,1,0,0:0:0:0:
320,192,59275,1,0,0:0:0:0:
64,192,59353,1,8,0:0:0:0:
192,192,59353,1,0,0:0:0:0:
448,192,59509,1,0,0:0:0:0:
192,192,59666,1,0,0:0:0:0:
320,192,59822,1,2,0:0:0:0:
64,192,59978,1,8,0:0:0:0:
448,192,59978,1,0,0:0:0:0:
320,192,60134,128,2,60447:0:0:0:0:
64,192,60447,1,2,0:0:0:0:
192,192,60603,1,8,0:0:0:0:
320,192,60603,1,0,0:0:0:0:
448,192,60759,128,0,61072:0:0:0:0:
320,192,61072,1,2,0:0:0:0:
64,192,61228,1,8,0:0:0:0:
448,192,61228,1,0,0:0:0:0:
192,192,61384,1,0,0:0:0:0:
320,192,61541,128,2,61853:0:0:0:0:
192,192,61853,1,8,0:0:0:0:
448,192,61853,1,0,0:0:0:0:
64,192,62009,1,0,0:0:0:0:
320,192,62166,1,0,0:0:0:0:
448,192,62322,1,2,0:0:0:0:
64,192,62478,1,8,0:0:0:0:
192,192,62478,1,0,0:0:0:0:
448,192,62634,128,2,62947:0:0:0:0:
64,192,62791,1,2,0:0:0:0:
192,192,62947,1,2,0:0:0:0:
320,192,63103,1,8,0:0:0:0:
448,192,63103,1,0,0:0:0:0:
192,192,63259,1,0,0:0:0:0:
64,192,63416,128,0,63728:0:0:0:0:
448,192,63572,1,2,0:0:0:0:
320,192,63728,1,8,0:0:0:0:
192,192,63884,1,0,0:0:0:0:
64,192,64041,1,2,0:0:0:0:
192,192,64197,1,0,0:0:0:0:
320,192,64353,1,8,0:0:0:0:
448,192,64353,1,0,0:0:0:0:
192,192,64431,1,0,0:0:0:0:
64,192,64509,1,0,0:0:0:0:
448,192,64587,1,0,0:0:0:0:
320,192,64666,1,0,0:0:0:0:
192,192,64822,1,2,0:0:0:0:
64,192,64978,1,8,0:0:0:0:
448,192,64978,1,0,0:0:0:0:
320,192,65134,128,2,65447:0:0:0:0:
192,192,65447,1,2,0:0:0:0:
64,192,65603,1,8,0:0:0:0:
448,192,65603,1,0,0:0:0:0:
192,192,65759,1,0,0:0:0:0:
64,192,65916,128,0,66228:0:0:0:0:
192,192,66228,128,8,66541:0:0:0:0:
448,192,66228,1,0,0:0:0:0:
64,192,66541,1,2,0:0:0:0:
320,192,66541,128,4,66853:0:0:0:0:
192,192,66853,1,8,0:0:0:0:
448,192,66853,1,0,0:0:0:0:
64,192,67009,1,0,0:0:0:0:
448,192,67166,1,0,0:0:0:0:
192,192,67322,1,2,0:0:0:0:
320,192,67478,1,8,0:0:0:0:
448,192,67478,1,0,0:0:0:0:
64,192,67634,128,2,67947:0:0:0:0:
192,192,67634,1,0,0:0:0:0:
320,192,67947,1,2,0:0:0:0:
192,192,68103,1,8,0:0:0:0:
448,192,68103,1,0,0:0:0:0:
320,192,68259,1,0,0:0:0:0:
448,192,68416,128,0,68728:0:0:0:0:
320,192,68572,1,2,0:0:0:0:
64,192,68728,1,8,0:0:0:0:
192,192,68728,1,0,0:0:0:0:
448,192,68884,1,0,0:0:0:0:
192,192,69041,1,2,0:0:0:0:
448,192,69197,1,0,0:0:0:0:
320,192,69275,1,0,0:0:0:0:
64,192,69353,1,8,0:0:0:0:
192,192,69353,1,0,0:0:0:0:
448,192,69509,1,0,0:0:0:0:
192,192,69666,1,0,0:0:0:0:
320,192,69822,1,2,0:0:0:0:
64,192,69978,1,8,0:0:0:0:
448,192,69978,1,0,0:0:0:0:
320,192,70134,128,2,70447:0:0:0:0:
64,192,70447,1,2,0:0:0:0:
192,192,70603,1,8,0:0:0:0:
320,192,70603,1,0,0:0:0:0:
448,192,70759,128,0,71072:0:0:0:0:
320,192,71072,1,2,0:0:0:0:
64,192,71228,1,8,0:0:0:0:
448,192,71228,1,0,0:0:0:0:
192,192,71384,1,0,0:0:0:0:
320,192,71541,128,2,71853:0:0:0:0:
192,192,71853,1,8,0:0:0:0:
448,192,71853,1,0,0:0:0:0:
64,192,72009,1,0,0:0:0:0:
320,192,72166,1,0,0:0:0:0:
448,192,72322,1,2,0:0:0:0:
64,192,72478,1,8,0:0:0:0:
192,192,72478,1,0,0:0:0:0:
448,192,72634,128,2,72947:0:0:0:0:
64,192,72791,1,2,0:0:0:0:
192,192,72947,1,2,0:0:0:0:
320,192,73103,1,8,0:0:0:0:
448,192,73103,1,0,0:0:0:0:
192,192,73259,1,0,0:0:0:0:
64,192,73416,128,0,73728:0:0:0:0:
448,192,73572,1,2,0:0:0:0:
320,192,73728,1,8,0:0:0:0:
192,192,73884,1,0,0:0:0:0:
64,192,74041,1,2,0:0:0:0:
192,192,74197,1,0,0:0:0:0:
320,192,74353,1,8,0:0:0:0:
448,192,74353,1,0,0:0:0:0:
192,192,74431,1,0,0:0:0:0:
64,192,74509,1,0,0:0:0:0:
448,192,74587,1,0,0:0:0:0:
320,192,74666,1,0,0:0:0:0:
192,192,74822,1,2,0:0:0:0:
64,192,74978,1,8,0:0:0:0:
448,192,74978,1,0,0:0:0:0:
320,192,75134,128,2,75447:0:0:0:0:
192,192,75447,1,2,0:0:0:0:
64,192,75603,1,8,0:0:0:0:
448,192,75603,1,0,0:0:0:0:
192,192,75759,1,0,0:0:0:0:
64,192,75916,128,0,76228:0:0:0:0:
320,192,76228,1,8,0:0:0:0:
192,192,76541,1,0,0:0:0:100:piano_lo_169.wav
448,192,76541,1,0,0:0:0:0:
64,192,76853,1,0,0:0:0:100:piano_hi_037.wav
192,192,77061,1,0,0:0:0:100:piano_hi_027.wav
448,192,77166,1,0,0:0:0:100:piano_hi_075.wav
64,192,77270,1,0,0:0:0:100:piano_hi_046.wav
192,192,77374,1,0,0:0:0:100:piano_hi_052.wav
320,192,77478,1,0,0:0:0:100:piano_hi_105.wav
448,192,77582,1,0,0:0:0:100:piano_hi_205.wav
192,192,77686,1,0,0:0:0:100:piano_hi_154.wav
64,192,77791,1,2,0:0:0:0:
320,192,77791,1,4,0:0:0:0:
192,192,78103,1,2,0:0:0:0:
448,192,78103,1,4,0:0:0:0:
64,192,78416,1,4,0:0:0:0:
192,192,78416,1,2,0:0:0:0:
320,192,78494,1,0,0:0:0:0:
448,192,78572,1,0,0:0:0:0:
448,192,78884,128,0,80134:0:0:0:0:
64,192,79041,1,6,0:0:0:0:
320,192,79353,1,8,0:0:0:0:
64,192,79822,1,2,0:0:0:0:
192,192,79978,1,8,0:0:0:0:
320,192,80134,128,0,81072:0:0:0:0:
64,192,80291,1,2,0:0:0:0:
192,192,80603,1,8,0:0:0:0:
64,192,81072,128,2,81384:0:0:0:0:
448,192,81228,1,8,0:0:0:0:
192,192,81384,1,0,0:0:0:0:
64,192,81541,128,2,81853:0:0:0:0:
320,192,81853,1,8,0:0:0:0:
448,192,81853,128,0,82166:0:0:0:0:
192,192,82009,1,0,0:0:0:0:
320,192,82166,1,0,0:0:0:0:
64,192,82322,1,2,0:0:0:0:
192,192,82478,1,8,0:0:0:0:
320,192,82478,128,0,82791:0:0:0:0:
448,192,82634,1,0,0:0:0:0:
64,192,82791,1,2,0:0:0:0:
192,192,82791,1,0,0:0:0:0:
320,192,82947,1,0,0:0:0:0:
192,192,83103,1,8,0:0:0:0:
448,192,83103,1,0,0:0:0:0:
320,192,83259,1,0,0:0:0:0:
64,192,83363,1,0,0:0:0:0:
192,192,83494,1,0,0:0:0:0:
320,192,83611,1,0,0:0:0:0:
64,192,83728,1,8,0:0:0:0:
448,192,83728,1,0,0:0:0:0:
192,192,84041,1,2,0:0:0:0:
320,192,84041,1,4,0:0:0:0:
64,192,84197,1,0,0:0:0:0:
192,192,84353,1,8,0:0:0:0:
448,192,84353,1,0,0:0:0:0:
320,192,84509,1,0,0:0:0:0:
448,192,84666,1,0,0:0:0:0:
64,192,84822,1,2,0:0:0:0:
192,192,84978,1,8,0:0:0:0:
320,192,84978,1,0,0:0:0:0:
448,192,85134,128,0,85447:0:0:0:0:
64,192,85447,1,0,0:0:0:0:
320,192,85603,1,8,0:0:0:0:
448,192,85603,1,0,0:0:0:0:
64,192,85759,128,0,86072:0:0:0:0:
192,192,86072,128,2,86228:0:0:0:0:
448,192,86228,1,8,0:0:0:0:
320,192,86384,128,0,86697:0:0:0:0:
192,192,86697,1,0,0:0:0:0:
64,192,86853,1,8,0:0:0:0:
448,192,86853,128,0,87009:0:0:0:0:
320,192,87009,1,0,0:0:0:0:
64,192,87166,128,0,87478:0:0:0:0:
192,192,87478,1,8,0:0:0:0:
320,192,87478,1,0,0:0:0:0:
448,192,87634,128,0,88259:0:0:0:0:
320,192,88259,128,0,88416:0:0:0:0:
192,192,88572,128,0,88884:0:0:0:0:
64,192,88884,128,0,91541:0:0:0:0:
320,192,89041,1,6,0:0:0:0:
448,192,89041,1,0,0:0:0:100:piano_sus_051.wav
192,192,89353,1,0,0:0:0:100:piano_sus_053.wav
448,192,89666,1,0,0:0:0:100:piano_sus_055.wav
320,192,89978,1,0,0:0:0:100:piano_sus_057.wav
192,192,90291,1,2,0:0:0:0:
320,192,90603,1,0,0:0:0:100:piano_sus_061.wav
448,192,90916,1,0,0:0:0:100:piano_sus_063.wav
192,192,91228,1,0,0:0:0:100:piano_sus_065.wav
448,192,91541,1,2,0:0:0:0:
320,192,91853,1,0,0:0:0:100:piano_sus_069.wav
64,192,92166,1,0,0:0:0:100:piano_sus_071.wav
320,192,92478,1,0,0:0:0:100:piano_sus_073.wav
192,192,92791,1,2,0:0:0:0:
64,192,93103,1,0,0:0:0:100:piano_sus_077.wav
448,192,93416,1,2,0:0:0:0:
320,192,93728,1,0,0:0:0:100:piano_hi_125.wav
64,192,93884,128,2,94353:0:0:0:0:
192,192,93884,1,4,0:0:0:0:
448,192,94353,1,8,0:0:0:0:
192,192,94509,128,2,94978:0:0:0:0:
320,192,94509,1,4,0:0:0:0:
64,192,94978,1,8,0:0:0:0:
320,192,95134,128,2,95603:0:0:0:0:
448,192,95134,1,4,0:0:0:0:
192,192,95603,1,8,0:0:0:0:
64,192,95759,128,6,95916:0:0:0:0:
320,192,95759,1,8,0:0:0:0:
192,192,96072,128,6,96228:0:0:0:0:
320,192,96072,1,8,0:0:0:0:
64,192,96384,1,4,0:0:0:0:
448,192,96384,128,2,97791:0:0:0:0:
320,192,96853,1,2,0:0:0:0:
64,192,97166,1,2,0:0:0:0:
192,192,97478,1,2,0:0:0:0:
192,192,97791,1,2,0:0:0:0:
320,192,97947,1,2,0:0:0:0:
64,192,98103,1,2,0:0:0:0:
448,192,98259,1,2,0:0:0:0:
64,192,98416,1,2,0:0:0:0:
192,192,98494,1,2,0:0:0:0:
448,192,98572,1,2,0:0:0:0:
320,192,98650,1,2,0:0:0:0:
192,192,98728,1,2,0:0:0:0:
64,192,98806,1,2,0:0:0:0:
320,192,98884,1,2,0:0:0:0:
448,192,98884,1,0,0:0:0:100:piano_sus_082.wav
64,192,100916,1,0,0:0:0:100:piano_lo_179.wav
192,192,101228,1,0,0:0:0:100:piano_lo_180.wav
320,192,101541,1,0,0:0:0:100:piano_sus_083.wav
192,192,102009,1,0,0:0:0:100:piano_sus_084.wav
320,192,102166,1,0,0:0:0:100:piano_sus_085.wav
448,192,102374,1,0,0:0:0:100:piano_sus_086.wav
64,192,102478,1,0,0:0:0:100:piano_sus_088.wav
192,192,102634,1,0,0:0:0:100:piano_sus_089.wav
448,192,102947,1,0,0:0:0:100:piano_sus_090.wav
320,192,103103,1,0,0:0:0:100:piano_sus_091.wav
64,192,103259,1,0,0:0:0:100:piano_sus_092.wav
320,192,103416,1,0,0:0:0:100:piano_sus_093.wav
64,192,103728,1,0,0:0:0:100:dr_021.wav
448,192,103728,1,0,0:0:0:0:
192,192,104041,1,2,0:0:0:0:
320,192,104041,1,4,0:0:0:0:
448,192,104197,1,0,0:0:0:0:
320,192,104275,1,0,0:0:0:0:
64,192,104353,1,8,0:0:0:0:
192,192,104353,1,0,0:0:0:0:
448,192,104509,1,0,0:0:0:0:
64,192,104666,1,0,0:0:0:0:
320,192,104822,1,2,0:0:0:0:
192,192,104978,1,8,0:0:0:0:
448,192,104978,1,0,0:0:0:0:
320,192,105134,128,2,105447:0:0:0:0:
64,192,105447,1,2,0:0:0:0:
192,192,105603,1,8,0:0:0:0:
320,192,105603,1,0,0:0:0:0:
448,192,105759,128,0,106072:0:0:0:0:
320,192,106072,1,2,0:0:0:0:
64,192,106228,1,8,0:0:0:0:
448,192,106228,1,0,0:0:0:0:
192,192,106384,1,0,0:0:0:0:
320,192,106541,128,2,106853:0:0:0:0:
192,192,106853,1,8,0:0:0:0:
448,192,106853,1,0,0:0:0:0:
64,192,107009,1,0,0:0:0:0:
320,192,107166,1,0,0:0:0:0:
448,192,107322,1,2,0:0:0:0:
64,192,107478,1,8,0:0:0:0:
192,192,107478,1,0,0:0:0:0:
448,192,107634,128,2,107947:0:0:0:0:
192,192,107947,1,2,0:0:0:0:
320,192,108103,1,8,0:0:0:0:
448,192,108103,1,0,0:0:0:0:
192,192,108259,1,0,0:0:0:0:
64,192,108416,128,0,108728:0:0:0:0:
448,192,108572,1,2,0:0:0:0:
320,192,108728,1,8,0:0:0:0:
192,192,108884,1,0,0:0:0:0:
64,192,109041,1,2,0:0:0:0:
192,192,109197,1,0,0:0:0:0:
320,192,109353,1,8,0:0:0:0:
448,192,109353,1,0,0:0:0:0:
192,192,109431,1,0,0:0:0:0:
64,192,109509,1,0,0:0:0:0:
448,192,109587,1,0,0:0:0:0:
320,192,109666,1,0,0:0:0:0:
192,192,109822,1,2,0:0:0:0:
64,192,109978,1,8,0:0:0:0:
448,192,109978,1,0,0:0:0:0:
320,192,110134,128,2,110447:0:0:0:0:
64,192,110291,1,2,0:0:0:0:
192,192,110447,1,2,0:0:0:0:
64,192,110603,1,8,0:0:0:0:
448,192,110603,1,0,0:0:0:0:
320,192,110759,1,0,0:0:0:0:
64,192,110916,128,0,111228:0:0:0:0:
192,192,111228,128,8,111541:0:0:0:0:
448,192,111228,1,0,0:0:0:0:
64,192,111541,1,2,0:0:0:0:
320,192,111541,128,4,111853:0:0:0:0:
192,192,111853,1,8,0:0:0:0:
448,192,111853,1,0,0:0:0:0:
64,192,112009,1,0,0:0:0:0:
320,192,112166,1,0,0:0:0:0:
192,192,112322,1,2,0:0:0:0:
320,192,112478,1,8,0:0:0:0:
448,192,112478,1,0,0:0:0:0:
64,192,112634,128,2,112947:0:0:0:0:
192,192,112634,1,0,0:0:0:0:
192,192,112947,1,2,0:0:0:0:
320,192,113103,1,8,0:0:0:0:
448,192,113103,1,0,0:0:0:0:
192,192,113259,1,0,0:0:0:0:
320,192,113416,128,0,113728:0:0:0:0:
64,192,113572,1,2,0:0:0:0:
192,192,113728,1,8,0:0:0:0:
320,192,113884,1,0,0:0:0:0:
448,192,114041,128,2,114275:0:0:0:0:
64,192,114275,128,0,114509:0:0:0:0:
192,192,114509,1,0,0:0:0:0:
448,192,114666,128,2,114900:0:0:0:0:
320,192,114900,128,2,115134:0:0:0:0:
64,192,115134,1,2,0:0:0:0:
192,192,115291,128,2,115525:0:0:0:0:
64,192,115525,128,0,115759:0:0:0:0:
448,192,115759,1,0,0:0:0:0:
320,192,115837,1,0,0:0:0:0:
192,192,115916,1,0,0:0:0:0:
320,192,116072,1,2,0:0:0:0:
192,192,116150,1,0,0:0:0:0:
64,192,116228,1,8,0:0:0:0:
320,192,116384,1,0,0:0:0:0:
448,192,116541,1,2,0:0:0:0:
320,192,116697,1,0,0:0:0:0:
192,192,116853,1,8,0:0:0:0:
448,192,116853,1,0,0:0:0:0:
64,192,117009,1,0,0:0:0:0:
320,192,117166,1,0,0:0:0:0:
64,192,117322,1,2,0:0:0:0:
192,192,117400,1,0,0:0:0:0:
320,192,117478,1,8,0:0:0:0:
448,192,117478,1,0,0:0:0:0:
192,192,117634,1,2,0:0:0:0:
64,192,117791,1,2,0:0:0:0:
320,192,117947,1,2,0:0:0:0:
64,192,118103,1,8,0:0:0:0:
448,192,118103,1,0,0:0:0:0:
192,192,118259,1,0,0:0:0:0:
448,192,118416,1,0,0:0:0:0:
320,192,118572,1,2,0:0:0:0:
64,192,118728,1,8,0:0:0:0:
192,192,118728,1,0,0:0:0:0:
320,192,118884,1,0,0:0:0:0:
192,192,119041,1,2,0:0:0:0:
64,192,119197,1,0,0:0:0:0:
320,192,119353,1,8,0:0:0:0:
448,192,119353,1,0,0:0:0:0:
192,192,119431,1,0,0:0:0:0:
64,192,119587,1,0,0:0:0:0:
192,192,119666,1,0,0:0:0:0:
320,192,119744,1,0,0:0:0:0:
448,192,119822,1,2,0:0:0:0:
64,192,119978,1,8,0:0:0:0:
320,192,119978,1,0,0:0:0:0:
192,192,120134,128,2,120447:0:0:0:0:
320,192,120447,1,2,0:0:0:0:
64,192,120603,1,8,0:0:0:0:
448,192,120603,1,0,0:0:0:0:
320,192,120759,128,0,121541:0:0:0:0:
192,192,121228,1,8,0:0:0:0:
448,192,121541,1,2,0:0:0:0:
64,192,121697,1,0,0:0:0:0:
448,192,121853,1,0,0:0:0:0:
320,192,121931,1,0,0:0:0:0:
64,192,122087,1,0,0:0:0:0:
192,192,122166,1,14,0:0:0:0:
320,192,122244,1,0,0:0:0:0:
448,192,122322,1,0,0:0:0:0:
192,192,122478,1,0,0:0:0:0:
64,192,122634,128,6,123884:0:0:0:0:
448,192,122634,1,8,0:0:0:0:
192,192,123884,1,0,0:0:0:100:piano_hi_257.wav
320,192,123936,1,0,0:0:0:100:piano_hi_267.wav
448,192,123988,1,0,0:0:0:100:piano_hi_272.wav
