osu file format v14

[General]
AudioFilename: audio.mp3
AudioLeadIn: 0
PreviewTime: 55759
Countdown: 0
SampleSet: Normal
StackLeniency: 0.7
Mode: 0
LetterboxInBreaks: 0
WidescreenStoryboard: 1

[Editor]
DistanceSpacing: 0.8
BeatDivisor: 4
GridSize: 4
TimelineZoom: 2.4

[Metadata]
Title:Ukiyoe Yokochou
TitleUnicode:浮世絵横丁
Artist:Chaos City Niigata
ArtistUnicode:魔界都市ニイガタ
Creator:Otosaka-Yu
Version:-Eriri-'s Normal
Source:BMS
Tags:BOFU2017 -LEGENDA EST A MYTH- BMS of Fighters Ultimate GroundbreakinG 2017 Compilation album tatamiser 黄泉路テヂーモ tedjimo yomigy dawn-system yoa かゆき kayuki 自動車原付 gentsuki jidousya 紅蓮月影 VS Muse Dash Suzuki_1112 1112deng nika mika nika_mika my angel yayoi [ Abhor ] [_Abhor_] Lobelia -Eriri-
BeatmapID:1569587
BeatmapSetID:713506

[Difficulty]
HPDrainRate:3
CircleSize:3
OverallDifficulty:4
ApproachRate:5
SliderMultiplier:1.1
SliderTickRate:1

[Events]
//Background and Video events
Video,240,"_ukiyoe.mp4"
0,0,"bg1.jpg",0,0
//Break Periods
2,89241,92324
2,99084,102168
//Storyboard Layer 0 (Background)
//Storyboard Layer 1 (Fail)
//Storyboard Layer 2 (Pass)
//Storyboard Layer 3 (Foreground)
//Storyboard Sound Samples

[TimingPoints]
291,312.5,4,1,1,30,1,0
1384,-111.111111111111,4,2,2,30,0,0
4978,-111.111111111111,4,2,2,50,0,0
5134,-111.111111111111,4,2,2,30,0,0
6541,-100,4,1,2,50,0,0
10134,-100,4,1,1,30,0,0
10212,-100,4,2,1,30,0,0
11541,-100,4,1,1,70,0,0
12791,-100,4,1,1,70,0,0
13572,-100,4,1,1,70,0,0
14041,-100,4,1,1,70,0,0
15134,-100,4,1,1,70,0,0
16541,-100,4,1,1,70,0,0
20837,-100,4,1,1,70,0,0
21228,-100,4,1,1,70,0,0
21541,-100,4,1,1,70,0,0
27947,-100,4,1,1,70,0,0
28337,-100,4,1,1,70,0,0
30837,-100,4,1,1,70,0,0
31228,-100,4,1,1,70,0,0
32791,-100,4,1,2,70,0,0
32947,-100,4,1,2,70,0,0
33103,-100,4,1,2,70,0,0
33259,-100,4,1,2,70,0,0
33416,-100,4,1,2,70,0,0
33572,-100,4,1,2,70,0,0
33728,-100,4,1,2,70,0,0
34041,-100,4,1,1,70,0,0
34119,-100,4,2,3,70,0,0
39041,-100,4,1,1,70,0,0
39119,-100,4,2,3,70,0,0
43884,-100,4,1,1,70,0,0
44197,-100,4,2,0,40,0,0
45291,-100,4,2,0,40,0,0
45916,-100,4,1,1,70,0,0
46541,-100,4,2,0,40,0,0
47791,-100,4,2,0,40,0,0
48416,-100,4,1,1,70,0,0
48650,-100,4,1,1,70,0,0
49353,-100,4,1,1,70,0,0
53728,-100,4,1,1,70,0,0
55134,-100,4,1,1,70,0,0
55447,-100,4,2,0,70,0,0
55525,-100,4,1,1,70,0,0
56541,-100,4,1,1,70,0,1
57166,-100,4,1,1,70,0,1
57634,-100,4,1,1,70,0,1
60447,-100,4,1,1,70,0,1
61541,-100,4,1,1,70,0,1
65916,-100,4,1,1,70,0,1
66228,-100,4,1,1,70,0,1
66462,-100,4,1,1,70,0,0
66541,-100,4,1,1,70,0,1
67009,-100,4,1,1,70,0,1
68728,-100,4,1,1,70,0,1
69041,-100,4,1,1,70,0,1
70447,-100,4,1,1,70,0,1
71541,-100,4,1,1,70,0,1
73728,-100,4,1,1,70,0,1
74041,-100,4,1,1,70,0,1
75916,-100,4,1,1,70,0,1
76541,-100,4,1,1,70,0,0
77791,-100,4,1,1,70,0,0
78572,-100,4,1,1,70,0,0
79041,-100,4,1,1,70,0,0
79353,-100,4,1,1,70,0,0
79978,-100,4,1,1,70,0,0
80134,-100,4,1,1,70,0,0
80291,-100,4,1,1,70,0,0
80759,-100,4,1,1,70,0,0
81072,-100,4,1,1,70,0,0
82791,-100,4,1,1,70,0,0
84041,-100,4,1,1,70,0,0
84666,-100,4,1,1,70,0,0
89041,-100,4,1,1,50,0,0
89119,-100,4,2,3,50,0,0
93728,-100,4,1,1,70,0,0
93884,-100,4,1,1,70,0,0
94509,-100,4,1,1,70,0,0
95134,-100,4,1,1,70,0,0
95759,-100,4,1,1,70,0,0
96384,-100,4,1,1,70,0,0
98884,-100,4,2,0,70,0,0
98962,-100,4,1,1,5,0,0
100916,-100,4,2,0,50,0,0
101541,-100,4,2,0,50,0,0
103416,-100,4,2,0,70,0,0
103728,-100,4,1,1,70,0,0
104041,-100,4,1,1,70,0,1
105447,-100,4,1,1,70,0,1
106541,-100,4,1,1,70,0,1
110916,-100,4,1,1,70,0,1
111228,-100,4,1,1,70,0,1
111462,-100,4,1,1,70,0,0
111541,-100,4,1,1,70,0,1
112009,-100,4,1,1,70,0,1
121541,-100,4,1,1,70,0,0
121697,-100,4,1,1,70,0,0
122166,-100,4,1,1,70,0,0
122634,-100,4,1,1,70,0,0
123884,-100,4,2,0,50,0,0

[Colours]
Combo1 : 136,208,247
Combo2 : 255,128,128
Combo3 : 255,255,128
Combo4 : 245,197,105

[HitObjects]
292,206,1541,6,0,L|405:190,1,98.9999969787599,2|8,0:0|0:0,0:0:0:0:
439,198,2009,2,0,P|485:271|438:350,1,148.49999546814,8|0,0:0|0:0,0:0:0:0:
422,345,2634,2,0,P|335:320|260:362,1,148.49999546814,2|8,0:0|0:0,0:0:0:0:
245,371,3259,1,2,0:0:0:0:
149,344,3572,1,0,0:0:0:0:
11,288,4041,6,0,L|23:189,1,98.9999969787599,0|8,0:0|0:0,0:0:0:0:
49,148,4509,2,0,P|99:165|151:143,1,98.9999969787599,2|8,0:0|0:0,0:0:0:0:
187,63,5134,2,0,P|256:40|330:67,1,148.49999546814,2|8,0:0|0:0,0:0:0:0:
363,95,5759,1,8,0:0:0:0:
461,88,6072,1,0,0:0:0:0:
496,249,6541,6,0,P|445:241|392:283,1,110,6|8,0:0|0:0,0:0:0:0:
358,309,7009,1,2,0:0:0:0:
247,186,7478,1,0,0:0:0:0:
247,186,7634,2,0,P|244:290|238:361,1,165
190,377,8259,1,2,0:0:0:0:
85,342,8572,1,8,0:0:0:0:
51,180,9041,2,0,P|67:111|84:3,1,165,2|2,0:0|0:0,0:0:0:0:
256,192,10134,12,2,11541,0:2:0:0:
332,123,12791,6,0,P|352:96|355:1,2,110,2|4|2,0:2|0:2|0:2,0:0:0:0:
158,220,14041,6,0,L|171:341,1,110,12|8,0:2|0:0,0:0:0:0:
68,372,14666,1,6,0:0:0:0:
24,271,14978,1,8,0:0:0:0:
24,271,15134,2,0,P|15:186|61:98,1,165,0|8,0:0|0:0,0:0:0:0:
84,11,15916,2,0,L|209:43,1,110,0|8,0:0|0:0,0:0:0:0:
303,93,16541,6,0,L|442:69,1,110,6|8,0:0|0:0,0:0:0:0:
459,101,17009,1,0,0:0:0:0:
459,101,17166,2,0,L|518:87,2,55,6|2|8,0:0|0:0|0:0,0:0:0:0:
386,183,17791,2,0,L|417:278,1,55,6|0,0:0|0:0,0:0:0:0:
350,331,18259,1,0,0:0:0:0:
158,164,19041,6,0,L|171:38,1,110,10|8,0:2|0:0,0:0:0:0:
68,9,19666,1,6,0:0:0:0:
22,108,19978,1,8,0:0:0:0:
22,108,20134,2,0,P|21:193|63:260,1,165,0|8,0:0|0:0,0:0:0:0:
94,364,20916,2,0,L|227:348,1,110,0|8,0:0|0:0,0:0:0:0:
289,282,21541,6,0,L|410:300,1,110,6|8,0:0|0:0,0:0:0:0:
449,280,22009,1,0,0:0:0:0:
449,280,22166,2,0,L|442:168,1,110,6|8,0:0|0:0,0:0:0:0:
431,116,22634,1,0,0:0:0:0:
431,116,22791,2,0,L|456:56,2,55,6|0|8,0:0|0:0|0:0,0:0:0:0:
336,60,23416,2,0,L|361:0,2,55,4|2|8,0:0|0:0|0:0,0:0:0:0:
255,135,24041,6,0,P|201:122|155:81,1,110,12|8,0:2|0:0,0:0:0:0:
77,14,24666,1,6,0:0:0:0:
40,117,24978,1,8,0:0:0:0:
40,117,25134,2,0,L|48:305,1,165,0|8,0:0|0:0,0:0:0:0:
157,272,25916,2,0,P|211:244|275:259,1,110,0|8,0:0|0:0,0:0:0:0:
268,359,26541,6,0,P|312:355|364:309,1,110,6|8,0:0|0:0,0:0:0:0:
412,294,27009,1,0,0:0:0:0:
412,294,27166,2,0,L|486:307,2,55,6|0|8,0:0|0:0|0:0,0:0:0:0:
364,194,27791,2,0,L|372:107,1,55,6|0,0:0|0:0,0:0:0:0:
430,48,28259,1,2,0:0:0:0:
158,3,29041,6,0,P|104:7|50:47,1,110,10|8,0:2|0:0,0:0:0:0:
15,138,29666,1,6,0:0:0:0:
104,201,29978,1,8,0:0:0:0:
104,201,30134,2,0,L|89:374,1,165,2|8,0:0|0:0,0:0:0:0:
181,304,30916,2,0,B|231:286|231:286|293:310,1,110,0|8,0:0|0:0,0:0:0:0:
361,348,31541,6,0,B|416:365|416:365|468:344,1,110,6|8,0:0|0:0,0:0:0:0:
502,323,32009,1,0,0:0:0:0:
504,278,32166,2,0,L|494:224,2,55,0|2|8,0:0|0:0|0:0,0:0:0:0:
405,221,32791,1,2,0:0:0:0:
405,221,34041,6,0,B|347:214|298:240|298:240|250:212|178:209,1,220,12|2,0:2|0:0,0:0:0:0:
85,233,34978,1,8,0:0:0:0:
85,233,35134,2,0,P|116:168|63:78,1,165,0|8,0:0|0:0,0:0:0:0:
5,6,35916,2,0,B|153:7,1,110,2|8,0:0|0:0,0:0:0:0:
159,38,36384,6,0,L|333:29,1,165,0|8,0:0|0:0,0:0:0:0:
430,56,37166,2,0,L|491:17,2,55,2|0|8,0:0|0:0|0:0,0:0:0:0:
353,134,37791,2,0,L|367:258,1,110,2|8,0:0|0:0,0:0:0:0:
442,321,38416,2,0,L|514:341,2,55,2|0|8,0:0|0:0|0:0,0:0:0:0:
334,344,39041,6,0,P|243:367|146:272,1,220,10|2,0:2|0:0,0:0:0:0:
71,216,39978,1,8,0:0:0:0:
44,109,40291,2,0,B|117:98|149:143|149:143|190:179|290:153,1,220,2|2,0:0|0:0,0:0:0:0:
343,214,41228,1,8,0:0:0:0:
428,283,41541,2,0,P|453:219|335:119,1,220,2|2,0:0|0:0,0:0:0:0:
259,157,42478,1,8,0:0:0:0:
148,152,42791,6,0,P|61:150|168:58,1,330,2|0,0:0|0:0,0:0:0:0:
204,75,43884,1,10,0:2:0:0:
378,59,45916,6,0,L|486:67,2,82.5,10|0|0,0:2|0:0|0:0,0:0:0:0:
123,316,48416,2,0,L|20:328,2,82.5,10|12|12,0:2|0:2|0:2,0:0:0:0:
209,266,49197,5,2,0:0:0:0:
254,297,49353,2,0,L|377:306,1,110,8|2,0:0|0:0,0:0:0:0:
466,264,49978,1,10,0:0:0:0:
429,223,50134,2,0,P|408:142|455:75,1,165,2|2,0:0|0:0,0:0:0:0:
490,40,50759,2,0,L|293:26,1,192.5,8|8,0:0|0:0,0:0:0:0:
256,192,51541,12,0,55134,0:0:0:0:
253,290,56541,6,0,L|124:274,1,110,10|8,0:2|0:0,0:0:0:0:
54,211,57166,2,0,L|-1:227,2,55,6|2|8,0:0|0:0|0:0,0:0:0:0:
101,183,57634,2,0,P|121:140|88:74,1,110,6|2,0:0|0:0,0:0:0:0:
79,32,58103,2,0,L|205:49,1,110,8|0,0:0|0:0,0:0:0:0:
282,103,58728,1,8,0:0:0:0:
361,26,59041,6,0,P|392:75|383:141,1,110,6|8,0:0|0:0,0:0:0:0:
370,233,59666,2,0,L|434:221,2,55,6|2|8,0:0|0:0|0:0,0:0:0:0:
340,279,60134,1,6,0:0:0:0:
252,346,60447,2,0,L|193:338,1,55,2|8,0:0|0:0,0:0:0:0:
182,285,60759,2,0,P|139:265|51:310,1,110,2|2,0:0|0:0,0:0:0:0:
29,300,61228,1,8,0:0:0:0:
15,190,61541,6,0,P|69:163|98:109,1,110,6|8,0:0|0:0,0:0:0:0:
64,16,62166,2,0,L|-7:22,2,55,6|0|8,0:0|0:0|0:0,0:0:0:0:
115,35,62634,2,0,L|258:12,1,110,6|2,0:0|0:0,0:0:0:0:
272,44,63103,2,0,L|381:61,1,110,8|0,0:0|0:0,0:0:0:0:
480,15,63728,1,8,0:0:0:0:
470,124,64041,6,0,P|421:161|369:159,1,110,6|8,0:0|0:0,0:0:0:0:
307,247,64666,2,0,L|322:328,2,55,6|2|8,0:0|0:0|0:0,0:0:0:0:
254,231,65134,2,0,B|219:220|219:220|143:247,1,110,6|2,0:0|0:0,0:0:0:0:
123,293,65603,1,8,0:0:0:0:
13,307,65916,1,6,0:0:0:0:
31,198,66228,1,10,0:0:0:0:
51,88,66541,6,0,P|101:53|182:71,1,110,12|8,0:2|0:0,0:0:0:0:
248,99,67166,2,0,L|228:157,2,55,6|2|8,0:0|0:0|0:0,0:0:0:0:
286,60,67634,2,0,P|329:52|380:-2,1,110,6|2,0:0|0:0,0:0:0:0:
403,55,68103,2,0,L|545:81,1,110,8|0,0:0|0:0,0:0:0:0:
512,178,68728,1,8,0:0:0:0:
402,185,69041,6,0,P|420:242|478:277,1,110,6|8,0:0|0:0,0:0:0:0:
459,381,69666,2,0,L|550:348,2,55,6|2|8,0:0|0:0|0:0,0:0:0:0:
408,360,70134,1,6,0:0:0:0:
317,297,70447,2,0,L|258:289,1,55,2|8,0:0|0:0,0:0:0:0:
231,334,70759,2,0,P|188:354|112:326,1,110,6|6,0:0|0:0,0:0:0:0:
76,321,71228,1,8,0:0:0:0:
7,234,71541,6,0,B|21:112,1,110,6|8,0:0|0:0,0:0:0:0:
105,55,72166,2,0,L|92:-8,2,55,6|2|8,0:0|0:0|0:0,0:0:0:0:
113,109,72634,2,0,P|166:123|220:107,1,110,6|2,0:0|0:0,0:0:0:0:
261,74,73103,2,0,P|303:74|391:85,1,110,8|0,0:0|0:0,0:0:0:0:
470,34,73728,1,8,0:0:0:0:
458,143,74041,6,0,L|465:275,1,110,6|8,0:0|0:0,0:0:0:0:
388,332,74666,2,0,L|409:394,2,55,6|2|8,0:0|0:0|0:0,0:0:0:0:
354,288,75134,2,0,P|307:270|248:270,1,110,6|2,0:0|0:0,0:0:0:0:
212,312,75603,2,0,P|167:308|96:260,1,110,8|6,0:0|0:0,0:0:0:0:
27,205,76228,1,10,0:0:0:0:
75,105,76541,1,10,0:2:0:0:
341,45,77791,6,0,L|464:37,2,110,2|12|2,0:2|0:2|0:2,0:0:0:0:
125,91,79041,5,12,0:2:0:0:
330,169,79666,2,0,L|446:160,1,110,2|8,0:0|0:0,0:0:0:0:
512,239,80291,1,2,0:0:0:0:
329,362,80916,2,0,L|212:335,1,110,2|8,0:0|0:0,0:0:0:0:
120,380,81541,5,2,0:0:0:0:
81,163,82166,2,0,P|109:122|104:50,1,110,2|8,0:0|0:0,0:0:0:0:
16,4,82791,1,2,0:0:0:0:
229,56,83416,2,0,L|356:35,1,110,2|8,0:0|0:0,0:0:0:0:
446,19,84041,6,0,P|443:80|401:120,1,110,10|8,0:2|0:0,0:0:0:0:
341,199,84666,1,2,0:0:0:0:
234,170,84978,1,8,0:0:0:0:
123,168,85291,6,0,P|127:211|188:263,1,110,2|8,0:0|0:0,0:0:0:0:
257,327,85916,1,2,0:0:0:0:
365,293,86228,1,8,0:0:0:0:
465,338,86541,6,0,B|488:292|488:292|459:227,1,110,2|8,0:0|0:0,0:0:0:0:
388,158,87166,1,2,0:0:0:0:
426,55,87478,1,8,0:0:0:0:
323,16,87791,6,0,L|213:12,1,110,8|4,3:0|3:1,0:0:0:0:
143,98,88416,1,8,3:0:0:0:
45,48,88728,1,8,3:1:0:0:
7,151,89041,5,10,0:2:0:0:
256,192,93884,12,2,98884,0:0:0:0:
256,192,103728,5,8,0:0:0:0:
318,282,104041,6,0,P|280:301|201:282,1,110,10|8,2:0|0:0,0:0:0:0:
104,296,104666,2,0,L|120:356,2,55,6|2|8,0:0|0:0|0:0,0:0:0:0:
62,260,105134,1,6,0:0:0:0:
24,156,105447,2,0,L|37:98,1,55,2|8,0:0|0:0,0:0:0:0:
61,53,105759,2,0,P|114:47|163:82,1,110,0|2,0:0|0:0,0:0:0:0:
199,115,106228,1,8,0:0:0:0:
279,40,106541,6,0,L|405:28,1,110,6|8,0:0|0:0,0:0:0:0:
495,57,107166,2,0,P|499:21|480:-16,2,55,6|2|8,0:0|0:0|0:0,0:0:0:0:
479,109,107634,2,0,P|434:114|384:163,1,110,6|2,0:0|0:0,0:0:0:0:
344,190,108103,2,0,L|226:164,1,110,8|0,0:0|0:0,0:0:0:0:
145,105,108728,1,8,0:0:0:0:
109,0,109041,6,0,P|56:30|44:94,1,110,6|8,0:0|0:0,0:0:0:0:
63,182,109666,2,0,L|123:197,2,55,6|2|8,0:0|0:0|0:0,0:0:0:0:
17,212,110134,2,0,B|3:262|3:262|31:336,1,110,6|2,0:0|0:0,0:0:0:0:
21,371,110603,1,8,0:0:0:0:
125,337,110916,1,6,0:0:0:0:
229,303,111228,1,10,0:0:0:0:
323,362,111541,6,0,P|376:353|403:290,1,110,12|8,2:0|0:0,0:0:0:0:
458,212,112166,2,0,L|528:194,2,55,6|2|8,0:0|0:0|0:0,0:0:0:0:
409,187,112634,2,0,L|288:190,1,110,6|2,0:0|0:0,0:0:0:0:
268,144,113103,2,0,L|157:154,1,110,8|0,0:0|0:0,0:0:0:0:
54,116,113728,1,8,0:0:0:0:
81,210,114041,6,0,P|130:247|182:245,1,110,6|8,0:0|0:0,0:0:0:0:
279,204,114666,2,0,L|259:61,1,110,6|8,0:0|0:0,0:0:0:0:
166,43,115291,2,0,L|158:175,1,110,6|8,0:0|0:0,0:0:0:0:
184,260,115916,2,0,P|240:258|291:184,1,110,6|8,0:0|0:0,0:0:0:0:
268,114,116541,6,0,L|396:138,1,110,6|8,0:0|0:0,0:0:0:0:
471,79,117166,2,0,L|493:-5,2,82.5,6|2|6,0:0|0:0|0:0,0:0:0:0:
465,189,117947,1,2,0:0:0:0:
467,243,118103,2,0,B|478:379,1,110,8|2,0:0|0:0,0:0:0:0:
369,382,118728,1,8,0:0:0:0:
294,301,119041,6,0,L|172:326,1,110,2|8,0:0|0:0,0:0:0:0:
77,310,119666,2,0,P|75:347|86:371,2,55,6|4|8,0:0|0:0|0:0,0:0:0:0:
101,260,120134,1,2,0:0:0:0:
47,163,120447,2,0,L|59:92,1,55,0|8,0:0|0:0,0:0:0:0:
93,68,120759,2,0,P|146:64|198:99,1,110,2|2,0:0|0:0,0:0:0:0:
228,135,121228,1,8,0:0:0:0:
296,221,121541,5,10,0:2:0:0:
481,109,122166,2,0,L|458:15,2,82.5,8|8|4,0:0|0:0|0:0,0:0:0:0:
256,192,122712,12,2,123988,0:0:0:0:
