osu file format v14

[General]
AudioFilename: audio.mp3
AudioLeadIn: 0
PreviewTime: 67551
Countdown: 0
SampleSet: Soft
StackLeniency: 0.7
Mode: 0
LetterboxInBreaks: 0
WidescreenStoryboard: 1

[Editor]
Bookmarks: 17193,68622
DistanceSpacing: 1
BeatDivisor: 4
GridSize: 32
TimelineZoom: 1.4

[Metadata]
Title:All Night (feat. Knox Fortune)
TitleUnicode:All Night (feat. Knox Fortune)
Artist:Chance The Rapper
ArtistUnicode:Chance The Rapper
Creator:AJT
Version:Normal
Source:
Tags:english jazz funk soul r&b hip hop coloring book
BeatmapID:3644745
BeatmapSetID:1761979

[Difficulty]
HPDrainRate:3
CircleSize:3.5
OverallDifficulty:4
ApproachRate:5.5
SliderMultiplier:1.9
SliderTickRate:1

[Events]
//Background and Video events
0,0,"bg.jpg",0,0
//Break Periods
2,51679,54565
2,103107,110279
//Storyboard Layer 0 (Background)
//Storyboard Layer 1 (Fail)
//Storyboard Layer 2 (Pass)
//Storyboard Layer 3 (Foreground)
//Storyboard Layer 4 (Overlay)
//Storyboard Sound Samples

[TimingPoints]
51,535.714285714286,4,2,1,60,1,0
17193,-90.9090909090909,4,2,1,80,0,1
34336,-100,4,2,1,60,0,0
42908,-100,4,2,1,60,0,0
51479,-100,4,2,1,60,0,0
68622,-90.9090909090909,4,2,1,80,0,1
85765,-100,4,2,1,60,0,0
89515,-100,4,2,1,60,0,0
120051,-90.9090909090909,4,2,1,100,0,1
137193,-100,4,2,1,5,0,0

[Colours]
Combo1 : 192,192,192
Combo2 : 255,57,156
Combo3 : 18,124,255
Combo4 : 0,0,255

[HitObjects]
512,0,17193,5,4,3:1:0:0:
414,36,17461,1,2,0:0:0:0:
367,129,17729,2,0,P|331:123|249:96,1,104.500003189087,8|2,0:0|0:0,0:0:0:0:
172,56,18265,2,0,P|180:24|177:-2,2,52.2500015945435,0|0|2,3:0|0:0|0:0,0:0:0:0:
69,80,18801,2,0,P|63:115|36:197,1,104.500003189087,8|0,0:0|0:0,0:0:0:0:
59,284,19336,6,0,P|27:275|1:279,2,52.2500015945435,0|0|0,3:0|0:0|0:0,0:0:0:0:
161,304,19872,1,8,0:0:0:0:
240,371,20140,1,0,0:0:0:0:
340,341,20408,2,0,P|371:333|398:336,2,52.2500015945435,0|0|2,3:0|0:0|0:0,0:0:0:0:
260,273,20943,2,0,L|271:163,2,104.500003189087,8|2|0,0:0|0:0|3:0,0:0:0:0:
191,352,21747,5,2,0:0:0:0:
144,259,22015,2,0,P|108:265|26:292,2,104.500003189087,8|0|0,0:0|0:0|3:0,0:0:0:0:
94,167,22818,1,0,0:0:0:0:
167,92,23086,2,0,P|203:98|285:125,2,104.500003189087,8|2|0,0:0|0:0|3:0,0:0:0:0:
94,167,23890,1,2,0:0:0:0:
143,259,24158,2,0,P|92:268|43:284,2,104.500003189087,8|0|0,0:0|0:0|3:0,0:0:0:0:
205,342,24961,1,2,0:0:0:0:
309,344,25229,1,10,0:0:0:0:
375,263,25497,1,2,0:0:0:0:
240,53,26032,5,2,0:0:0:0:
332,4,26300,2,0,P|368:10|450:37,1,104.500003189087,8|2,0:0|0:0,0:0:0:0:
483,121,26835,2,0,P|491:153|488:179,2,52.2500015945435,0|2|2,3:0|0:0|0:0,0:0:0:0:
406,192,27371,2,0,P|400:227|373:309,1,104.500003189087,8|2,0:0|0:0,0:0:0:0:
289,346,27907,6,0,P|255:349|233:362,2,52.2500015945435,0|2|2,3:0|0:0|0:0,0:0:0:0:
283,241,28442,1,8,0:0:0:0:
208,167,28710,1,2,0:0:0:0:
265,80,28978,2,0,P|296:72|323:75,2,52.2500015945435,0|2|2,3:0|0:0|0:0,0:0:0:0:
175,23,29515,1,8,0:0:0:0:
76,56,29783,6,0,B|21:132|94:187|33:258,1,209.000006378174,2|2,0:0|0:0,0:0:0:0:
115,323,30586,2,0,P|163:327|213:354,1,104.500003189087,8|2,0:0|0:0,0:0:0:0:
313,325,31122,2,0,P|317:277|344:227,2,104.500003189087,0|2|8,3:0|0:0|0:0,0:0:0:0:
415,301,31926,1,2,0:0:0:0:
428,197,32193,6,0,B|379:116|299:162|257:78,1,209.000006378174,0|8,3:0|0:0,0:0:0:0:
184,10,32997,1,2,0:0:0:0:
96,66,33265,2,0,P|48:62|-2:35,2,104.500003189087,0|2|8,3:0|0:0|0:0,0:0:0:0:
167,142,34068,2,0,P|159:176|144:203,1,52.2500015945435,2|2,0:0|0:0,0:0:0:0:
221,316,34604,5,2,0:3:0:0:
311,288,34871,1,8,0:0:0:0:
385,347,35140,1,2,0:0:0:0:
442,270,35408,2,0,P|461:226|470:180,1,95,0|2,3:0|0:3,0:0:0:0:
388,145,35943,1,8,0:0:0:0:
388,145,36211,1,2,0:0:0:0:
408,52,36479,6,0,P|451:32|497:23,2,95,0|2|8,3:0|0:3|0:0,0:0:0:0:
319,15,37283,1,2,0:0:0:0:
231,52,37551,2,0,P|219:101|212:146,1,95,0|2,3:0|0:3,0:0:0:0:
275,215,38086,2,0,P|287:264|294:309,1,95,8|2,0:0|0:0,0:0:0:0:
223,372,38622,1,0,3:0:0:0:
54,295,39158,5,8,0:0:0:0:
54,295,39426,1,2,0:0:0:0:
110,218,39693,2,0,P|122:169|129:124,1,95,0|2,3:0|0:3,0:0:0:0:
98,34,40229,2,0,P|147:22|192:15,1,95,8|2,0:0|0:0,0:0:0:0:
272,64,40765,1,0,3:0:0:0:
359,28,41032,2,0,P|408:16|453:9,2,95,2|8|2,0:3|0:0|0:0,0:0:0:0:
347,122,41836,2,0,P|359:171|366:216,1,95,0|2,3:0|0:3,0:0:0:0:
406,301,42372,1,8,0:0:0:0:
490,257,42640,1,2,0:0:0:0:
344,379,43176,5,2,0:3:0:0:
274,314,43443,2,0,P|228:285|177:270,1,95,8|2,0:0|0:0,0:0:0:0:
99,305,43979,2,0,P|70:259|95:239,1,95,0|2,3:0|0:3,0:0:0:0:
163,174,44515,1,8,0:0:0:0:
163,174,44783,1,2,0:0:0:0:
137,82,45051,2,0,B|101:45|84:71|40:38,2,95,0|2|8,3:0|0:3|0:0,0:0:0:0:
215,29,45853,1,2,0:0:0:0:
296,78,46122,2,0,B|332:41|349:67|393:34,2,95,0|2|8,3:0|0:3|0:0,0:0:0:0:
215,29,46926,1,2,0:0:0:0:
251,215,47461,6,0,P|280:261|295:312,1,95,2|8,0:3|0:0,0:0:0:0:
358,368,47997,1,2,0:0:0:0:
420,296,48265,2,0,P|466:267|517:252,2,95,0|2|8,3:0|0:3|0:0,0:0:0:0:
358,368,49068,1,2,0:0:0:0:
292,299,49336,2,0,P|276:254|251:215,1,95,0|2,3:0|0:3,0:0:0:0:
163,192,49872,1,8,0:0:0:0:
203,105,50140,1,2,0:0:0:0:
154,22,50408,2,0,P|109:37|69:63,1,95,0|2,3:0|0:3,0:0:0:0:
45,155,50943,2,0,L|-23:138,2,47.5,10|2|2,0:0|0:0|0:0,0:0:0:0:
83,242,51479,5,2,3:2:0:0:
256,192,55765,5,2,3:2:0:0:
256,192,55899,12,0,60051,3:0:0:0:
37,363,60586,5,2,3:2:0:0:
194,256,61122,2,0,B|265:248|282:342|386:332,1,190,2|0,3:2|3:0,0:0:0:0:
479,182,62193,1,0,0:0:0:0:
416,110,62461,2,0,P|433:73|453:13,1,95,2|2,0:0|3:2,0:0:0:0:
285,113,63265,1,2,3:2:0:0:
236,194,63533,1,2,0:0:0:0:
151,150,63801,2,0,B|80:160|88:255|-14:273,1,190,2|2,3:2|3:2,0:0:0:0:
38,357,64604,5,2,0:2:0:0:
132,360,64872,2,0,P|175:333|175:263,1,95,2|2,3:2|0:0,0:0:0:0:
262,235,65408,2,0,P|305:262|305:332,1,95,2|2,3:2|0:0,0:0:0:0:
392,357,65943,2,0,P|419:314|489:314,1,95,2|2,3:2|0:0,0:0:0:0:
490,213,66479,2,0,P|447:186|447:116,1,95,2|2,3:2|0:0,0:0:0:0:
487,64,67015,1,2,3:2:0:0:
256,192,67149,12,4,68622,3:1:0:0:
500,381,69158,6,0,P|464:375|382:348,1,104.500003189087,8|2,0:0|0:0,0:0:0:0:
364,255,69694,2,0,P|372:223|369:197,2,52.2500015945435,0|0|2,3:0|0:0|0:3,0:0:0:0:
280,317,70230,2,0,P|245:323|163:350,1,104.500003189087,8|0,0:0|0:0,0:0:0:0:
74,334,70765,2,0,P|65:366|69:392,2,52.2500015945435,0|0|2,3:0|0:0|0:3,0:0:0:0:
128,244,71301,1,8,0:0:0:0:
90,146,71569,1,0,0:0:0:0:
50,49,71837,2,0,P|19:41|-8:44,2,52.2500015945435,0|2|2,3:0|0:0|0:3,0:0:0:0:
150,21,72372,2,0,B|230:0|246:94|368:58,1,209.000006378174,8|0,0:0|3:0,0:0:0:0:
437,6,73176,5,2,0:3:0:0:
479,101,73444,1,8,0:0:0:0:
440,197,73711,1,0,0:0:0:0:
461,299,73979,2,0,P|496:296|533:280,2,52.2500015945435,0|0|2,3:0|0:0|0:3,0:0:0:0:
374,358,74515,2,0,P|338:364|256:391,2,104.500003189087,8|2|0,0:0|0:0|3:0,0:0:0:0:
362,253,75319,5,2,0:3:0:0:
296,171,75587,2,0,P|245:180|196:196,2,104.500003189087,8|0|0,0:0|0:0|3:0,0:0:0:0:
318,68,76390,1,2,0:3:0:0:
214,50,76658,1,8,0:0:0:0:
111,28,76926,1,2,0:0:0:0:
0,205,77461,5,2,0:3:0:0:
101,228,77729,2,0,P|137:234|219:261,1,104.500003189087,8|2,0:0|0:0,0:0:0:0:
190,357,78264,2,0,P|155:368|129:371,2,52.2500015945435,0|2|2,3:0|0:0|0:3,0:0:0:0:
285,314,78800,2,0,P|320:320|402:347,1,104.500003189087,8|2,0:0|0:0,0:0:0:0:
490,334,79336,6,0,P|487:368|474:390,2,52.2500015945435,0|2|2,3:0|0:0|0:3,0:0:0:0:
426,250,79871,1,8,0:0:0:0:
372,160,80139,1,2,0:0:0:0:
439,79,80407,2,0,P|470:71|497:74,2,52.2500015945435,0|2|2,3:0|0:0|0:3,0:0:0:0:
346,28,80944,1,8,0:0:0:0:
276,106,81212,6,0,B|200:51|145:124|74:63,1,209.000006378174,2|2,0:0|0:3,0:0:0:0:
39,163,82015,2,0,P|87:167|137:194,1,104.500003189087,8|2,0:0|0:0,0:0:0:0:
181,287,82551,2,0,P|177:335|150:385,2,104.500003189087,0|2|8,3:0|0:3|0:0,0:0:0:0:
285,291,83355,1,2,0:0:0:0:
359,364,83622,6,0,B|331:285|325:158,1,209.000006378174,0|8,3:0|0:0,0:0:0:0:
393,77,84426,1,2,0:0:0:0:
303,23,84694,2,0,P|255:19|192:15,1,104.500003189087,0|2,3:0|0:3,0:0:0:0:
106,65,85229,1,8,0:0:0:0:
161,153,85497,2,0,P|153:187|138:214,1,52.2500015945435,2|2,0:0|0:0,0:0:0:0:
74,326,86033,5,2,0:3:0:0:
162,359,86300,1,8,0:0:0:0:
255,340,86569,1,2,0:0:0:0:
329,281,86837,2,0,P|376:283|425:303,1,95,0|2,3:0|0:3,0:0:0:0:
486,368,87372,1,8,0:0:0:0:
494,178,87908,6,0,P|474:135|465:89,1,95,0|2,3:0|0:3,0:0:0:0:
382,40,88443,1,8,0:0:0:0:
382,40,88712,1,2,0:0:0:0:
306,98,88980,2,0,P|294:147|287:192,1,95,0|2,3:0|0:3,0:0:0:0:
334,273,89515,2,0,P|383:261|428:254,2,95,8|2|0,0:0|0:0|3:0,0:0:0:0:
276,348,90318,5,2,0:3:0:0:
184,321,90586,1,8,0:0:0:0:
179,225,90855,1,2,0:0:0:0:
258,173,91122,2,0,P|270:124|277:79,1,95,0|2,3:0|0:3,0:0:0:0:
201,22,91658,2,0,P|154:29|108:40,1,95,8|2,0:0|0:0,0:0:0:0:
46,113,92194,5,0,3:0:0:0:
68,205,92461,2,0,P|56:254|49:299,2,95,2|8|2,0:3|0:0|0:0,0:0:0:0:
155,167,93265,2,0,P|204:155|249:148,1,95,0|2,3:0|0:3,0:0:0:0:
278,57,93801,1,8,0:0:0:0:
371,75,94069,1,2,0:0:0:0:
451,343,94872,5,8,0:0:0:0:
358,365,95139,1,2,0:0:0:0:
285,302,95408,2,0,P|239:273|123:362,1,190,0|8,3:0|0:0,0:0:0:0:
36,162,96480,2,0,P|49:111|80:65,1,95,0|2,3:0|0:3,0:0:0:0:
143,13,97015,2,0,P|211:24|322:85,1,190,8|0,0:0|3:0,0:0:0:0:
408,121,97818,1,2,0:3:0:0:
486,68,98086,1,8,0:0:0:0:
251,366,99157,5,8,0:0:0:0:
237,271,99426,1,2,0:0:0:0:
219,177,99694,2,0,P|203:128|181:77,1,95,0|2,3:0|0:3,0:0:0:0:
107,35,100229,2,0,P|58:51|7:73,1,95,8|2,0:0|0:0,0:0:0:0:
2,161,100765,5,0,3:0:0:0:
19,254,101034,1,2,0:3:0:0:
111,275,101301,1,8,0:0:0:0:
159,356,101569,1,2,0:0:0:0:
247,322,101836,2,0,P|275:319|314:328,2,47.5,0|0|2,3:0|0:0|0:3,0:0:0:0:
196,240,102372,2,0,P|206:195|239:32,1,190,8|0,0:0|3:0,0:0:0:0:
2,380,111479,6,0,B|83:390|100:296|171:304,1,190,2|2,0:0|0:0,0:0:0:0:
72,198,112417,2,0,P|80:159|101:86,2,95,2|2|2,0:0|0:0|0:0,0:0:0:0:
218,190,113354,1,2,0:0:0:0:
218,190,113622,5,2,0:0:0:0:
306,21,114158,2,0,P|345:29|461:63,1,142.5,2|2,3:0|0:0,0:0:0:0:
440,151,114827,1,2,0:0:0:0:
441,246,115095,1,2,0:0:0:0:
367,370,115497,2,0,P|309:355|256:355,1,95,2|2,0:0|0:0,0:0:0:0:
111,255,116301,5,2,3:0:0:0:
109,112,116702,1,2,0:0:0:0:
170,39,116970,1,2,0:0:0:0:
259,71,117238,1,2,0:0:0:0:
342,25,117506,2,0,L|388:35,1,47.5,2|2,0:0|0:0,0:0:0:0:
451,106,117908,1,2,0:0:0:0:
395,287,118444,1,2,3:0:0:0:
256,192,118578,12,6,120051,3:1:0:0:
12,381,120586,6,0,P|48:375|130:348,1,104.500003189087,10|2,0:1|0:0,0:0:0:0:
148,255,121122,2,0,P|140:223|143:197,2,52.2500015945435,0|0|2,3:0|0:0|0:1,0:0:0:0:
252,255,121658,2,0,P|287:261|369:288,1,104.500003189087,8|0,0:1|0:0,0:0:0:0:
380,381,122193,2,0,P|386:346|434:161,1,209.000006378174,2|8,3:1|0:1,0:0:0:0:
345,113,122997,1,2,0:0:0:0:
371,11,123265,2,0,P|402:3|429:6,2,52.2500015945435,0|2|2,3:0|0:0|0:1,0:0:0:0:
267,28,123800,1,8,0:1:0:0:
164,44,124067,1,2,0:0:0:0:
60,60,124335,5,6,3:1:0:0:
67,164,124604,2,0,P|102:176|175:213,1,104.500003189087,2|8,0:3|0:1,0:0:0:0:
240,275,125139,1,2,0:0:0:0:
195,369,125407,2,0,P|160:366|123:350,2,52.2500015945435,0|0|2,3:0|0:0|0:1,0:0:0:0:
299,358,125943,2,0,P|335:364|417:391,2,104.500003189087,8|2|2,0:1|0:0|3:1,0:0:0:0:
240,275,126747,5,2,0:3:0:0:
317,204,127015,2,0,P|368:213|417:229,2,104.500003189087,8|0|0,0:1|0:0|3:0,0:0:0:0:
255,119,127818,1,2,0:1:0:0:
357,88,128086,1,8,0:1:0:0:
357,88,128354,1,2,0:0:0:0:
281,15,128622,5,6,3:1:0:0:
181,46,128890,1,2,0:1:0:0:
82,80,129157,2,0,P|88:116|115:198,1,104.500003189087,10|2,0:1|0:0,0:0:0:0:
49,267,129692,2,0,P|14:278|-12:281,2,52.2500015945435,0|2|2,3:0|0:0|0:1,0:0:0:0:
121,342,130228,2,0,P|143:314|208:257,1,104.500003189087,8|2,0:1|0:0,0:0:0:0:
239,362,130764,6,0,P|236:328|265:134,1,209.000006378174,6|8,3:1|0:1,0:0:0:0:
345,99,131567,1,2,0:0:0:0:
413,178,131835,2,0,P|444:186|471:183,2,52.2500015945435,0|2|2,3:0|0:0|0:1,0:0:0:0:
345,99,132372,1,8,0:1:0:0:
273,22,132640,6,0,B|179:10|167:101|75:82,1,209.000006378174,2|2,0:0|0:3,0:0:0:0:
20,168,133443,2,0,P|24:216|51:266,1,104.500003189087,8|2,0:1|0:0,0:0:0:0:
138,322,133979,2,0,P|186:318|236:291,2,104.500003189087,0|2|8,3:0|0:1|0:1,0:0:0:0:
140,217,134783,1,2,0:0:0:0:
201,132,135050,6,0,P|270:146|329:22,1,209.000006378174,6|8,3:1|0:1,0:0:0:0:
439,22,135854,2,0,P|449:45|454:71,1,52.2500015945435,2|2,0:1|0:1,0:0:0:0:
483,226,136390,1,2,0:1:0:0:
421,309,136657,1,10,0:1:0:0:
319,285,136925,2,0,P|285:293|258:308,1,52.2500015945435,2|2,0:0|0:0,0:0:0:0:
