osu file format v14

[General]
AudioFilename: audio.mp3
AudioLeadIn: 0
PreviewTime: 67551
Countdown: 0
SampleSet: Soft
StackLeniency: 0.7
Mode: 0
LetterboxInBreaks: 0
WidescreenStoryboard: 1

[Editor]
Bookmarks: 17193,68622
DistanceSpacing: 1.6
BeatDivisor: 4
GridSize: 32
TimelineZoom: 1.4

[Metadata]
Title:All Night (feat. Knox Fortune)
TitleUnicode:All Night (feat. Knox Fortune)
Artist:Chance The Rapper
ArtistUnicode:Chance The Rapper
Creator:AJT
Version:Hard
Source:
Tags:english jazz funk soul r&b hip hop coloring book
BeatmapID:3643082
BeatmapSetID:1761979

[Difficulty]
HPDrainRate:4
CircleSize:4
OverallDifficulty:6
ApproachRate:8
SliderMultiplier:2.1
SliderTickRate:1

[Events]
//Background and Video events
0,0,"bg.jpg",0,0
//Break Periods
2,103107,110729
//Storyboard Layer 0 (Background)
//Storyboard Layer 1 (Fail)
//Storyboard Layer 2 (Pass)
//Storyboard Layer 3 (Foreground)
//Storyboard Layer 4 (Overlay)
//Storyboard Sound Samples

[TimingPoints]
51,535.714285714286,4,2,1,60,1,0
17193,-100,4,2,1,80,0,1
34336,-133.333333333333,4,2,1,60,0,0
42908,-117.647058823529,4,2,1,60,0,0
51479,-100,4,2,1,60,0,0
68622,-90.9090909090909,4,2,1,80,0,1
85765,-133.333333333333,4,2,1,60,0,0
89515,-117.647058823529,4,2,1,60,0,0
120051,-83.3333333333333,4,2,1,100,0,1
137193,-83.3333333333333,4,2,1,5,0,0

[Colours]
Combo1 : 192,192,192
Combo2 : 255,57,156
Combo3 : 18,124,255
Combo4 : 0,0,255

[HitObjects]
171,28,17193,5,4,3:1:0:0:
66,20,17461,1,2,0:0:0:0:
28,118,17729,1,8,0:0:0:0:
77,216,17997,5,2,0:0:0:0:
77,216,18131,2,0,P|69:242|53:265,2,52.5,0|0|0,0:0|3:0|0:0,0:0:0:0:
128,203,18533,1,2,0:0:0:0:
165,301,18801,2,0,B|214:293|220:333|266:319,1,105,8|0,0:0|0:0,0:0:0:0:
316,333,19202,1,0,0:0:0:0:
354,297,19336,6,0,P|360:269|346:238,2,52.5,0|0|0,3:0|0:0|0:0,0:0:0:0:
423,376,19872,2,0,P|459:376|474:371,1,52.5,8|0,0:0|0:0,0:0:0:0:
500,324,20140,1,0,0:0:0:0:
490,272,20274,1,0,0:0:0:0:
451,244,20408,5,0,3:0:0:0:
465,222,20542,1,0,0:0:0:0:
478,199,20676,2,0,L|490:76,1,105,2|8,0:0|0:0,0:0:0:0:
389,59,21211,1,2,0:0:0:0:
289,26,21479,1,0,3:0:0:0:
215,135,21747,6,0,P|215:171|222:187,1,52.5,2|0,0:0|0:0,0:0:0:0:
195,232,22015,2,0,B|144:239|138:199|92:213,1,105,8|0,0:0|0:0,0:0:0:0:
58,251,22416,1,0,0:0:0:0:
58,251,22551,6,0,P|58:287|48:308,2,52.5,0|0|0,3:0|0:0|0:0,0:0:0:0:
11,156,23087,2,0,P|11:120|21:101,1,52.5,8|0,0:0|0:0,0:0:0:0:
57,71,23354,1,2,0:0:0:0:
57,71,23488,1,2,0:0:0:0:
57,71,23622,6,0,P|93:71|113:82,1,52.5,0|0,3:0|0:0,0:0:0:0:
129,126,23890,1,2,0:0:0:0:
251,43,24158,2,0,B|297:59|283:97|330:107,1,105,8|0,0:0|0:0,0:0:0:0:
361,134,24559,1,0,0:0:0:0:
407,158,24693,6,0,L|398:223,1,52.5,0|0,3:0|0:0,0:0:0:0:
423,257,24961,2,0,L|414:322,1,52.5,2|0,0:0|0:0,0:0:0:0:
463,332,25229,1,10,0:0:0:0:
334,352,25497,2,0,L|270:360,1,52.5,2|0,0:0|0:0,0:0:0:0:
229,367,25765,1,0,3:0:0:0:
156,290,26033,5,2,0:0:0:0:
192,191,26301,1,8,0:0:0:0:
144,97,26568,1,2,0:0:0:0:
114,94,26701,1,2,0:0:0:0:
84,100,26835,1,0,3:0:0:0:
58,113,26969,1,2,0:0:0:0:
19,149,27104,6,0,P|19:185|26:205,1,52.5,2|0,0:0|0:0,0:0:0:0:
63,235,27372,1,8,0:0:0:0:
40,337,27640,1,2,0:0:0:0:
70,340,27773,1,2,0:0:0:0:
100,334,27907,1,0,3:0:0:0:
126,321,28041,1,2,0:0:0:0:
174,299,28176,6,0,P|205:301|228:311,1,52.5,2|0,0:0|0:0,0:0:0:0:
255,351,28443,1,8,0:0:0:0:
348,302,28711,1,2,0:0:0:0:
351,272,28844,1,2,0:0:0:0:
345,242,28978,1,0,3:0:0:0:
332,216,29112,1,2,0:0:0:0:
352,167,29247,2,0,P|381:169|406:176,2,52.5,2|0|8,0:0|0:0|0:0,0:0:0:0:
286,44,29783,6,0,B|206:32|197:95|123:73,1,157.5,2|0,0:0|0:0,0:0:0:0:
97,40,30318,1,2,0:0:0:0:
0,159,30586,2,0,P|0:195|10:219,1,52.5,8|0,0:0|0:0,0:0:0:0:
45,244,30854,2,0,P|45:280|35:304,1,52.5,2|0,0:0|0:0,0:0:0:0:
7,337,31122,6,0,L|66:350,1,52.5,0|0,3:0|0:0,0:0:0:0:
103,375,31390,2,0,L|162:362,1,52.5,2|0,0:0|0:0,0:0:0:0:
193,328,31658,2,0,L|252:341,1,52.5,8|0,0:0|0:0,0:0:0:0:
334,367,31926,6,0,B|345:287|282:278|304:204,1,157.5,2|0,0:0|0:0,0:0:0:0:
261,183,32461,1,0,0:0:0:0:
380,141,32729,2,0,P|416:141|440:131,1,52.5,8|0,0:0|0:0,0:0:0:0:
477,111,32997,2,0,P|477:75|467:51,1,52.5,2|0,0:0|0:0,0:0:0:0:
435,20,33265,2,0,P|399:20|375:30,1,52.5,0|0,3:0|0:0,0:0:0:0:
338,50,33533,2,0,P|338:86|348:110,1,52.5,2|0,0:0|0:0,0:0:0:0:
309,141,33801,2,0,L|250:128,1,52.5,8|0,0:0|0:0,0:0:0:0:
215,161,34068,5,2,0:0:0:0:
170,131,34203,1,2,0:0:0:0:
37,248,34604,6,0,P|30:234|20:201,2,39.3750015020371,2|0|8,0:3|0:0|0:0,0:0:0:0:
76,265,35006,1,2,0:0:0:0:
76,265,35140,1,2,0:0:0:0:
17,367,35408,1,0,3:0:0:0:
172,370,35676,6,0,P|186:377|219:387,2,39.3750015020371,2|0|8,0:3|0:0|0:0,0:0:0:0:
155,331,36078,1,2,0:0:0:0:
155,331,36212,1,2,0:0:0:0:
233,243,36479,5,0,3:0:0:0:
207,127,36747,2,0,P|189:122|167:121,1,39.3750015020371,2|0,0:3|0:0,0:0:0:0:
114,146,37015,1,8,0:0:0:0:
114,146,37148,1,2,0:0:0:0:
61,118,37283,2,0,P|44:98|66:28,1,78.7500030040742,2|0,0:0|3:0,0:0:0:0:
158,11,37818,1,2,0:3:0:0:
269,49,38086,2,0,L|317:46,1,39.3750015020371,8|2,0:0|0:0,0:0:0:0:
340,96,38354,2,0,L|337:144,1,39.3750015020371,2|2,0:0|0:0,0:0:0:0:
293,175,38622,1,0,3:0:0:0:
353,276,38890,6,0,L|404:287,1,39.3750015020371,2|0,0:3|0:0,0:0:0:0:
453,259,39158,1,8,0:0:0:0:
453,259,39292,1,2,0:0:0:0:
453,259,39426,1,2,0:0:0:0:
463,369,39693,1,0,3:0:0:0:
287,338,39961,6,0,L|236:327,1,39.3750015020371,2|0,0:3|0:0,0:0:0:0:
194,354,40229,1,8,0:0:0:0:
194,354,40363,1,2,0:0:0:0:
194,354,40497,1,2,0:0:0:0:
105,277,40765,6,0,B|111:239|81:235|91:200,1,78.7500030040742,0|2,3:0|0:3,0:0:0:0:
139,165,41167,1,0,0:0:0:0:
139,165,41301,2,0,P|163:165|179:174,1,39.3750015020371,8|2,0:0|0:0,0:0:0:0:
205,120,41569,2,0,P|193:100|197:78,1,39.3750015020371,2|2,0:0|0:0,0:0:0:0:
158,37,41836,1,0,3:0:0:0:
274,21,42103,1,2,0:3:0:0:
391,5,42372,2,0,L|432:23,2,39.3750015020371,8|2|2,0:0|0:0|0:0,0:0:0:0:
489,96,42908,5,0,3:0:0:0:
431,216,43176,1,2,0:3:0:0:
321,139,43443,1,8,0:0:0:0:
273,185,43577,1,2,0:0:0:0:
273,185,43711,2,0,P|246:184|222:191,2,44.6250008511543,2|2|0,0:0|0:0|3:0,0:0:0:0:
338,302,44247,5,2,0:3:0:0:
228,379,44514,1,8,0:0:0:0:
180,333,44648,1,2,0:0:0:0:
180,333,44782,2,0,P|153:334|129:327,2,44.6250008511543,2|2|0,0:0|0:0|3:0,0:0:0:0:
248,216,45319,5,2,0:3:0:0:
138,139,45586,1,8,0:0:0:0:
90,185,45720,1,2,0:0:0:0:
90,185,45854,2,0,P|63:184|39:191,2,44.6250008511543,2|2|0,0:0|0:0|3:0,0:0:0:0:
107,51,46390,1,2,0:3:0:0:
228,107,46658,1,8,0:0:0:0:
346,44,46926,2,0,L|329:141,1,89.2500017023087,2|0,0:0|3:0,0:0:0:0:
243,233,47461,6,0,B|206:221|200:258|153:251,1,89.2500017023087,2|8,0:3|0:0,0:0:0:0:
122,232,47863,1,2,0:0:0:0:
109,258,47997,1,2,0:0:0:0:
103,288,48131,1,2,0:0:0:0:
88,329,48265,6,0,B|51:340|46:304|1:311,2,89.2500017023087,0|2|8,3:0|0:3|0:0,0:0:0:0:
118,373,48934,1,2,0:0:0:0:
147,372,49068,1,2,0:0:0:0:
176,364,49202,1,2,0:0:0:0:
221,384,49337,5,0,3:0:0:0:
290,269,49604,1,2,0:3:0:0:
379,338,49872,1,8,0:0:0:0:
394,315,50005,1,2,0:0:0:0:
403,289,50139,1,2,0:0:0:0:
403,261,50273,1,2,0:0:0:0:
397,234,50407,5,0,3:0:0:0:
472,123,50675,1,2,0:3:0:0:
338,108,50943,2,0,L|324:54,1,44.6250008511543,10|2,0:0|0:0,0:0:0:0:
272,24,51211,2,0,L|220:8,1,44.6250008511543,2|2,0:0|0:0,0:0:0:0:
160,51,51479,6,0,B|81:55|106:167|19:201,2,210,2|2|2,3:2|3:2|3:2,0:0:0:0:
209,111,52684,1,2,0:0:0:0:
230,245,52952,1,2,0:0:0:0:
105,296,53220,1,0,0:0:0:0:
105,296,53354,1,2,0:0:0:0:
245,272,53622,5,2,3:2:0:0:
245,272,53755,1,2,0:2:0:0:
245,272,53890,1,2,0:2:0:0:
364,337,54158,1,2,3:2:0:0:
451,232,54426,1,2,0:0:0:0:
451,232,54559,6,0,P|442:198|379:139,2,105,2|2|2,0:0|3:2|3:2,0:0:0:0:
364,337,55363,1,0,0:0:0:0:
364,337,55497,1,2,0:0:0:0:
245,272,55765,5,2,3:2:0:0:
425,67,56301,1,2,3:2:0:0:
425,67,56434,1,2,0:2:0:0:
226,14,56836,2,0,L|168:18,2,52.5,2|2|2,3:2|0:2|0:2,0:0:0:0:
264,145,57372,1,0,0:0:0:0:
264,145,57506,2,0,L|256:200,1,52.5,0|2,0:0|0:0,0:0:0:0:
237,335,57908,1,2,3:2:0:0:
237,335,58042,1,2,0:2:0:0:
33,354,58443,5,2,3:2:0:0:
28,298,58577,1,2,0:0:0:0:
25,242,58711,1,2,0:0:0:0:
64,128,58979,1,2,3:2:0:0:
256,192,59113,12,0,60051,3:0:0:0:
442,384,60586,5,2,3:2:0:0:
267,287,60988,1,0,0:0:0:0:
267,287,61122,2,0,L|211:301,2,52.5,2|2|2,3:2|0:2|0:0,0:0:0:0:
397,246,61658,1,0,3:0:0:0:
397,246,62461,1,2,0:0:0:0:
488,145,62729,1,2,3:2:0:0:
235,40,63266,5,2,3:2:0:0:
260,24,63400,1,0,0:0:0:0:
289,16,63534,1,2,0:0:0:0:
318,16,63668,1,0,0:0:0:0:
330,22,63801,6,0,P|351:90|464:101,1,157.5,2|0,3:2|0:0,0:0:0:0:
465,141,64336,2,0,L|452:209,1,52.5,2|0,3:2|0:0,0:0:0:0:
441,240,64604,1,2,0:2:0:0:
310,281,64872,2,0,L|323:349,1,52.5,2|0,3:2|0:0,0:0:0:0:
334,380,65140,1,2,0:0:0:0:
209,324,65408,6,0,L|141:337,1,52.5,2|0,3:2|0:0,0:0:0:0:
110,348,65676,1,2,0:0:0:0:
13,252,65943,2,0,L|26:184,1,52.5,2|0,3:2|0:0,0:0:0:0:
37,153,66211,1,2,0:0:0:0:
172,167,66479,6,0,L|240:154,1,52.5,2|0,3:2|0:0,0:0:0:0:
271,143,66747,1,2,0:0:0:0:
290,7,67015,1,2,3:2:0:0:
256,192,67283,12,4,68622,3:1:0:0:
446,20,68890,5,2,0:3:0:0:
336,58,69158,1,8,0:0:0:0:
227,88,69426,1,2,0:0:0:0:
227,88,69560,2,0,P|219:62|198:32,2,57.7500017623902,2|0|0,0:0|3:0|0:0,0:0:0:0:
194,135,69962,1,2,0:3:0:0:
79,118,70230,2,0,B|69:174|115:181|99:234,1,115.50000352478,8|0,0:0|0:0,0:0:0:0:
51,257,70631,1,0,0:0:0:0:
68,312,70765,6,0,P|98:314|127:320,1,57.7500017623902,0|0,3:0|0:0,0:0:0:0:
169,356,71032,1,2,0:3:0:0:
234,260,71301,2,0,P|267:257|292:265,1,57.7500017623902,8|0,0:0|0:0,0:0:0:0:
310,323,71569,1,0,0:0:0:0:
310,323,71703,1,2,0:0:0:0:
359,352,71837,5,0,3:0:0:0:
412,329,71971,1,2,0:0:0:0:
415,271,72105,2,0,L|424:148,1,115.50000352478,2|8,0:3|0:0,0:0:0:0:
497,67,72640,1,2,0:0:0:0:
396,9,72908,1,0,3:0:0:0:
311,87,73176,6,0,P|275:87|253:77,1,57.7500017623902,2|0,0:3|0:0,0:0:0:0:
212,39,73444,2,0,B|161:32|155:72|98:56,1,115.50000352478,8|0,0:0|0:0,0:0:0:0:
50,80,73845,1,0,0:0:0:0:
50,80,73980,6,0,P|24:54|15:35,2,57.7500017623902,0|0|2,3:0|0:0|0:3,0:0:0:0:
28,193,74516,1,8,0:0:0:0:
9,312,74783,1,2,0:0:0:0:
9,312,74917,1,0,0:0:0:0:
9,312,75051,6,0,P|45:312|65:323,1,57.7500017623902,0|2,3:0|0:0,0:0:0:0:
117,343,75319,1,2,0:3:0:0:
229,318,75587,1,8,0:0:0:0:
334,375,75854,1,0,0:0:0:0:
334,375,75988,1,2,0:0:0:0:
380,351,76122,6,0,L|373:290,1,57.7500017623902,0|2,3:0|0:0,0:0:0:0:
357,237,76390,2,0,L|296:230,1,57.7500017623902,2|0,0:3|0:0,0:0:0:0:
255,192,76658,1,8,0:0:0:0:
355,135,76926,2,0,L|361:69,1,57.7500017623902,2|0,0:0|0:0,0:0:0:0:
338,25,77194,1,0,3:0:0:0:
233,73,77462,5,2,0:3:0:0:
128,23,77730,1,8,0:0:0:0:
46,95,77997,1,2,0:0:0:0:
48,119,78130,1,2,0:0:0:0:
43,143,78264,1,0,3:0:0:0:
33,163,78398,1,2,0:0:0:0:
24,184,78533,5,2,0:3:0:0:
93,276,78801,1,8,0:0:0:0:
177,211,79068,1,2,0:0:0:0:
174,187,79201,1,2,0:0:0:0:
179,163,79335,1,0,3:0:0:0:
189,142,79469,1,2,0:0:0:0:
205,126,79604,5,2,0:3:0:0:
128,23,79872,1,8,0:0:0:0:
46,95,80140,1,2,0:0:0:0:
48,119,80274,1,2,0:0:0:0:
43,143,80408,1,0,3:0:0:0:
33,163,80542,1,2,0:0:0:0:
24,184,80675,5,2,0:3:0:0:
94,275,80943,1,8,0:0:0:0:
3,347,81212,2,0,B|83:359|92:296|171:315,1,173.250005287171,2|0,0:0|0:0,0:0:0:0:
214,349,81747,1,2,0:3:0:0:
325,378,82015,2,0,P|325:342|316:318,1,57.7500017623902,8|0,0:0|0:0,0:0:0:0:
351,274,82283,2,0,P|387:274|409:280,1,57.7500017623902,2|0,0:0|0:0,0:0:0:0:
449,238,82551,6,0,L|438:181,1,57.7500017623902,0|0,3:0|0:0,0:0:0:0:
476,137,82819,1,2,0:3:0:0:
429,31,83087,2,0,L|372:22,1,57.7500017623902,8|0,0:0|0:0,0:0:0:0:
312,87,83355,6,0,B|232:98|223:35|146:57,1,173.250005287171,2|2,0:0|0:0,0:0:0:0:
91,39,83890,1,2,0:3:0:0:
104,153,84158,1,8,0:0:0:0:
124,266,84426,1,2,0:0:0:0:
148,378,84694,2,0,P|184:378|212:366,1,57.7500017623902,0|2,3:0|0:0,0:0:0:0:
246,331,84961,1,2,0:3:0:0:
360,311,85230,1,8,0:0:0:0:
477,298,85497,5,2,0:0:0:0:
477,298,85632,1,2,0:0:0:0:
399,187,86033,5,2,0:3:0:0:
418,166,86166,1,0,0:0:0:0:
421,139,86300,1,8,0:0:0:0:
408,114,86434,1,2,0:0:0:0:
383,102,86568,2,0,L|335:97,1,39.3750015020371,2|2,0:0|0:0,0:0:0:0:
298,136,86835,6,0,B|260:129|255:159|221:149,1,78.7500030040742,0|2,3:0|0:3,0:0:0:0:
173,176,87238,1,0,0:0:0:0:
173,176,87372,1,8,0:0:0:0:
173,176,87506,2,0,P|152:164|137:140,1,39.3750015020371,2|2,0:0|0:0,0:0:0:0:
0,256,87908,6,0,B|37:249|41:279|75:268,1,78.7500030040742,0|2,3:0|0:3,0:0:0:0:
112,321,88309,1,0,0:0:0:0:
112,321,88443,1,8,0:0:0:0:
230,316,88711,2,0,P|222:293|197:270,1,39.3750015020371,2|2,0:0|0:0,0:0:0:0:
248,233,88979,6,0,B|286:226|291:257|326:246,1,78.7500030040742,0|2,3:0|0:3,0:0:0:0:
369,209,89381,1,0,0:0:0:0:
369,209,89515,2,0,P|366:130|359:100,1,89.2500017023087,8|2,0:0|0:0,0:0:0:0:
73,57,90318,5,2,0:3:0:0:
185,129,90586,1,8,0:0:0:0:
316,76,90853,1,2,0:0:0:0:
316,76,90988,1,2,0:0:0:0:
316,76,91122,2,0,P|360:57|401:61,1,89.2500017023087,0|2,3:0|0:3,0:0:0:0:
438,82,91525,2,0,P|447:108|450:137,1,44.6250008511543,0|8,0:0|0:0,0:0:0:0:
384,241,91926,1,2,0:0:0:0:
316,356,92193,6,0,L|215:347,1,89.2500017023087,0|2,3:0|0:3,0:0:0:0:
194,294,92595,1,0,0:0:0:0:
194,294,92729,2,0,L|95:297,1,89.2500017023087,8|2,0:0|0:0,0:0:0:0:
50,266,93131,1,0,0:0:0:0:
50,266,93265,6,0,P|35:219|54:169,1,89.2500017023087,0|2,3:0|0:3,0:0:0:0:
81,125,93666,1,0,0:0:0:0:
81,125,93801,2,0,P|96:78|77:28,1,89.2500017023087,8|2,0:0|0:0,0:0:0:0:
330,360,94873,5,8,0:0:0:0:
328,333,95007,1,2,0:0:0:0:
343,309,95140,1,2,0:0:0:0:
464,364,95408,1,0,3:0:0:0:
502,167,95809,1,0,0:0:0:0:
502,167,95943,2,0,B|464:141|448:174|409:148,1,89.2500017023087,8|2,0:0|0:0,0:0:0:0:
290,199,96479,6,0,L|277:137,1,44.6250008511543,0|0,3:0|0:0,0:0:0:0:
228,112,96747,2,0,L|166:125,1,44.6250008511543,2|0,0:3|0:0,0:0:0:0:
140,69,97015,2,0,P|142:144|117:222,1,133.875002553463,8|0,0:0|0:0,0:0:0:0:
76,244,97551,6,0,P|62:272|66:312,1,44.6250008511543,0|0,3:0|0:0,0:0:0:0:
76,338,97818,1,2,0:3:0:0:
76,338,97952,2,0,P|94:347|119:344,1,44.6250008511543,0|8,0:0|0:0,0:0:0:0:
181,318,98220,1,2,0:0:0:0:
181,318,98355,2,0,P|215:310|267:322,1,89.2500017023087,2|0,0:0|3:0,0:0:0:0:
386,381,98890,5,2,0:3:0:0:
435,256,99158,2,0,P|428:237|425:203,1,44.6250008511543,8|2,0:0|0:0,0:0:0:0:
388,156,99426,2,0,P|381:137|378:103,1,44.6250008511543,2|2,0:0|0:0,0:0:0:0:
417,58,99693,2,0,L|298:73,1,89.2500017023087,0|2,3:0|0:3,0:0:0:0:
281,117,100095,1,0,0:0:0:0:
281,117,100229,2,0,P|256:132|246:151,1,44.6250008511543,8|2,0:0|0:0,0:0:0:0:
181,150,100497,2,0,P|167:125|148:113,1,44.6250008511543,2|2,0:0|0:0,0:0:0:0:
137,43,100765,6,0,P|162:28|172:9,1,44.6250008511543,0|0,3:0|0:0,0:0:0:0:
268,9,101033,2,0,P|282:34|301:46,1,44.6250008511543,2|0,0:3|0:0,0:0:0:0:
377,112,101301,1,8,0:0:0:0:
377,112,101434,1,2,0:0:0:0:
377,112,101568,2,0,L|372:208,1,89.2500017023087,2|0,0:0|3:0,0:0:0:0:
411,222,101970,1,0,0:0:0:0:
425,263,102103,1,2,0:3:0:0:
406,303,102238,1,0,0:0:0:0:
366,322,102372,5,8,0:0:0:0:
96,384,102907,1,0,3:0:0:0:
0,384,111479,5,2,0:0:0:0:
150,288,112015,1,2,0:0:0:0:
116,158,112417,2,0,P|75:140|28:145,2,89.2500017023087,2|2|2,0:0|0:0|0:0,0:0:0:0:
181,97,113220,1,2,0:0:0:0:
181,97,113354,1,2,0:0:0:0:
250,41,113622,5,2,0:0:0:0:
400,137,114158,1,2,3:0:0:0:
366,267,114560,2,0,P|325:285|278:280,2,89.2500017023087,2|2|2,0:0|0:0|0:0,0:0:0:0:
431,328,115363,1,2,0:0:0:0:
431,328,115497,1,2,0:0:0:0:
481,254,115765,6,0,B|471:194|519:150|509:65,1,178.500003404617,2|2,0:0|3:0,0:0:0:0:
387,25,116702,1,2,0:0:0:0:
344,103,116970,1,2,0:0:0:0:
297,179,117238,1,2,0:0:0:0:
218,147,117506,1,2,0:0:0:0:
218,147,117640,1,2,0:0:0:0:
124,213,117908,5,2,0:0:0:0:
256,384,118443,1,2,3:0:0:0:
446,364,120051,5,6,3:1:0:0:
446,364,120318,1,2,0:1:0:0:
371,262,120586,1,10,0:1:0:0:
262,323,120854,1,2,0:0:0:0:
262,323,120988,2,0,P|254:349|231:375,2,62.9999980773926,2|0|0,0:1|3:0|0:0,0:0:0:0:
214,280,121390,1,2,0:1:0:0:
95,235,121658,2,0,B|84:173|134:165|116:107,1,125.999996154785,8|0,0:1|0:0,0:0:0:0:
77,66,122059,1,0,0:0:0:0:
121,20,122193,6,0,P|169:16|245:43,1,125.999996154785,2|2,3:1|0:3,0:0:0:0:
315,143,122729,2,0,P|348:146|379:127,1,62.9999980773926,8|0,0:1|0:0,0:0:0:0:
395,75,122997,1,2,0:0:0:0:
395,75,123131,1,2,0:1:0:0:
490,238,123533,2,0,P|482:270|470:364,1,125.999996154785,2|8,0:1|0:1,0:0:0:0:
338,308,124068,1,2,0:0:0:0:
226,367,124336,1,6,3:1:0:0:
128,287,124604,6,0,P|128:251|141:224,1,62.9999980773926,2|0,0:3|0:0,0:0:0:0:
193,194,124872,2,0,B|244:187|250:227|315:210,1,125.999996154785,8|2,0:1|0:0,0:0:0:0:
373,245,125273,1,2,0:1:0:0:
373,245,125408,6,0,P|399:271|410:297,2,62.9999980773926,0|0|2,3:0|0:0|0:1,0:0:0:0:
451,145,125944,1,8,0:1:0:0:
379,54,126211,1,2,0:0:0:0:
379,54,126345,1,0,0:0:0:0:
379,54,126479,6,0,P|343:54|314:67,1,62.9999980773926,2|2,3:1|0:0,0:0:0:0:
270,21,126747,1,2,0:3:0:0:
144,33,127015,1,8,0:1:0:0:
106,157,127282,1,2,0:0:0:0:
106,157,127416,1,2,0:1:0:0:
106,157,127551,6,0,P|85:194|84:224,1,62.9999980773926,0|0,3:0|0:0,0:0:0:0:
42,261,127818,1,2,0:1:0:0:
163,294,128086,1,8,0:1:0:0:
285,325,128354,1,2,0:0:0:0:
341,212,128622,5,6,3:1:0:0:
440,134,128890,1,2,0:1:0:0:
399,14,129158,1,10,0:1:0:0:
279,97,129426,5,2,0:0:0:0:
248,104,129559,1,2,0:1:0:0:
217,101,129693,1,0,3:0:0:0:
189,87,129827,1,2,0:0:0:0:
167,65,129961,1,2,0:1:0:0:
53,120,130229,1,8,0:1:0:0:
94,238,130497,1,2,0:0:0:0:
125,231,130630,1,2,0:0:0:0:
156,234,130764,5,6,3:1:0:0:
184,248,130898,1,2,0:0:0:0:
206,270,131032,1,2,0:0:0:0:
116,358,131300,1,8,0:1:0:0:
241,368,131568,1,2,0:0:0:0:
263,346,131702,1,2,0:1:0:0:
291,332,131836,5,0,3:0:0:0:
322,329,131970,1,2,0:0:0:0:
353,336,132103,1,2,0:1:0:0:
418,228,132371,1,8,0:1:0:0:
361,114,132640,2,0,B|281:102|275:173|180:138,1,188.999994232178,2|0,0:0|0:0,0:0:0:0:
138,185,133175,1,2,0:3:0:0:
45,99,133443,2,0,P|45:63|60:33,1,62.9999980773926,8|0,0:1|0:0,0:0:0:0:
109,4,133711,2,0,P|145:4|170:13,1,62.9999980773926,2|2,0:0|0:1,0:0:0:0:
223,47,133979,6,0,L|289:36,1,62.9999980773926,0|0,3:0|0:0,0:0:0:0:
340,5,134247,1,2,0:1:0:0:
360,135,134515,1,8,0:1:0:0:
377,259,134783,1,2,0:0:0:0:
258,217,135051,6,0,B|165:204|155:277|66:251,1,188.999994232178,6|2,3:1|0:0,0:0:0:0:
49,311,135586,1,8,0:1:0:0:
174,360,135854,1,2,0:1:0:0:
174,360,135988,1,2,0:1:0:0:
174,360,136122,2,0,P|210:360|233:371,1,62.9999980773926,0|0,3:0|0:0,0:0:0:0:
281,329,136389,1,2,0:1:0:0:
393,270,136658,2,0,P|427:271|470:288,1,62.9999980773926,10|2,0:1|0:1,0:0:0:0:
498,324,136925,5,2,0:0:0:0:
477,384,137060,1,2,0:0:0:0:
