osu file format v14

[General]
AudioFilename: audio.mp3
AudioLeadIn: 0
PreviewTime: 107981
Countdown: 0
SampleSet: Normal
StackLeniency: 0.7
Mode: 0
LetterboxInBreaks: 0
WidescreenStoryboard: 0

[Editor]
Bookmarks: 22466,44533
DistanceSpacing: 1.9
BeatDivisor: 4
GridSize: 8
TimelineZoom: 1

[Metadata]
Title:Breathe (ft Veela)
TitleUnicode:Breathe (ft Veela)
Artist:Champion
ArtistUnicode:Champion
Creator:- J E N -
Version:Breathe In
Source:
Tags:
BeatmapID:1611041
BeatmapSetID:766332

[Difficulty]
HPDrainRate:6
CircleSize:4.2
OverallDifficulty:8
ApproachRate:9.2
SliderMultiplier:1.4
SliderTickRate:1

[Events]
//Background and Video events
0,0,"maxresdefault (1).jpg",0,0
//Break Periods
//Storyboard Layer 0 (Background)
//Storyboard Layer 1 (Fail)
//Storyboard Layer 2 (Pass)
//Storyboard Layer 3 (Foreground)
//Storyboard Sound Samples

[TimingPoints]
397.452225967321,689.655172413793,4,1,0,100,1,0
30742,-66.6666666666667,4,1,0,100,0,0
33500,-100,4,1,0,100,0,0
44533,344.827586206897,4,1,0,100,1,0

[HitObjects]
80,88,22466,6,0,P|136:72|176:88,1,70
160,208,23156,2,0,P|136:168|136:136,1,70
288,144,23845,2,0,P|248:136|216:160,2,70
328,232,24880,1,0,0:0:0:0:
256,304,25225,6,0,P|208:280|208:240,1,70
240,128,25914,2,0,P|280:168|280:200,1,70
136,152,26604,2,0,P|128:104|144:72,2,70
184,264,27638,1,0,0:0:0:0:
184,264,27811,1,0,0:0:0:0:
184,264,27983,6,0,P|232:288|264:288,1,70
224,144,28673,2,0,P|192:128|152:128,1,70
224,232,29362,2,0,P|272:224|288:208,2,70
160,160,30225,1,0,0:0:0:0:
200,72,30397,1,0,0:0:0:0:
296,40,30569,1,0,0:0:0:0:
384,88,30742,6,0,B|352:128|304:112|304:112|288:176|288:176|232:152|184:216|200:264|256:296|304:248|304:248|336:272,1,420.000016021729
334,270,32294,2,0,B|395:340|445:314|488:261|432:200|432:200|505:157,1,262.500010013581
384,104,33500,6,0,P|352:144|352:176,1,70
488,88,34190,2,0,P|464:40|440:32,1,70
432,168,34880,2,0,P|464:192|520:176,2,70
336,72,35914,1,0,0:0:0:0:
256,176,36259,6,0,P|288:152|280:104,1,70
192,112,36949,2,0,P|144:120|128:136,1,70
200,232,37638,2,0,P|208:272|240:296,2,70
264,136,38673,1,0,0:0:0:0:
264,136,38845,1,0,0:0:0:0:
264,136,39018,6,0,P|304:128|344:152,1,70
344,280,39707,2,0,P|304:248|304:216,1,70
392,208,40397,2,0,P|448:240|464:272,2,70
256,192,41431,1,0,0:0:0:0:
256,192,41776,12,0,44190,0:0:0:0:
112,64,44533,6,0,L|112:160,1,70
136,240,44877,1,0,0:0:0:0:
208,160,45050,1,0,0:0:0:0:
272,288,45222,2,0,P|224:256|216:224,1,70
280,104,45567,2,0,P|312:144|304:176,1,70
184,112,45912,2,0,P|184:48|208:24,1,70
216,208,46257,2,0,P|160:200|144:176,1,70
256,96,46601,5,0,0:0:0:0:
360,144,46774,1,0,0:0:0:0:
280,168,46946,1,0,0:0:0:0:
360,48,47119,1,0,0:0:0:0:
440,112,47291,6,0,L|440:192,1,70
352,248,47636,1,0,0:0:0:0:
448,288,47808,1,0,0:0:0:0:
360,184,47981,2,0,P|320:168|288:184,1,70
424,232,48326,2,0,P|464:208|472:176,1,70
424,64,48670,2,0,P|392:80|376:120,1,70
504,104,49015,2,0,P|504:56|480:32,1,70
320,64,49360,5,0,0:0:0:0:
208,120,49533,1,0,0:0:0:0:
280,48,49705,1,0,0:0:0:0:
360,144,49877,1,0,0:0:0:0:
240,232,50050,6,0,P|272:200|320:200,1,70
288,352,50395,1,0,0:0:0:0:
176,296,50567,1,0,0:0:0:0:
200,168,50739,2,0,P|224:208|216:240,1,70
104,160,51084,2,0,P|104:112|120:88,1,70
224,80,51429,2,0,P|216:128|192:152,1,70
160,48,51774,2,0,P|192:8|216:8,1,70
296,96,52119,5,0,0:0:0:0:
336,208,52291,1,0,0:0:0:0:
376,96,52464,1,0,0:0:0:0:
192,144,52636,1,0,0:0:0:0:
296,160,52808,2,0,P|336:192|344:224,1,70
336,320,53153,2,0,P|296:296|288:264,1,70
416,280,53498,2,0,P|416:344|392:360,1,70
408,200,53843,6,0,P|456:216|472:240,1,70
328,184,54188,2,0,P|336:136|360:120,1,70
424,72,54533,2,0,P|392:40|360:40,1,70
272,72,54877,1,0,0:0:0:0:
176,136,55050,1,0,0:0:0:0:
248,40,55222,1,0,0:0:0:0:
264,192,55395,1,0,0:0:0:0:
264,336,55567,6,0,L|264:240,1,70
200,144,55912,1,0,0:0:0:0:
344,56,56084,2,0,L|344:144,1,70
232,248,56429,1,0,0:0:0:0:
312,160,56601,1,0,0:0:0:0:
408,256,56774,1,0,0:0:0:0:
352,352,56946,6,0,P|391:359|432:322,1,70
288,184,57291,1,0,0:0:0:0:
208,32,57464,2,0,L|208:128,1,70
200,192,57808,1,0,0:0:0:0:
96,280,57981,1,0,0:0:0:0:
96,160,58153,1,0,0:0:0:0:
112,136,58239,1,0,0:0:0:0:
136,120,58326,6,0,L|208:120,1,70
336,128,58670,1,0,0:0:0:0:
408,248,58843,2,0,L|320:248,1,70
456,56,59188,1,0,0:0:0:0:
488,168,59360,2,0,L|488:256,1,70
416,344,59705,6,0,L|416:272,1,70
288,272,60050,1,0,0:0:0:0:
368,144,60222,2,0,L|272:144,1,70
152,136,60567,1,0,0:0:0:0:
336,224,60739,1,0,0:0:0:0:
240,320,60912,5,0,0:0:0:0:
264,320,60998,1,0,0:0:0:0:
288,320,61084,2,0,L|376:320,1,70
416,224,61429,1,0,0:0:0:0:
232,176,61601,1,0,0:0:0:0:
368,296,61774,1,0,0:0:0:0:
400,120,61946,1,0,0:0:0:0:
232,48,62119,1,0,0:0:0:0:
424,216,62291,1,0,0:0:0:0:
336,72,62464,6,0,P|296:64|256:80,1,70
336,200,62808,1,0,0:0:0:0:
144,264,62981,1,0,0:0:0:0:
267,73,63153,1,0,0:0:0:0:
360,256,63326,1,0,0:0:0:0:
192,312,63498,1,0,0:0:0:0:
216,72,63670,1,0,0:0:0:0:
328,96,63843,5,0,0:0:0:0:
352,120,63929,1,0,0:0:0:0:
368,136,64015,1,0,0:0:0:0:
400,144,64101,1,0,0:0:0:0:
432,128,64188,1,0,0:0:0:0:
440,96,64274,1,0,0:0:0:0:
424,64,64360,1,0,0:0:0:0:
384,48,64446,1,0,0:0:0:0:
352,64,64533,1,0,0:0:0:0:
344,96,64619,5,0,0:0:0:0:
344,136,64705,1,0,0:0:0:0:
360,160,64791,1,0,0:0:0:0:
384,184,64877,1,0,0:0:0:0:
408,216,64964,1,0,0:0:0:0:
400,256,65050,1,0,0:0:0:0:
376,280,65136,1,0,0:0:0:0:
184,320,65395,6,0,P|128:304|112:272,1,70
216,184,65739,2,0,P|256:216|256:248,1,70
104,176,66084,2,0,P|120:136|152:112,1,70
280,96,66429,1,0,0:0:0:0:
424,104,66601,6,0,L|424:192,1,70
328,320,66946,1,0,0:0:0:0:
176,160,67119,1,0,0:0:0:0:
304,64,67291,1,0,0:0:0:0:
336,48,67377,1,0,0:0:0:0:
368,48,67464,1,0,0:0:0:0:
240,224,67636,1,0,0:0:0:0:
440,168,67808,1,0,0:0:0:0:
184,64,67981,6,0,L|96:64,1,70
136,256,68326,1,0,0:0:0:0:
272,120,68498,1,0,0:0:0:0:
64,104,68670,1,0,0:0:0:0:
40,64,68757,1,0,0:0:0:0:
24,32,68843,1,0,0:0:0:0:
136,256,69015,1,0,0:0:0:0:
192,96,69188,1,0,0:0:0:0:
440,112,69360,5,0,0:0:0:0:
248,272,69533,1,0,0:0:0:0:
264,64,69705,5,0,0:0:0:0:
416,256,69877,1,0,0:0:0:0:
344,16,70050,5,0,0:0:0:0:
240,208,70222,1,0,0:0:0:0:
448,200,70395,5,0,0:0:0:0:
216,48,70567,1,0,0:0:0:0:
376,160,70739,1,0,0:0:0:0:
384,16,70912,1,0,0:0:0:0:
160,176,71084,1,0,0:0:0:0:
136,192,71170,1,0,0:0:0:0:
112,208,71257,1,0,0:0:0:0:
320,64,71429,1,0,0:0:0:0:
240,216,71601,1,0,0:0:0:0:
184,24,71774,6,0,L|184:96,1,70
176,272,72119,1,0,0:0:0:0:
32,176,72291,1,0,0:0:0:0:
184,94,72464,2,0,P|224:88|272:104,1,70
384,176,72808,1,0,0:0:0:0:
424,184,72895,1,0,0:0:0:0:
440,216,72981,1,0,0:0:0:0:
264,336,73153,1,0,0:0:0:0:
288,144,73326,1,0,0:0:0:0:
152,248,73498,6,0,L|248:248,1,70
360,144,73843,1,0,0:0:0:0:
224,248,74015,1,0,0:0:0:0:
224,24,74188,1,0,0:0:0:0:
360,192,74360,1,0,0:0:0:0:
120,128,74533,1,0,0:0:0:0:
352,64,74705,1,0,0:0:0:0:
136,240,74877,6,0,L|224:240,1,70
256,144,75222,1,0,0:0:0:0:
144,56,75395,1,0,0:0:0:0:
64,200,75567,2,0,L|64:296,1,70
256,144,75912,2,0,L|256:48,1,70
336,32,76257,5,0,0:0:0:0:
368,48,76343,1,0,0:0:0:0:
392,80,76429,1,0,0:0:0:0:
400,112,76515,1,0,0:0:0:0:
384,144,76601,1,0,0:0:0:0:
360,176,76688,1,0,0:0:0:0:
360,208,76774,1,0,0:0:0:0:
368,248,76860,1,0,0:0:0:0:
392,272,76946,1,0,0:0:0:0:
424,288,77033,5,0,0:0:0:0:
456,280,77119,1,0,0:0:0:0:
472,256,77205,1,0,0:0:0:0:
472,184,77291,2,0,L|472:96,1,70
304,16,77636,6,0,L|304:104,1,70
224,232,77981,1,0,0:0:0:0:
136,96,78153,1,0,0:0:0:0:
352,96,78326,1,0,0:0:0:0:
392,80,78412,1,0,0:0:0:0:
424,64,78498,1,0,0:0:0:0:
360,248,78670,1,0,0:0:0:0:
192,112,78843,1,0,0:0:0:0:
72,232,79015,6,0,L|72:320,1,70
192,112,79360,2,0,L|192:32,1,70
56,144,79705,1,0,0:0:0:0:
176,240,79877,1,0,0:0:0:0:
288,72,80050,2,0,P|328:56|368:72,1,70
352,192,80395,5,0,0:0:0:0:
160,336,80567,1,0,0:0:0:0:
392,312,80739,5,0,0:0:0:0:
152,168,80912,1,0,0:0:0:0:
352,256,81084,5,0,0:0:0:0:
280,32,81257,1,0,0:0:0:0:
264,176,81429,5,0,0:0:0:0:
440,32,81601,1,0,0:0:0:0:
440,264,81774,1,0,0:0:0:0:
328,64,81946,1,0,0:0:0:0:
440,264,82119,1,0,0:0:0:0:
456,288,82205,1,0,0:0:0:0:
472,312,82291,1,0,0:0:0:0:
240,192,82464,1,0,0:0:0:0:
376,56,82636,1,0,0:0:0:0:
368,216,82808,6,0,L|368:296,1,70
