osu file format v14

[General]
AudioFilename: audio.mp3
AudioLeadIn: 0
PreviewTime: 65215
Countdown: 0
SampleSet: Normal
StackLeniency: 0.4
Mode: 0
LetterboxInBreaks: 0
WidescreenStoryboard: 0

[Editor]
Bookmarks: 22381,44364,54870,55484,60915,63760,66605,71077,76250,77629,87208,88588,93146,94181,99698,105215,107898,109277
DistanceSpacing: 1
BeatDivisor: 4
GridSize: 32
TimelineZoom: 2.1

[Metadata]
Title:Breathe (feat. Veela)
TitleUnicode:Breathe (feat. Veela)
Artist:Champion
ArtistUnicode:Champion
Creator:Frontlines
Version:Normal
Source:
Tags:dnb drum and bass,liqucity,galaxy of dreams 3,frontlines
BeatmapID:1651840
BeatmapSetID:783296

[Difficulty]
HPDrainRate:4
CircleSize:3
OverallDifficulty:4
ApproachRate:5
SliderMultiplier:1.2
SliderTickRate:1

[Events]
//Background and Video events
0,0,"67882000_p0.jpg",0,0
//Break Periods
//Storyboard Layer 0 (Background)
//Storyboard Layer 1 (Fail)
//Storyboard Layer 2 (Pass)
//Storyboard Layer 3 (Foreground)
//Storyboard Sound Samples

[TimingPoints]
22457,344.827586206897,4,1,0,73,1,0
22457,-111.111111111111,4,1,0,73,0,0
44525,-111.111111111111,4,2,1,61,0,0
55560,-105.263157894737,4,2,1,65,0,0
61077,-99.9999999999999,4,2,1,51,0,0
62457,-99.9999999999999,4,2,1,61,0,0
63836,-99.9999999999999,4,3,2,30,0,0
65215,-99.9999999999999,4,3,2,100,0,0
66594,-90.9090909090909,4,3,2,75,0,1
76250,-90.9090909090909,4,3,2,37,0,0
77629,-90.9090909090909,4,3,2,75,0,1
87284,-90.9090909090909,4,3,2,37,0,0
88663,-90.9090909090909,4,3,2,75,0,1
94094,-100,4,3,2,62,0,0
99698,-90.9090909090909,4,3,2,75,0,1
105215,-100,4,3,2,62,0,0
107974,-100,4,3,2,37,0,0
109353,-83.3333333333333,4,3,2,100,0,0

[Colours]
Combo1 : 193,132,255
Combo2 : 0,196,196
Combo3 : 18,124,255
Combo4 : 128,0,255

[HitObjects]
256,192,22456,12,2,27284,2:2:0:0:
256,192,27974,5,2,3:0:0:0:
256,192,29698,5,2,3:0:0:0:
256,192,30733,5,2,3:0:0:0:
256,192,32456,5,0,0:0:0:0:
256,192,33491,12,2,35560,2:2:0:0:
256,192,36250,5,2,2:2:0:0:
256,192,37629,12,2,43836,2:2:0:0:
67,91,44525,6,0,P|119:112|193:102,1,107.999996704102,14|2,0:0|2:0,0:0:0:0:
215,79,45043,1,0,0:0:0:0:
311,30,45388,1,2,0:0:0:0:
311,30,45560,2,0,L|322:102,1,53.9999983520508,8|0,2:3|0:0,0:0:0:0:
353,125,45905,6,0,P|326:126|301:134,2,53.9999983520508,4|0|8,0:0|0:0|2:3,0:0:0:0:
393,161,46422,2,0,L|374:279,1,107.999996704102,0|0,0:0|0:0,0:0:0:0:
362,320,46939,1,2,0:0:0:0:
257,291,47284,6,0,P|197:283|134:296,1,107.999996704102,6|8,0:0|2:3,0:0:0:0:
51,335,47974,2,0,P|48:307|51:266,1,53.9999983520508,0|2,0:0|0:0,0:0:0:0:
72,232,48319,2,0,P|75:204|72:163,1,53.9999983520508,0|2,0:0|0:0,0:0:0:0:
47,131,48663,6,0,L|100:122,1,53.9999983520508,4|0,0:0|0:0,0:0:0:0:
208,189,49181,2,0,L|261:197,1,53.9999983520508,2|0,0:0|0:0,0:0:0:0:
311,177,49525,1,2,0:0:0:0:
311,177,49698,2,0,P|303:230|311:283,1,107.999996704102,8|4,2:3|0:0,0:0:0:0:
203,295,50388,6,0,P|175:292|134:295,1,53.9999983520508,8|2,2:3|0:0,0:0:0:0:
100,316,50733,2,0,P|72:319|31:316,1,53.9999983520508,0|2,0:0|0:0,0:0:0:0:
11,277,51077,1,8,2:3:0:0:
82,195,51422,6,0,L|75:131,1,53.9999983520508,4|2,0:0|0:0,0:0:0:0:
59,89,51767,2,0,P|87:86|128:89,1,53.9999983520508,0|2,0:0|0:0,0:0:0:0:
162,108,52112,1,0,0:0:0:0:
238,184,52457,6,0,P|266:187|307:184,1,53.9999983520508,8|0,2:3|0:0,0:0:0:0:
338,159,52801,2,0,P|330:212|338:265,1,107.999996704102,6|8,0:0|2:3,0:0:0:0:
358,316,53319,1,0,0:0:0:0:
224,256,53836,6,0,L|106:275,1,107.999996704102,0|4,0:0|0:0,0:0:0:0:
64,288,54353,1,2,0:0:0:0:
64,288,54525,1,0,0:0:0:0:
192,128,55215,5,8,2:2:0:0:
275,205,55560,6,0,B|387:201|330:251|448:232,2,170.999995433807,8|8|8,3:0|3:0|0:0,0:0:0:0:
163,179,56939,2,0,P|173:286|156:359,2,170.999995433807,8|8|8,3:0|3:0|0:0,0:0:0:0:
146,124,58146,1,8,3:0:0:0:
121,72,58319,6,0,B|172:50|172:50|294:74,2,170.999995433807,8|8|8,3:0|3:0|0:0,0:0:0:0:
60,168,59698,2,0,B|64:280|14:223|33:341,2,170.999995433807,8|8|8,3:0|3:0|2:0,0:0:0:0:
171,213,61077,6,0,P|231:203|299:220,1,120,8|8,3:0|2:3,0:0:0:0:
332,255,61594,1,2,0:0:0:0:
332,255,61767,2,0,L|324:111,1,120,8|8,0:0|2:3,0:0:0:0:
221,73,62457,6,0,P|161:83|93:66,1,120,8|8,3:0|2:3,0:0:0:0:
60,31,62974,1,2,0:0:0:0:
60,31,63147,2,0,L|68:175,1,120,8|8,0:0|3:0,0:0:0:0:
138,246,63836,6,0,L|218:250|218:250,2,60,2|0|2,2:3|2:3|2:3,0:0:0:0:
66,150,64525,2,0,L|-14:154|-14:154,2,60,2|0|8,2:3|2:3|2:3,0:0:0:0:
184,126,65215,5,2,2:3:0:0:
74,242,66594,6,0,P|108:240|153:221,1,66.0000020141602,6|0,0:0|0:0,0:0:0:0:
174,182,66939,2,0,B|176:216|176:216|195:261,1,66.0000020141602,8|2,0:0|0:0,0:0:0:0:
295,297,67457,1,4,0:0:0:0:
295,297,67629,2,0,B|335:275|335:275|437:287,1,132.00000402832,8|4,0:0|0:0,0:0:0:0:
382,172,68318,6,0,P|371:141|369:108,1,66.0000020141602,8|0,0:0|0:0,0:0:0:0:
260,156,68836,1,4,0:0:0:0:
260,156,69008,2,0,L|164:143,1,66.0000020141602,8|0,0:0|0:0,0:0:0:0:
139,170,69353,6,0,B|134:207|134:207|137:235,1,66.0000020141602,6|0,0:0|0:0,0:0:0:0:
153,292,69698,2,0,B|158:329|158:329|151:380,1,66.0000020141602,8|2,0:0|0:0,0:0:0:0:
266,317,70215,5,4,0:0:0:0:
266,317,70388,2,0,B|294:313|294:313|331:318,1,66.0000020141602,8|0,0:0|0:0,0:0:0:0:
442,275,70905,5,0,0:0:0:0:
442,275,71077,2,0,B|457:177|457:177|438:121|438:121,1,132.00000402832,8|0,0:0|0:0,0:0:0:0:
412,96,71594,1,4,0:0:0:0:
412,96,71767,2,0,L|335:102|335:102,1,66.0000020141602,8|0,0:0|0:0,0:0:0:0:
292,74,72112,6,0,P|304:105|296:156,1,66.0000020141602,6|0,0:0|0:0,0:0:0:0:
280,192,72457,2,0,B|270:224|270:224|273:256,1,66.0000020141602,8|2,0:0|0:0,0:0:0:0:
391,244,72974,1,4,0:0:0:0:
391,244,73146,2,0,B|376:252|445:221|445:221|514:228,1,132.00000402832,8|4,0:0|0:0,0:0:0:0:
479,112,73836,6,0,B|484:75|484:75|473:48,1,66.0000020141602,8|0,0:0|0:0,0:0:0:0:
397,156,74353,1,4,0:0:0:0:
397,156,74525,2,0,P|357:159|313:151,1,66.0000020141602,8|6,0:0|0:0,0:0:0:0:
284,108,74870,1,0,0:0:0:0:
194,204,75215,6,0,P|210:256|212:293,1,66.0000020141602,8|0,0:0|0:0,0:0:0:0:
343,261,75732,1,4,0:0:0:0:
343,261,75905,2,0,P|330:291|325:324,1,66.0000020141602,8|0,0:0|0:0,0:0:0:0:
348,384,76250,5,4,3:0:0:0:
145,105,77629,6,0,P|127:141|130:191,1,66.0000020141602,6|0,0:0|0:0,0:0:0:0:
148,221,77974,1,8,0:0:0:0:
148,221,78146,1,2,0:0:0:0:
253,166,78491,1,4,0:0:0:0:
253,166,78663,2,0,B|330:170|330:170|382:207,1,132.00000402832,8|4,0:0|0:0,0:0:0:0:
356,319,79353,6,0,B|319:330|319:330|278:326,1,66.0000020141602,8|0,0:0|0:0,0:0:0:0:
174,306,79870,1,4,0:0:0:0:
174,306,80043,2,0,P|186:237|168:153,1,132.00000402832,8|6,0:0|0:0,0:0:0:0:
126,133,80560,5,2,0:0:0:0:
126,133,80733,2,0,P|157:142|190:141,1,66.0000020141602,8|0,0:0|0:0,0:0:0:0:
342,38,81250,5,4,0:0:0:0:
342,38,81422,2,0,P|336:118|349:195,1,132.00000402832,8|4,0:0|0:0,0:0:0:0:
374,219,81939,1,0,0:0:0:0:
374,219,82112,2,0,B|288:211|288:211|226:238,1,132.00000402832,8|0,0:0|0:0,0:0:0:0:
196,262,82629,1,4,0:0:0:0:
196,262,82801,1,8,0:0:0:0:
77,266,83146,6,0,P|93:229|95:183,1,66.0000020141602,6|0,0:0|0:0,0:0:0:0:
88,145,83491,2,0,P|93:112|107:83,1,66.0000020141602,8|2,0:0|0:0,0:0:0:0:
224,104,84008,1,4,0:0:0:0:
224,104,84181,2,0,P|302:134|379:123,1,132.00000402832,8|6,0:0|0:0,0:0:0:0:
465,157,84870,6,0,L|459:240|459:240,1,66.0000020141602,8|0,0:0|0:0,0:0:0:0:
411,331,85388,1,4,0:0:0:0:
411,331,85561,2,0,B|370:298|370:298|290:298,1,132.00000402832,8|4,0:0|0:0,0:0:0:0:
234,319,86077,6,0,L|234:232|234:232,1,66.0000020141602,4|8,0:0|0:0,0:0:0:0:
245,194,86422,2,0,P|206:206|159:196,2,66.0000020141602,4|4|4,0:0|0:0|0:0,0:0:0:0:
287,152,86939,1,8,0:0:0:0:
287,152,87112,1,4,0:0:0:0:
83,151,88663,6,0,P|122:153|171:142,1,66.0000020141602,6|0,0:0|0:0,0:0:0:0:
179,97,89008,2,0,P|166:182|191:251,1,132.00000402832,8|0,0:0|0:0,0:0:0:0:
267,147,89698,6,0,P|299:144|332:148,1,66.0000020141602,8|0,0:0|0:0,0:0:0:0:
439,198,90215,1,0,0:0:0:0:
439,198,90388,2,0,P|423:122|432:46,1,132.00000402832,8|0,0:0|0:0,0:0:0:0:
332,148,91077,6,0,P|299:150|266:146,1,66.0000020141602,8|0,0:0|0:0,0:0:0:0:
229,100,91422,1,4,0:0:0:0:
173,205,91767,2,0,P|160:269|174:333,1,132.00000402832,8|0,0:0|0:0,0:0:0:0:
275,269,92457,6,0,P|307:271|340:267,1,66.0000020141602,8|0,0:0|0:0,0:0:0:0:
399,164,92974,1,0,0:0:0:0:
399,164,93146,2,0,P|366:161|333:165,1,66.0000020141602,8|0,0:0|0:0,0:0:0:0:
222,123,93663,1,4,0:0:0:0:
222,123,93835,2,0,P|219:90|223:57,1,66.0000020141602,8|0,0:0|0:0,0:0:0:0:
256,192,94181,12,2,97629,0:0:0:0:
101,155,98319,6,0,P|136:159|187:148,1,60,4|2,0:0|0:0,0:0:0:0:
193,113,98663,2,0,L|196:250|196:250,1,120,8|2,0:0|0:0,0:0:0:0:
160,274,99181,1,4,0:0:0:0:
118,307,99353,2,0,P|186:296|247:304,1,120,8|6,0:0|0:0,0:0:0:0:
166,204,100043,6,0,P|168:165|157:116,1,66.0000020141602,8|0,0:0|0:0,0:0:0:0:
121,97,100387,2,0,P|206:110|275:85,1,132.00000402832,0|8,0:0|0:0,0:0:0:0:
326,189,101077,6,0,P|358:186|391:190,1,66.0000020141602,4|0,0:0|0:0,0:0:0:0:
451,219,101422,2,0,P|437:161|438:129,1,66.0000020141602
491,34,101939,1,0,0:0:0:0:
491,34,102112,2,0,P|458:30|425:32,1,66.0000020141602,4|0,0:0|0:0,0:0:0:0:
379,76,102456,6,0,P|346:78|313:74,1,66.0000020141602,4|0,0:0|0:0,0:0:0:0:
258,36,102801,1,8,0:0:0:0:
283,165,103146,2,0,P|296:229|282:293,1,132.00000402832,0|8,0:0|0:0,0:0:0:0:
411,267,103836,6,0,P|443:269|476:265,1,66.0000020141602,4|0,0:0|0:0,0:0:0:0:
512,219,104181,1,8,0:0:0:0:
423,121,104525,6,0,P|390:118|357:122,1,66.0000020141602,4|0,0:0|0:0,0:0:0:0:
293,138,104870,1,8,0:0:0:0:
256,192,105215,12,4,107284,0:0:0:0:
290,184,107974,5,4,0:0:0:0:
290,184,108146,2,0,P|243:189|212:186,1,60,4|4,0:0|0:0,0:0:0:0:
199,161,108491,1,4,0:0:0:0:
199,161,108663,2,0,P|200:116|197:80,1,60,4|4,0:0|0:0,0:0:0:0:
179,73,109008,1,4,0:0:0:0:
179,73,109181,1,0,0:0:0:0:
96,84,109353,5,0,0:0:0:0:
