osu file format v14

[General]
AudioFilename: audio.mp3
AudioLeadIn: 0
PreviewTime: -1
Countdown: 0
SampleSet: None
StackLeniency: 0.7
Mode: 0
LetterboxInBreaks: 0
WidescreenStoryboard: 1

[Editor]
DistanceSpacing: 1.1
BeatDivisor: 4
GridSize: 4
TimelineZoom: 1

[Metadata]
Title:Roses
TitleUnicode:Roses
Artist:Chainsmokers ft. ROZES
ArtistUnicode:Chainsmokers ft. ROZES
Creator:Maz
Version:Normal
Source:
Tags:
BeatmapID:913455
BeatmapSetID:422494

[Difficulty]
HPDrainRate:4
CircleSize:4
OverallDifficulty:4
ApproachRate:6
SliderMultiplier:1.80000000596046
SliderTickRate:2

[Events]
//Background and Video events
0,0,"rose.jpg",0,0
//Break Periods
//Storyboard Layer 0 (Background)
//Storyboard Layer 1 (Fail)
//Storyboard Layer 2 (Pass)
//Storyboard Layer 3 (Foreground)
//Storyboard Sound Samples

[TimingPoints]
0,1200,4,1,0,100,1,0

[Colours]
Combo1 : 75,225,233
Combo2 : 37,187,11
Combo3 : 37,91,233
Combo4 : 164,98,223

[HitObjects]
256,192,85200,12,0,87000,0:0:0:0:
72,92,87600,6,0,P|148:92|168:116,1,90.000000298023
256,112,88500,2,0,L|312:140,1,45.0000001490115
400,204,89400,1,0,0:0:0:0:
388,304,89700,6,0,L|332:308,1,45.0000001490115
296,328,90600,1,0,0:0:0:0:
296,328,90900,2,0,P|192:336|188:332,1,90.000000298023
124,292,92100,1,0,0:0:0:0:
124,292,92400,1,0,0:0:0:0:
152,188,93000,6,0,L|224:192,1,45.0000001490115
196,190,93600,1,0,0:0:0:0:
280,124,94200,1,0,0:0:0:0:
384,144,94500,2,0,L|336:244,1,90.000000298023
272,144,95700,2,0,L|228:244,1,90.000000298023
260,312,96900,6,0,L|224:280,1,45.0000001490115
188,156,97800,2,0,P|240:132|256:144,1,45.0000001490115
254,111,98400,1,0,0:0:0:0:
254,111,99000,1,0,0:0:0:0:
360,80,99300,6,0,P|424:176|424:180,1,90.000000298023
432,232,100500,2,0,P|352:304|340:308,1,90.000000298023
284,300,101700,2,0,L|236:304,1,45.0000001490115
140,256,102600,6,0,L|172:288,2,45.0000001490115
220,224,103800,5,0,0:0:0:0:
256,192,104100,12,0,106800,0:0:0:0:
104,108,107400,5,0,0:0:0:0:
180,152,107700,2,0,L|240:192,1,45.0000001490115
284,80,108600,1,0,0:0:0:0:
376,136,108900,1,0,0:0:0:0:
376,136,109200,2,0,L|340:224,2,90.000000298023
376,136,110700,1,0,0:0:0:0:
376,224,111300,6,0,L|320:228,1,45.0000001490115
268,60,112200,2,0,L|256:140,1,45.0000001490115
180,108,112800,2,0,P|64:136|56:148,1,135.000000447034
136,236,114000,6,0,L|188:260,1,45.0000001490115
252,260,114600,6,0,L|300:236,1,45.0000001490115
264,168,115200,1,0,0:0:0:0:
164,168,115500,1,0,0:0:0:0:
88,80,115800,6,0,P|208:88|208:88,1,90.000000298023
116,272,117000,5,0,0:0:0:0:
200,304,117300,2,0,L|260:320,1,45.0000001490115
412,252,118200,1,0,0:0:0:0:
360,180,118500,1,0,0:0:0:0:
312,104,118800,2,0,P|204:100|200:104,1,90.000000298023
108,216,120000,6,0,L|88:268,2,45.0000001490115
108,216,120900,1,0,0:0:0:0:
136,124,121200,1,0,0:0:0:0:
312,92,121800,5,0,0:0:0:0:
400,116,122100,1,0,0:0:0:0:
436,216,122400,2,0,P|352:268|328:260,1,90.000000298023
256,192,123600,12,0,126000,0:0:0:0:
