osu file format v14

[General]
AudioFilename: audio.mp3
AudioLeadIn: 0
PreviewTime: -1
Countdown: 0
SampleSet: None
StackLeniency: 0.7
Mode: 0
LetterboxInBreaks: 0
WidescreenStoryboard: 1

[Editor]
Bookmarks: 82536
DistanceSpacing: 0.8
BeatDivisor: 4
GridSize: 4
TimelineZoom: 3.100005

[Metadata]
Title:Zoku Beatrice X Jiken
TitleUnicode:続 ベアトリーチェX事件
Artist:Ceui
ArtistUnicode:Ceui
Creator:Lama Poluna
Version:123213
Source:
Tags:
BeatmapID:1944553
BeatmapSetID:931242

[Difficulty]
HPDrainRate:5
CircleSize:4.2
OverallDifficulty:8.9
ApproachRate:9.8
SliderMultiplier:2.24999999999999
SliderTickRate:1

[Events]
//Background and Video events
0,0,"Konachan.com - 246133 bow catbell dress flowers gun jpeg_artifacts long_hair original pink_hair red_eyes rose weapon.jpg",0,0
//Break Periods
2,235779,438197
//Storyboard Layer 0 (Background)
//Storyboard Layer 1 (Fail)
//Storyboard Layer 2 (Pass)
//Storyboard Layer 3 (Foreground)
//Storyboard Sound Samples

[TimingPoints]
3854,376.4,4,2,0,64,1,0
3854,-500,4,2,0,64,0,0
8714,374.5,4,2,0,64,1,0
12735,374.5,4,2,0,64,1,0
24730,333.333333333333,4,2,0,64,1,0
56396,312.5,4,2,0,64,1,0
56708,314.13612565445,4,2,0,64,1,0
57336,335.195530726257,4,2,0,64,1,0
57671,315.789473684211,4,2,0,64,1,0
61855,314.13612565445,4,2,0,64,1,0
65624,331.491712707182,4,2,0,64,1,0
66948,310.880829015544,4,2,0,64,1,0
68191,327.868852459016,4,2,0,64,1,0
69502,306.122448979592,4,2,0,64,1,0
69808,348.837209302326,4,2,0,64,1,0
70158,306.122448979592,4,2,0,64,1,0
71076,317.460317460317,4,2,0,64,1,0
71710,352.941176470588,4,2,0,64,1,0
73298,329.67032967033,4,2,0,64,1,0
73957,307.692307692308,4,2,0,64,1,0
74572,324.324324324324,4,2,0,64,1,0
76517,315.789473684211,4,2,0,64,1,0
79359,352.941176470588,4,2,0,64,1,0
80064,306.122448979592,4,2,0,64,1,0
82536,322.58064516129,4,2,0,64,1,0
85438,315.789473684211,4,2,0,64,1,0
87648,324.324324324324,4,2,0,64,1,0
88298,319.182891797,4,2,0,64,1,0
182781,319.233838786911,4,2,0,64,1,0
199540,600,4,2,0,64,1,0
199860,461.538461538462,4,2,0,64,1,0
200321,337.078651685393,4,2,0,64,1,0
200658,235.294117647059,4,2,0,64,1,0
201599,240,4,2,0,64,1,0
219479,246.913580246914,5,2,0,64,1,0
220799,240.480961923848,4,2,0,64,1,0
232342,239.787069082655,4,2,0,64,1,0
232342,-86.9565217391304,4,2,0,64,0,0
243132,959.155942770362,4,2,0,64,1,0
243851,240.04800960192,4,2,0,64,1,0
410868,337.078651685393,4,2,0,64,1,0
439176,337.078651685393,4,2,0,64,1,0
439176,-86.9565217391304,4,2,0,64,0,0

[Colours]
Combo1 : 128,128,255
Combo2 : 255,0,0
Combo3 : 255,128,128

[HitObjects]
425,75,231740,5,0,3:0:0:0:
399,66,231801,1,0,3:0:0:0:
371,67,231861,2,0,P|340:74|294:109,3,56.2499999999997,8|8|0|0,3:0|3:0|3:0|3:0,3:0:0:0:
385,173,232101,2,0,P|416:180|462:215,3,56.2499999999997,8|8|0|0,3:0|3:0|3:0|3:0,3:0:0:0:
362,284,232342,6,0,B|324:313|324:313|231:302,1,129.375002467632,4|10,0:0|0:0,0:0:0:0:
140,289,232581,1,2,0:0:0:0:
288,202,232701,6,0,B|250:173|250:173|157:184,1,129.375002467632,10|0,0:0|3:0,0:0:0:0:
75,280,232941,1,8,0:0:0:0:
107,284,233000,1,2,0:0:0:0:
140,289,233060,1,0,3:0:0:0:
24,201,233181,5,8,0:0:0:0:
95,382,233301,1,0,3:0:0:0:
217,216,233421,1,10,0:0:0:0:
217,216,233480,1,2,0:0:0:0:
217,216,233540,2,0,P|252:161|231:83,1,129.375002467632,0|8,3:0|0:0,0:0:0:0:
74,19,233780,5,0,3:0:0:0:
47,108,233900,2,0,B|96:116|96:116|178:75,1,129.375002467632,8|0,0:0|3:0,0:0:0:0:
337,188,234140,2,0,B|288:180|288:180|206:221,1,129.375002467632,8|0,0:0|3:0,0:0:0:0:
267,37,234380,1,8,0:0:0:0:
298,43,234439,1,2,0:0:0:0:
330,49,234499,1,0,3:0:0:0:
438,118,234619,5,8,0:0:0:0:
241,172,234739,1,0,3:0:0:0:
402,290,234859,1,8,0:0:0:0:
426,269,234918,1,2,0:0:0:0:
439,240,234978,1,0,3:0:0:0:
328,123,235099,6,0,L|339:207,1,64.6875012338159,8|6,0:0|0:0,0:0:0:0:
362,384,235219,1,10,0:0:0:0:
452,223,235339,1,14,0:0:0:0:
286,285,235459,1,2,3:0:0:0:
467,347,235579,1,10,0:0:0:0:
394,338,438676,5,8,0:2:0:0:
420,290,438760,1,8,0:2:0:0:
412,235,438844,1,8,0:2:0:0:
373,195,438928,1,8,0:2:0:0:
346,147,439014,1,8,0:2:0:0:
354,92,439098,1,8,0:2:0:0:
393,52,439176,6,0,P|449:32|529:76,1,129.375002467632,14|8,3:2|0:0,0:0:0:0:
320,275,439513,5,2,3:0:0:0:
450,133,439681,1,14,3:2:0:0:
281,364,439850,5,0,3:0:0:0:
244,338,439934,1,2,0:0:0:0:
223,299,440018,1,8,0:0:0:0:
224,254,440102,1,2,0:0:0:0:
245,214,440187,2,0,P|261:175|253:138,3,64.6875012338159,0|2|8|2,3:0|0:3|0:0|0:3,0:0:0:0:
220,61,440524,2,0,P|197:31|171:19,1,64.6875012338159,0|2,3:0|0:0,0:0:0:0:
63,183,440692,6,0,B|171:154|133:250|258:210,1,194.062503701448,12|0,0:0|0:0,0:0:0:0:
311,116,441029,1,8,0:0:0:0:
175,331,441198,5,4,3:2:0:0:
220,61,441367,1,8,0:0:0:0:
280,304,441535,5,6,3:2:0:0:
116,89,441704,2,0,P|101:54|103:21,1,64.6875012338159,10|2,0:0|0:0,0:0:0:0:
333,216,441872,6,0,P|375:261|371:349,1,129.375002467632,4|8,3:2|0:0,0:0:0:0:
203,369,442209,1,2,0:0:0:0:
185,341,442293,1,2,0:0:0:0:
180,310,442377,1,8,0:0:0:0:
369,348,442546,5,0,3:0:0:0:
75,288,442715,1,10,0:0:0:0:
81,255,442799,1,2,0:0:0:0:
100,228,442883,1,4,3:2:0:0:
155,196,442967,1,2,0:0:0:0:
218,200,443051,1,10,0:0:0:0:
273,231,443136,1,2,0:0:0:0:
336,227,443220,1,2,3:0:0:0:
389,194,443304,1,2,0:0:0:0:
402,132,443388,1,10,0:0:0:0:
365,81,443472,1,2,0:0:0:0:
303,72,443558,6,0,P|271:86|243:132,1,64.6875012338159,2|2,0:0|0:0,0:0:0:0:
180,310,443726,1,10,0:0:0:0:
87,152,443895,5,8,3:0:0:0:
341,248,444063,1,10,0:0:0:0:
193,35,444232,6,0,P|169:61|165:115,1,64.6875012338159,2|2,0:0|0:3,0:0:0:0:
410,326,444400,2,0,P|433:299|437:245,1,64.6875012338159,14|2,0:0|0:0,0:0:0:0:
413,170,444569,6,0,P|354:137|270:170,1,129.375002467632,6|8,3:2|0:0,0:0:0:0:
