osu file format v14

[General]
AudioFilename: audio.mp3
AudioLeadIn: 0
PreviewTime: 106878
Countdown: 0
SampleSet: Soft
StackLeniency: 0.4
Mode: 0
LetterboxInBreaks: 0
WidescreenStoryboard: 1

[Editor]
Bookmarks: 18967,25649,60748,107505,194373,232795,273584
DistanceSpacing: 1.9
BeatDivisor: 8
GridSize: 16
TimelineZoom: 2.4

[Metadata]
Title:Watashi ga Tenshi Janaku Naru Hi
TitleUnicode:わたしが天使じゃなくなる日
Artist:Ceui
ArtistUnicode:Ceui
Creator:ScubDomino
Version:s0m3pug's Insane
Source:
Tags:セイ labyrinthus ラビュリントス LACA-15194 4540774151943 Lantis Haruhito Nishi 西 陽仁 にし はるひと Yumi Suzuha 鈴葉 ユミ すずは ゆみ Kotaro Koutarou Odaka 小高 光太郎 おだか こうたろう megu Yasushi Asada 浅田 靖 あさだ やすし Hironobu Asano 淺野 浩伸 あさの ひろのぶ Yoshihiko Ando Andou 安藤 義彦 あんどう よしひこ Studio Magic Garden Sound MagicGarden スタジオマジックガーデン SplashSoundStudio LOOP Aobadai 青葉台スタジオ あおばだいスタジオ anime girl anime_girl jungkyuyoung natsume shiki natsume_shiki scub domino [keqing] 8972308 jyanaku s0m3guy someguy some guy 11141924 impurepug kineticdog 3124248 TT Mouse TT_Mouse TtmnZk 2495509 female vocal pop japanese waltz violin guitar neo folk neofolk yuukichi yuu kichi ゆうきち 冷たい森
BeatmapID:3615473
BeatmapSetID:1622207

[Difficulty]
HPDrainRate:4
CircleSize:4
OverallDifficulty:7
ApproachRate:9
SliderMultiplier:1.6
SliderTickRate:1

[Events]
//Background and Video events
0,0,"yuukichi.jpg",0,0
//Break Periods
2,226131,232213
//Storyboard Layer 0 (Background)
//Storyboard Layer 1 (Fail)
//Storyboard Layer 2 (Pass)
//Storyboard Layer 3 (Foreground)
//Storyboard Layer 4 (Overlay)
//Storyboard Sound Samples

[TimingPoints]
248,316.622691292876,3,2,1,40,1,0
15445,295.20295202952,3,2,1,40,1,0
18397,-100,3,2,10,40,0,0
18985,278.422273781903,3,2,10,40,1,0
18985,-200,3,2,10,40,0,0
19542,-200,3,2,100,40,0,0
19547,-200,3,2,10,40,0,0
31514,-166.666666666667,3,2,10,40,0,0
32349,-142.857142857143,3,2,10,65,0,0
34855,-111.111111111111,3,2,10,65,0,0
35411,-142.857142857143,3,2,10,65,0,0
36804,-111.111111111111,3,2,10,65,0,0
37082,-142.857142857143,3,2,10,65,0,0
39031,-125,3,2,10,65,0,0
43207,-125,3,2,10,65,0,0
43764,-133.333333333333,3,2,10,65,0,0
44043,-111.111111111111,3,2,10,65,0,0
44599,-100,3,2,10,65,0,0
44878,-76.9230769230769,3,2,10,65,0,0
45713,-76.9230769230769,3,2,10,75,0,0
47105,-166.666666666667,3,2,10,75,0,0
47384,-166.666666666667,3,2,11,75,0,0
49054,-166.666666666667,3,2,10,75,0,0
50168,-100,3,2,10,75,0,0
50446,-100,3,2,11,75,0,0
50725,-142.857142857143,3,2,11,75,0,0
51282,-142.857142857143,3,2,201,75,0,0
51287,-142.857142857143,3,2,11,75,0,0
52395,-111.111111111111,3,2,10,75,0,0
53091,-111.111111111111,3,2,11,75,0,0
53230,-125,3,2,11,75,0,0
54066,-142.857142857143,3,2,11,55,0,0
57407,-111.111111111111,3,2,10,75,0,0
57824,-111.111111111111,3,2,11,75,0,0
59077,-111.111111111111,3,2,10,80,0,0
59495,-111.111111111111,3,2,11,80,0,0
59913,-333.333333333334,3,2,11,80,0,0
60191,-333.333333333334,3,3,200,80,0,0
60196,-333.333333333334,3,2,11,80,0,0
60470,-333.333333333334,3,3,200,80,0,0
60475,-333.333333333334,3,2,11,80,0,0
60748,-90.9090909090909,3,2,11,86,0,0
61165,-200,3,2,11,86,0,0
61583,-76.9230769230769,3,2,11,86,0,0
61862,-90.9090909090909,3,2,11,86,0,0
64089,-76.9230769230769,3,2,11,86,0,0
64367,-90.9090909090909,3,2,10,86,0,0
64924,-76.9230769230769,3,2,10,86,0,0
65203,-90.9090909090909,3,2,10,86,0,0
65481,-111.111111111111,3,2,10,86,0,0
66316,-90.9090909090909,3,2,10,86,0,0
66595,-100,3,2,10,86,0,0
66873,-100,3,2,11,86,0,0
67430,-90.9090909090909,3,2,11,86,0,0
71328,-100,3,2,11,86,0,0
71606,-83.3333333333333,3,2,11,86,0,0
71885,-90.9090909090909,3,2,10,86,0,0
73277,-71.4285714285714,3,2,10,86,0,0
73555,-83.3333333333333,3,2,10,86,0,0
73834,-111.111111111111,3,2,10,86,0,0
74112,-100,3,2,11,86,0,0
74530,-200,3,2,11,86,0,0
74947,-76.9230769230769,3,2,11,86,0,0
75226,-90.9090909090909,3,2,11,86,0,0
77453,-76.9230769230769,3,2,11,86,0,0
77732,-90.9090909090909,3,2,10,86,0,0
78288,-76.9230769230769,3,2,10,86,0,0
78567,-90.9090909090909,3,2,10,86,0,0
79124,-111.111111111111,3,2,10,86,0,0
79959,-90.9090909090909,3,2,10,86,0,0
80237,-90.9090909090909,3,2,11,86,0,0
80794,-76.9230769230769,3,2,11,86,0,0
81351,-90.9090909090909,3,2,11,86,0,0
83300,-111.111111111111,3,2,11,86,0,0
84135,-90.9090909090908,3,2,11,86,0,0
84414,-111.111111111111,3,2,11,86,0,0
84692,-125,3,2,11,86,0,0
84971,-76.9230769230769,3,2,11,86,0,0
85249,-83.3333333333333,3,2,11,86,0,0
85527,-71.4285714285714,3,2,11,86,0,0
85806,-83.3333333333333,3,2,11,86,0,0
86641,-71.4285714285714,3,2,11,86,0,0
87476,-71.4285714285714,3,2,11,80,0,0
87894,-83.3333333333333,3,2,10,80,0,0
88172,-83.3333333333333,3,2,11,80,0,0
89147,-71.4285714285714,3,2,12,80,0,0
89565,-83.3333333333333,3,2,12,80,0,0
89843,-83.3333333333333,3,2,11,80,0,0
90817,-71.4285714285714,3,2,12,80,0,0
91235,-83.3333333333333,3,2,12,80,0,0
91514,-83.3333333333333,3,2,11,80,0,0
92488,-500,3,2,12,80,0,0
92906,-500,3,2,12,75,0,0
93323,-250,3,2,12,75,0,0
93602,-500,3,2,12,75,0,0
93880,-500,3,2,11,75,0,0
94159,-125,3,2,12,65,0,0
94576,-333.333333333333,3,2,11,65,0,0
95272,-333.333333333333,3,2,12,65,0,0
95829,-100,3,2,12,65,0,0
96247,-333.333333333333,3,2,11,65,0,0
96664,-500,3,2,11,65,0,0
96943,-500,3,2,12,65,0,0
97500,-100,3,2,12,65,0,0
97917,-333.333333333333,3,2,11,65,0,0
98613,-333.333333333333,3,2,12,65,0,0
99170,-111.111111111111,3,2,12,65,0,0
99449,-76.9230769230769,3,2,12,65,0,0
99727,-90.9090909090909,3,2,12,65,0,0
100005,-111.111111111111,3,2,12,65,0,0
100284,-142.857142857143,3,2,12,65,0,0
100632,-142.857142857143,3,2,12,5,0,0
100841,-125,3,2,12,65,0,0
101258,-333.333333333333,3,2,11,65,0,0
101954,-100,3,2,12,65,0,0
102233,-125,3,2,12,65,0,0
102511,-100,3,2,12,65,0,0
102929,-333.333333333333,3,2,11,65,0,0
103346,-166.666666666667,3,2,11,65,0,0
103625,-166.666666666667,3,2,12,65,0,0
103903,-111.111111111111,3,2,12,65,0,0
104182,-71.4285714285714,3,2,12,65,0,0
105295,-100,3,2,12,65,0,0
105852,-71.4285714285714,3,2,12,65,0,0
106131,-71.4285714285714,3,2,10,65,0,0
106966,-62.5,3,2,10,65,0,0
107523,-83.3333333333333,3,2,12,75,0,0
108080,-111.111111111111,3,2,12,75,0,0
108915,-111.111111111111,3,2,11,75,0,0
109193,-99.9999999999999,3,2,12,75,0,0
109750,-111.111111111111,3,2,12,75,0,0
110864,-90.9090909090909,3,2,12,75,0,0
111421,-111.111111111111,3,2,12,75,0,0
111699,-83.3333333333333,3,2,12,75,0,0
111978,-100,3,2,12,75,0,0
112256,-125,3,2,11,75,0,0
112534,-100,3,2,12,75,0,0
113370,-100,3,2,12,75,0,0
113648,-125,3,2,12,75,0,0
113926,-166.666666666667,3,2,12,75,0,0
114205,-99.9999999999999,3,2,12,75,0,0
114762,-111.111111111111,3,2,12,75,0,0
115318,-111.111111111111,3,3,200,75,0,0
115323,-111.111111111111,3,2,12,75,0,0
115597,-111.111111111111,3,2,11,75,0,0
115875,-111.111111111111,3,2,12,75,0,0
117824,-111.111111111111,3,3,200,75,0,0
117829,-111.111111111111,3,2,12,75,0,0
118659,-111.111111111111,3,3,200,75,0,0
118664,-111.111111111111,3,2,12,75,0,0
118938,-111.111111111111,3,2,11,75,0,0
119217,-142.857142857143,3,2,12,75,0,0
120052,-111.111111111111,3,2,12,75,0,0
120330,-111.111111111111,3,3,200,75,0,0
120335,-111.111111111111,3,2,12,75,0,0
120887,-99.9999999999999,3,2,12,80,0,0
121722,-90.9090909090909,3,2,12,80,0,0
122279,-133.333333333333,3,2,12,80,0,0
122558,-90.9090909090909,3,2,12,80,0,0
123114,-100,3,2,12,80,0,0
124228,-90.9090909090909,3,2,12,80,0,0
124785,-99.9999999999999,3,2,12,80,0,0
125342,-90.9090909090909,3,2,12,80,0,0
125620,-83.3333333333333,3,2,12,80,0,0
125899,-76.9230769230769,3,2,12,80,0,0
126455,-90.9090909090909,3,2,12,80,0,0
126734,-111.111111111111,3,2,12,85,0,0
127569,-100,3,2,12,85,0,0
129518,-90.9090909090909,3,2,12,85,0,0
129797,-83.3333333333333,3,2,12,85,0,0
130075,-76.9230769230769,3,2,12,85,0,0
130353,-83.3333333333333,3,2,12,85,0,0
130632,-100,3,2,12,85,0,0
130910,-111.111111111111,3,2,12,85,0,0
131746,-99.9999999999999,3,2,12,85,0,0
132581,-83.3333333333333,3,2,12,90,0,0
133138,-100,3,2,12,90,0,0
133416,-71.4285714285714,3,2,12,90,0,0
134251,-71.4285714285714,3,2,12,75,0,0
135643,-133.333333333333,3,2,12,80,0,0
135922,-133.333333333333,3,2,11,75,0,0
137592,-133.333333333333,3,2,10,80,0,0
138706,-100,3,2,10,80,0,0
138985,-100,3,2,11,75,0,0
139263,-142.857142857143,3,2,10,75,0,0
139820,-142.857142857143,3,2,201,75,0,0
139825,-142.857142857143,3,2,11,75,0,0
140377,-125,3,2,11,80,0,0
140655,-111.111111111111,3,2,11,75,0,0
140933,-111.111111111111,3,2,10,80,0,0
141630,-111.111111111111,3,2,11,75,0,0
141769,-125,3,2,11,80,0,0
142604,-142.857142857143,3,2,11,55,0,0
145945,-142.857142857143,3,2,11,80,0,0
146362,-142.857142857143,3,2,11,75,0,0
147059,-125,3,2,11,75,0,0
147337,-111.111111111111,3,2,11,75,0,0
147616,-111.111111111111,3,2,10,80,0,0
148172,-111.111111111111,3,2,11,80,0,0
149286,-111.111111111111,3,2,10,86,0,0
149843,-111.111111111111,3,2,11,86,0,0
150121,-333.333333333332,3,2,10,80,0,0
150957,-83.3333333333333,3,2,11,83,0,0
151374,-133.333333333333,3,2,11,83,0,0
151792,-100,3,2,11,83,0,0
152070,-90.9090909090909,3,2,11,83,0,0
152349,-83.3333333333333,3,2,11,83,0,0
152627,-76.9230769230769,3,2,11,83,0,0
153184,-100,3,2,11,83,0,0
153462,-90.9090909090909,3,2,11,83,0,0
154576,-83.3333333333333,3,2,10,83,0,0
155133,-76.9230769230769,3,2,10,83,0,0
155411,-90.9090909090909,3,2,10,83,0,0
155690,-100,3,2,10,83,0,0
155968,-76.9230769230769,3,2,10,83,0,0
156525,-100,3,2,10,83,0,0
156804,-83.3333333333333,3,2,10,83,0,0
157082,-83.3333333333333,3,2,11,83,0,0
157639,-90.9090909090909,3,2,11,83,0,0
158196,-100,3,2,11,83,0,0
158474,-100,3,2,11,83,0,0
159309,-83.3333333333333,3,2,11,83,0,0
159866,-100,3,2,11,83,0,0
160145,-90.9090909090909,3,2,11,83,0,0
161397,-100,3,2,11,83,0,0
162094,-100,3,2,10,83,0,0
162650,-83.3333333333333,3,2,10,83,0,0
163207,-100,3,2,10,83,0,0
164043,-200,3,2,10,83,0,0
164321,-76.9230769230769,3,2,11,83,0,0
164739,-133.333333333333,3,2,11,83,0,0
165156,-100,3,2,11,83,0,0
165434,-90.9090909090909,3,2,11,83,0,0
165713,-83.3333333333333,3,2,11,83,0,0
165991,-76.9230769230769,3,2,11,83,0,0
166548,-100,3,2,11,83,0,0
166826,-90.9090909090909,3,2,11,83,0,0
167940,-83.3333333333333,3,2,10,83,0,0
168497,-76.9230769230769,3,2,10,83,0,0
168775,-90.9090909090909,3,2,10,83,0,0
169054,-100,3,2,10,83,0,0
169332,-76.9230769230769,3,2,10,83,0,0
170168,-83.3333333333333,3,2,10,83,0,0
170446,-83.3333333333333,3,2,11,83,0,0
171003,-83.3333333333333,3,2,11,83,0,0
172395,-100,3,2,11,83,0,0
172674,-83.3333333333333,3,2,11,83,0,0
173509,-90.9090909090909,3,2,11,83,0,0
174344,-83.3333333333333,3,2,11,83,0,0
174901,-90.9090909090909,3,2,11,83,0,0
175179,-83.3333333333333,3,2,11,83,0,0
176572,-100,3,2,11,83,0,0
176850,-83.3333333333333,3,2,11,83,0,0
181026,-200,3,2,11,83,0,0
184367,-125,3,2,13,50,0,0
184646,-200,3,2,13,50,0,0
186038,-333.333333333333,3,2,13,50,0,0
186316,-333.333333333333,3,2,10,35,0,0
187430,-333.333333333333,3,2,10,50,0,0
187708,-200,3,2,13,50,0,0
187986,-200,3,2,202,50,0,0
187991,-200,3,2,13,50,0,0
189101,-142.857142857143,3,2,13,50,0,0
189379,-142.857142857143,3,2,10,50,0,0
189657,-200,3,2,10,50,0,0
191049,-200,3,2,10,50,0,0
192719,-200,3,2,13,65,0,0
193277,-200,3,2,13,65,0,0
193555,-142.857142857143,3,2,13,70,0,0
193834,-111.111111111111,3,2,13,70,0,0
194112,-90.9090909090908,3,2,13,70,0,0
194391,-90.9090909090908,3,2,12,95,0,0
194808,-125,3,2,12,82,0,0
194947,-125,3,2,14,82,0,0
195504,-99.9999999999999,3,2,14,82,0,0
196061,-76.9230769230769,3,2,14,82,0,0
196896,-90.9090909090909,3,2,14,82,0,0
197175,-111.111111111111,3,2,14,82,0,0
198288,-111.111111111111,3,2,13,82,0,0
198427,-111.111111111111,3,2,14,82,0,0
198567,-142.857142857143,3,2,14,82,0,0
198845,-100,3,2,14,82,0,0
199402,-142.857142857143,3,2,14,90,0,0
199681,-200,3,2,13,90,0,0
199889,-200,3,2,14,90,0,0
200237,-142.857142857143,3,2,14,90,0,0
200516,-111.111111111111,3,2,14,90,0,0
200655,-111.111111111111,3,2,13,90,0,0
200794,-90.9090909090909,3,2,13,90,0,0
201073,-90.9090909090909,3,2,14,90,0,0
201490,-111.111111111111,3,2,14,90,0,0
202186,-99.9999999999999,3,2,14,90,0,0
202743,-76.9230769230769,3,2,14,90,0,0
203578,-90.9090909090909,3,2,14,90,0,0
203857,-111.111111111111,3,2,14,90,0,0
204275,-111.111111111111,3,2,13,90,0,0
204414,-99.9999999999999,3,2,14,90,0,0
205110,-142.857142857143,3,2,14,90,0,0
205527,-100,3,2,14,90,0,0
206084,-125,3,2,14,90,0,0
206363,-166.666666666667,3,2,14,90,0,0
206920,-166.666666666667,3,2,13,90,0,0
207337,-166.666666666667,3,2,14,90,0,0
207615,-166.666666666667,3,2,13,90,0,0
207755,-90.9090909090908,3,2,13,90,0,0
208033,-166.666666666667,3,2,14,90,0,0
208312,-90.9090909090908,3,2,14,90,0,0
208590,-99.9999999999999,3,2,14,90,0,0
209425,-76.9230769230769,3,2,14,90,0,0
209704,-90.9090909090909,3,2,14,90,0,0
210261,-71.4285714285714,3,2,14,90,0,0
211374,-142.857142857143,3,2,14,90,0,0
211653,-90.9090909090909,3,2,14,90,0,0
212766,-111.111111111111,3,2,14,90,0,0
213045,-71.4285714285714,3,2,14,90,0,0
213602,-250.000000000001,3,2,14,90,0,0
214019,-166.666666666667,3,2,13,90,0,0
214437,-166.666666666667,3,2,14,90,0,0
214715,-166.666666666667,3,2,13,90,0,0
214854,-166.666666666667,3,2,10,90,0,0
214994,-142.857142857143,3,2,13,90,0,0
215272,-100,3,2,14,90,0,0
215968,-100,3,2,13,90,0,0
216107,-100,3,2,14,90,0,0
216525,-125,3,2,14,90,0,0
216943,-66.6666666666667,3,2,14,90,0,0
217221,-100,3,2,14,90,0,0
217360,-100,3,2,13,90,0,0
217500,-117.647058823529,3,2,13,90,0,0
217778,-142.857142857143,3,2,14,90,0,0
218613,-100,3,2,14,90,0,0
219518,-83.3333333333333,3,2,13,90,0,0
219727,-125,3,2,14,90,0,0
220284,-71.4285714285714,3,2,14,90,0,0
220841,-83.3333333333333,3,1,200,90,0,0
220846,-83.3333333333333,3,2,14,90,0,0
221119,-142.857142857143,3,2,12,90,0,0
222233,-500,3,2,12,90,0,0
222790,-500,3,2,12,95,0,0
222929,-133.333333333333,3,2,12,95,0,0
223903,-500,3,2,12,95,0,0
225295,-500,3,2,13,50,0,0
226131,-500,3,2,15,50,0,0
226409,-500,3,2,16,50,0,0
226966,-500,3,2,17,50,0,0
227245,-500,3,2,18,50,0,0
227523,-500,3,2,19,50,0,0
227802,-500,3,2,20,50,0,0
228080,-500,3,2,21,50,0,0
228358,-500,3,2,22,50,0,0
228637,-500,3,2,23,50,0,0
228915,-500,3,2,24,50,0,0
229194,-500,3,2,25,50,0,0
229472,-500,3,2,26,50,0,0
229750,-500,3,2,27,50,0,0
230029,-500,3,2,28,50,0,0
230307,-500,3,2,29,50,0,0
230586,-500,3,2,30,50,0,0
230864,-500,3,2,31,50,0,0
231143,-500,3,2,32,50,0,0
231421,-500,3,2,33,50,0,0
231699,-500,3,2,34,50,0,0
231839,-500,3,2,35,50,0,0
231978,-500,3,2,36,50,0,0
232256,-500,3,2,33,50,0,0
232813,-166.666666666667,3,2,37,50,0,0
233092,-166.666666666667,3,2,203,50,0,0
233096,-166.666666666667,3,2,38,50,0,0
233231,-166.666666666667,3,2,39,50,0,0
233370,-166.666666666667,3,2,40,50,0,0
233648,-166.666666666667,3,2,41,50,0,0
233927,-166.666666666667,3,2,204,50,0,0
233931,-166.666666666667,3,2,42,50,0,0
234205,-166.666666666667,3,2,43,50,0,0
234484,-166.666666666667,3,2,44,50,0,0
234762,-166.666666666667,3,2,205,50,0,0
234766,-166.666666666667,3,2,45,50,0,0
234901,-166.666666666667,3,2,46,50,0,0
235041,-166.666666666667,3,2,47,50,0,0
235319,-166.666666666667,3,2,48,50,0,0
235597,-166.666666666667,3,2,206,50,0,0
235602,-166.666666666667,3,2,49,50,0,0
236154,-125,3,2,50,75,0,0
236433,-125,3,2,207,75,0,0
236437,-125,3,2,51,75,0,0
236572,-125,3,2,52,75,0,0
236711,-125,3,2,53,75,0,0
236989,-111.111111111111,3,2,54,75,0,0
237128,-111.111111111111,3,2,10,75,0,0
237268,-111.111111111111,3,2,55,75,0,0
237407,-111.111111111111,3,2,10,75,0,0
237546,-111.111111111111,3,2,56,75,0,0
237685,-111.111111111111,3,2,10,75,0,0
237825,-111.111111111111,3,2,57,85,0,0
238103,-111.111111111111,3,2,58,85,0,0
238381,-111.111111111111,3,2,10,85,0,0
238660,-111.111111111111,3,2,59,85,0,0
238938,-111.111111111111,3,2,60,95,0,0
239078,-111.111111111111,3,2,61,95,0,0
239217,-111.111111111111,3,2,62,95,0,0
239356,-111.111111111111,3,2,63,95,0,0
239495,-83.3333333333333,3,2,64,95,0,0
239774,-83.3333333333333,3,2,208,95,0,0
239778,-83.3333333333333,3,2,65,95,0,0
239913,-83.3333333333333,3,2,10,95,0,0
240052,-83.3333333333333,3,2,66,95,0,0
240331,-83.3333333333333,3,2,67,95,0,0
240469,-83.3333333333333,3,2,10,95,0,0
240609,-83.3333333333333,3,2,68,95,0,0
240887,-133.333333333333,3,2,69,95,0,0
241165,-76.9230769230769,3,2,70,95,0,0
241444,-76.9230769230769,3,2,209,95,0,0
241448,-76.9230769230769,3,2,71,95,0,0
241583,-76.9230769230769,3,2,10,95,0,0
241722,-100,3,2,72,95,0,0
241827,-111.111111111111,3,2,10,75,0,0
242001,-90.9090909090909,3,2,73,95,0,0
242279,-90.9090909090909,3,2,210,95,0,0
242284,-90.9090909090909,3,2,74,95,0,0
242558,-100,3,2,75,95,0,0
242836,-83.3333333333333,3,2,76,95,0,0
242975,-83.3333333333333,3,2,10,95,0,0
243114,-83.3333333333333,3,2,77,95,0,0
243254,-83.3333333333333,3,2,10,95,0,0
243393,-83.3333333333333,3,2,78,95,0,0
243671,-76.9230769230769,3,2,79,95,0,0
243810,-83.3333333333333,3,2,10,95,0,0
243949,-90.9090909090909,3,2,80,95,0,0
244228,-100,3,2,81,95,0,0
244506,-76.9230769230769,3,2,82,95,0,0
244785,-76.9230769230769,3,2,211,95,0,0
244790,-76.9230769230769,3,2,83,95,0,0
244924,-76.9230769230769,3,2,10,95,0,0
245064,-76.9230769230769,3,2,84,95,0,0
245203,-76.9230769230769,3,2,85,95,0,0
245342,-83.3333333333333,3,2,86,95,0,0
245621,-83.3333333333333,3,2,87,95,0,0
245899,-83.3333333333333,3,2,88,95,0,0
246177,-83.3333333333333,3,2,89,95,0,0
246456,-83.3333333333333,3,2,90,95,0,0
246595,-83.3333333333333,3,2,91,95,0,0
246734,-83.3333333333333,3,2,92,95,0,0
246873,-83.3333333333333,3,2,93,95,0,0
247012,-90.9090909090909,3,2,94,95,0,0
247291,-90.9090909090909,3,2,95,95,0,0
247569,-90.9090909090909,3,2,96,95,0,0
247847,-83.3333333333333,3,2,97,95,0,0
248126,-83.3333333333333,3,2,65,95,0,0
248266,-83.3333333333333,3,2,98,95,0,0
248405,-83.3333333333333,3,2,99,95,0,0
248544,-83.3333333333333,3,2,100,95,0,0
248682,-83.3333333333333,3,2,101,95,0,0
248817,-111.111111111111,3,2,10,75,0,0
248957,-83.3333333333333,3,2,102,95,0,0
248991,-333.333333333332,3,2,10,80,0,0
249240,-83.3333333333333,3,2,103,95,0,0
249518,-83.3333333333333,3,2,104,95,0,0
249657,-111.111111111111,3,2,10,75,0,0
249797,-83.3333333333333,3,2,105,95,0,0
249936,-83.3333333333333,3,2,10,95,0,0
250075,-83.3333333333333,3,2,106,95,0,0
250354,-83.3333333333333,3,2,107,95,0,0
250493,-111.111111111111,3,2,10,75,0,0
250632,-83.3333333333333,3,2,108,95,0,0
250911,-83.3333333333333,3,2,109,95,0,0
251189,-83.3333333333333,3,2,110,95,0,0
251467,-83.3333333333333,3,2,212,95,0,0
251472,-83.3333333333333,3,2,55,95,0,0
251607,-83.3333333333333,3,2,111,95,0,0
251746,-83.3333333333333,3,2,112,95,0,0
251885,-83.3333333333333,3,2,113,95,0,0
252024,-83.3333333333333,3,2,114,95,0,0
252158,-111.111111111111,3,2,10,75,0,0
252298,-83.3333333333333,3,2,115,95,0,0
252332,-333.333333333332,3,2,10,80,0,0
252442,-83.3333333333333,3,2,10,95,0,0
252581,-83.3333333333333,3,2,116,95,0,0
252720,-83.3333333333333,3,2,10,95,0,0
252860,-83.3333333333333,3,2,117,85,0,0
252998,-83.3333333333333,3,2,118,85,0,0
253137,-83.3333333333333,3,2,213,85,0,0
253142,-83.3333333333333,3,2,118,85,0,0
253276,-83.3333333333333,3,2,10,85,0,0
253416,-83.3333333333333,3,2,214,85,0,0
253421,-83.3333333333333,3,2,119,85,0,0
253695,-83.3333333333333,3,2,215,85,0,0
253699,-83.3333333333333,3,2,120,85,0,0
253973,-83.3333333333333,3,2,216,85,0,0
253978,-83.3333333333333,3,2,121,85,0,0
254112,-83.3333333333333,3,2,122,85,0,0
254252,-83.3333333333333,3,2,123,85,0,0
254390,-83.3333333333333,3,2,10,85,0,0
254530,-90.9090909090909,3,2,124,85,0,0
254808,-90.9090909090909,3,2,125,85,0,0
254948,-90.9090909090909,3,2,39,85,0,0
255087,-90.9090909090909,3,2,126,85,0,0
255225,-90.9090909090909,3,2,10,85,0,0
255365,-100,3,2,127,85,0,0
255644,-100,3,2,128,85,0,0
255922,-100,3,2,72,85,0,0
256061,-100,3,2,12,85,0,0
256200,-90.9090909090909,3,2,129,85,0,0
256479,-90.9090909090909,3,2,130,85,0,0
256617,-90.9090909090909,3,2,10,85,0,0
256757,-90.9090909090909,3,2,131,85,0,0
257036,-83.3333333333333,3,2,132,85,0,0
257314,-83.3333333333333,3,2,133,85,0,0
257593,-83.3333333333333,3,2,134,85,0,0
257731,-83.3333333333333,3,2,10,85,0,0
257871,-76.9230769230769,3,2,135,85,0,0
258150,-76.9230769230769,3,2,217,85,0,0
258154,-76.9230769230769,3,2,136,85,0,0
258288,-76.9230769230769,3,2,10,85,0,0
258358,-76.9230769230769,3,2,136,85,0,0
258428,-100,3,2,137,85,0,0
258566,-100,3,2,10,85,0,0
258706,-83.3333333333333,3,2,138,85,0,0
258985,-83.3333333333333,3,2,139,85,0,0
259263,-83.3333333333333,3,2,140,85,0,0
259402,-83.3333333333333,3,2,12,85,0,0
259542,-83.3333333333333,3,2,141,85,0,0
259820,-83.3333333333333,3,2,218,85,0,0
259824,-83.3333333333333,3,2,90,85,0,0
259959,-83.3333333333333,3,2,10,85,0,0
260098,-100,3,2,142,85,0,0
260377,-83.3333333333333,3,2,143,85,0,0
260655,-83.3333333333333,3,2,219,85,0,0
260660,-83.3333333333333,3,2,144,85,0,0
260933,-100,3,2,145,85,0,0
261072,-100,3,2,10,85,0,0
261212,-90.9090909090909,3,2,146,85,0,0
261491,-90.9090909090909,3,2,147,85,0,0
261630,-90.9090909090909,3,2,148,85,0,0
261769,-90.9090909090909,3,2,149,85,0,0
261908,-90.9090909090909,3,2,10,85,0,0
262047,-90.9090909090909,3,2,150,85,0,0
262326,-90.9090909090909,3,2,151,85,0,0
262743,-90.9090909090909,3,2,12,85,0,0
262883,-90.9090909090909,3,2,152,85,0,0
263161,-90.9090909090909,3,2,220,85,0,0
263165,-90.9090909090909,3,2,153,85,0,0
263300,-90.9090909090909,3,2,52,85,0,0
263440,-90.9090909090909,3,2,154,85,0,0
263718,-90.9090909090909,3,2,155,85,0,0
263996,-90.9090909090909,3,2,156,85,0,0
264275,-90.9090909090909,3,2,157,85,0,0
264413,-90.9090909090909,3,2,10,85,0,0
264553,-90.9090909090909,3,2,158,85,0,0
264832,-90.9090909090909,3,2,221,85,0,0
264836,-90.9090909090909,3,2,159,85,0,0
264970,-90.9090909090909,3,2,10,85,0,0
265110,-90.9090909090909,3,2,159,85,0,0
265249,-90.9090909090909,3,2,10,85,0,0
265388,-133.333333333333,3,2,160,85,0,0
265667,-100,3,2,12,85,0,0
265945,-66.6666666666667,3,2,161,85,0,0
266085,-66.6666666666667,3,2,162,85,0,0
266223,-76.9230769230769,3,2,163,95,0,0
266363,-76.9230769230769,3,2,164,95,0,0
266502,-76.9230769230769,3,2,165,95,0,0
266641,-76.9230769230769,3,2,166,85,0,0
266781,-76.9230769230769,3,2,167,95,0,0
266920,-76.9230769230769,3,2,168,95,0,0
267059,-76.9230769230769,3,2,169,95,0,0
267198,-76.9230769230769,3,2,164,95,0,0
267337,-76.9230769230769,3,2,170,95,0,0
267477,-76.9230769230769,3,2,171,95,0,0
267616,-76.9230769230769,3,2,167,95,0,0
267755,-76.9230769230769,3,2,168,95,0,0
267894,-76.9230769230769,3,2,163,95,0,0
268034,-76.9230769230769,3,2,164,95,0,0
268173,-76.9230769230769,3,2,165,95,0,0
268312,-76.9230769230769,3,2,166,95,0,0
268451,-76.9230769230769,3,2,167,95,0,0
268590,-76.9230769230769,3,2,168,95,0,0
268730,-76.9230769230769,3,2,172,95,0,0
268869,-76.9230769230769,3,2,164,95,0,0
269008,-76.9230769230769,3,2,170,95,0,0
269147,-76.9230769230769,3,2,173,95,0,0
269286,-76.9230769230769,3,2,174,95,0,0
269426,-76.9230769230769,3,2,168,95,0,0
269565,-76.9230769230769,3,2,175,95,0,0
269704,-76.9230769230769,3,2,164,95,0,0
269843,-76.9230769230769,3,2,165,95,0,0
269982,-76.9230769230769,3,2,176,95,0,0
270122,-76.9230769230769,3,2,177,95,0,0
270261,-76.9230769230769,3,2,168,95,0,0
270400,-76.9230769230769,3,2,178,95,0,0
270539,-76.9230769230769,3,2,164,95,0,0
270679,-76.9230769230769,3,2,170,95,0,0
270818,-76.9230769230769,3,2,179,95,0,0
270957,-76.9230769230769,3,2,170,95,0,0
271096,-76.9230769230769,3,2,180,95,0,0
271235,-200,3,2,181,95,0,0
273602,-333.333333333332,3,2,10,5,0,0

[Colours]
Combo1 : 230,223,217
Combo2 : 164,207,242
Combo3 : 67,193,231
Combo4 : 145,150,217

[HitObjects]
256,192,15445,12,0,18397,3:3:0:0:
24,170,18985,6,0,B|-5:106|48:62|48:62|118:71|123:147,1,240,0|0,2:2|2:2,0:0:0:0:
155,209,20098,1,0,2:2:0:0:
225,235,20377,1,8,2:3:0:0:
298,216,20655,2,0,P|369:188|406:104,1,160,0|0,2:2|2:2,0:0:0:0:
405,116,21351,1,0,2:2:0:0:
298,216,21490,2,0,P|346:259|389:196,1,160,0|8,2:2|2:3,0:0:0:0:
300,340,22326,6,0,P|233:293|216:246,1,120,0|0,2:2|2:2,0:0:0:0:
181,349,22882,2,0,P|145:371|101:372,2,80,8|0|0,2:3|2:2|2:2,0:0:0:0:
218,259,23718,1,8,2:3:0:0:
153,194,23996,2,0,P|132:154|145:67,1,120,0|0,2:2|2:2,0:0:0:0:
334,34,24692,1,0,2:2:0:0:
354,106,24831,2,0,P|333:140|285:157,1,80,0|0,2:2|2:2,0:0:0:0:
231,132,25388,1,8,2:3:0:0:
339,29,25667,6,0,P|450:55|487:92,1,160,0|8,2:2|2:3,0:0:0:0:
483,163,26363,1,0,2:2:0:0:
443,231,26502,2,0,P|404:240|358:218,1,80,0|0,2:2|0:0,0:0:0:0:
333,159,27059,1,8,2:3:0:0:
286,300,27337,6,0,P|277:261|299:215,2,80,0|0|8,2:2|2:2|2:3,0:0:0:0:
338,154,28172,2,0,P|298:135|286:134,1,40,0|0,2:2|0:0,0:0:0:0:
197,229,28451,2,0,P|152:232|141:237,1,40,0|0,2:2|0:0,0:0:0:0:
119,316,28729,2,0,P|82:341|75:351,1,40,8|0,2:3|0:0,0:0:0:0:
209,384,29008,6,0,P|195:305|154:237,1,160,0|8,2:2|2:3,0:0:0:0:
0,192,29843,2,0,P|9:138|14:193,1,160,0|8,2:2|2:3,0:0:0:0:
74,271,30539,1,0,2:2:0:0:
149,242,30678,6,0,L|186:229,1,40,0|0,2:2|0:0,0:0:0:0:
288,287,30957,2,0,L|258:260,1,40,0|0,2:2|0:0,0:0:0:0:
258,143,31235,2,0,L|250:181,1,40,8|0,2:3|0:0,0:0:0:0:
197,302,31514,2,0,P|248:215|340:182,1,191.999994140625,0|8,2:2|2:3,0:0:0:0:
406,198,32210,1,0,2:2:0:0:
487,246,32349,6,0,P|493:168|441:110,1,167.999994873047,6|0,2:2|2:2,0:0:0:0:
439,101,32906,2,0,P|470:78|495:48,1,55.9999982910157,8|0,2:3|0:0,0:0:0:0:
403,24,33184,1,0,2:2:0:0:
326,178,33462,1,0,2:2:0:0:
393,291,33741,1,0,2:2:0:0:
351,93,34019,6,0,P|268:80|223:81,1,111.999996582031,2|0,2:2|2:2,0:0:0:0:
235,84,34437,1,0,0:0:0:0:
139,10,34576,2,0,P|150:43|158:89,1,55.9999982910157,0|0,2:2|0:0,0:0:0:0:
119,181,34855,2,0,P|55:152|36:85,1,143.999995605469,0|0,2:2|2:2,0:0:0:0:
42,78,35272,1,8,2:3:0:0:
40,168,35411,2,0,P|33:195|24:221,1,55.9999982910157,0|0,2:2|2:2,0:0:0:0:
0,384,35690,6,0,P|39:300|110:264,1,167.999994873047,2|0,3:2|2:2,0:0:0:0:
192,263,36247,1,8,2:3:0:0:
366,305,36525,2,0,P|412:302|453:275,1,83.9999974365235,0|0,2:2|2:2,0:0:0:0:
465,197,36804,2,0,P|436:152|386:132,1,107.999996704102,0|0,2:2|0:0,0:0:0:0:
384,141,37082,2,0,P|397:186|389:210,1,55.9999982910157,8|0,2:3|0:0,0:0:0:0:
361,298,37360,6,0,P|306:279|197:268,1,167.999994873047,2|0,2:2|2:2,0:0:0:0:
129,320,37917,2,0,P|132:371|143:395,1,55.9999982910157,8|0,2:3|2:2,0:0:0:0:
275,349,38196,2,0,P|311:275|284:197,1,167.999994873047,0|0,2:2|0:0,0:0:0:0:
198,187,38752,1,8,2:3:0:0:
270,354,39031,6,0,P|353:348|455:311,1,192,2|0,2:2|2:2,0:0:0:0:
476,208,39588,2,0,P|502:217|537:244,1,64,0|0,2:2|2:2,0:0:0:0:
365,172,39866,2,0,P|334:83|375:0,1,192,8|0,2:3|0:0,0:0:0:0:
477,18,40423,2,0,P|455:64|437:83,1,64,8|0,2:3|2:2,0:0:0:0:
293,97,40701,5,2,2:2:0:0:
79,62,40980,1,0,2:2:0:0:
0,192,41258,1,8,2:3:0:0:
203,0,41537,5,0,2:2:0:0:
150,150,41815,1,0,2:2:0:0:
212,232,42094,1,8,2:3:0:0:
70,141,42372,6,0,P|179:162|263:130,1,192,2|0,2:2|2:2,0:0:0:0:
325,94,42929,1,8,2:3:0:0:
426,228,43207,2,0,P|507:223|490:136,1,192,0|0,2:2|0:0,0:0:0:0:
512,230,43764,6,0,P|512:259|504:288,1,60,8|8,2:3|2:3,0:0:0:0:
424,355,44043,6,0,P|389:256|293:212,1,215.999993408203,2|0,2:2|2:2,0:0:0:0:
139,78,44599,2,0,P|150:155|145:179,1,80,8|0,2:3|2:2,0:0:0:0:
86,300,44878,6,0,P|86:139|196:258,1,415.999980957032,8|0,2:2|3:3,0:0:0:0:
189,262,45574,1,0,3:3:0:0:
0,193,45713,1,6,3:1:0:0:
184,267,45991,5,0,3:3:0:0:
261,175,46131,1,0,3:3:0:0:
350,141,46270,1,0,3:3:0:0:
425,153,46548,1,2,3:2:0:0:
479,97,47105,6,0,L|472:50,1,48,0|0,2:2|2:2,0:0:0:0:
503,202,47384,1,2,2:2:0:0:
338,331,47662,1,8,2:3:0:0:
255,159,47940,1,0,2:2:0:0:
379,226,48219,5,2,2:2:0:0:
260,298,48497,1,8,2:3:0:0:
201,146,48776,6,0,L|261:156,1,48,0|0,3:3|3:3,0:0:0:0:
512,192,49054,1,6,3:1:0:0:
196,141,49333,5,0,3:3:0:0:
332,167,49472,1,0,3:3:0:0:
415,239,49611,1,0,3:3:0:0:
443,322,49889,1,2,3:2:0:0:
271,107,50168,6,0,P|275:146|265:184,1,80,0|0,2:2|2:2,0:0:0:0:
255,303,50446,1,8,2:3:0:0:
97,107,50725,6,0,P|214:62|256:181,1,279.999991455078,0|0,2:2|0:0,0:0:0:0:
251,189,51560,6,0,P|230:207|217:232,1,55.9999982910157,2|0,2:2|0:0,0:0:0:0:
60,176,51838,2,0,P|86:184|114:183,1,55.9999982910157,0|0,2:2|0:0,0:0:0:0:
144,349,52117,2,0,P|138:321|123:298,1,55.9999982910157,8|0,2:3|2:2,0:0:0:0:
0,384,52395,6,0,P|79:378|284:278,1,287.999991210938,4|0,2:2|2:2,0:0:0:0:
345,236,53091,1,8,2:3:0:0:
386,319,53230,2,0,P|449:366|523:378,2,128,0|0|0,2:2|2:2|2:2,0:0:0:0:
512,192,54066,6,0,P|458:90|454:36,1,167.999994873047,8|0,2:3|2:2,0:0:0:0:
448,34,54623,2,0,P|430:62|397:90,1,55.9999982910157,8|0,2:3|0:0,0:0:0:0:
382,182,54901,2,0,P|327:177|278:151,1,111.999996582031,8|0,2:3|2:2,0:0:0:0:
174,0,55458,2,0,L|185:63,1,55.9999982910157,0|0,2:2|2:2,0:0:0:0:
179,155,55736,6,0,P|128:59|21:48,1,223.999993164063,8|8,2:3|2:3,0:0:0:0:
95,192,56572,2,0,P|42:205|1:243,2,111.999996582031,0|0|8,2:2|2:2|2:3,0:0:0:0:
331,271,57407,6,0,P|327:200|282:145,1,143.999995605469,6|0,2:1|2:2,0:0:0:0:
179,204,57824,2,0,P|201:271|258:313,1,143.999995605469,8|0,2:3|2:2,0:0:0:0:
335,276,58242,6,0,P|361:251|378:219,1,71.9999978027344,0|0,2:2|0:0,0:0:0:0:
188,129,58520,2,0,P|175:162|173:198,1,71.9999978027344,0|0,2:2|0:0,0:0:0:0:
457,238,58799,2,0,P|467:203|465:167,1,71.9999978027344,0|0,2:2|0:0,0:0:0:0:
511,0,59077,6,0,P|435:0|399:86,1,179.999994506836,6|0,2:1|0:0,0:0:0:0:
408,93,59495,2,0,P|447:87|483:55,1,71.9999978027344,8|0,2:3|0:0,0:0:0:0:
253,80,59913,6,0,B|241:150|267:118|258:198,1,119.999996337891,0|0,3:3|0:0,0:0:0:0:
31,358,60748,6,0,P|87:314|189:341,1,176.000005371094,12|0,1:1|0:0,0:0:0:0:
240,279,61165,2,0,P|238:236|258:200,1,80,2|0,2:1|2:2,0:0:0:0:
147,81,61583,6,0,P|72:83|31:145,1,155.999992858887,0|0,1:1|2:2,0:0:0:0:
24,151,61862,2,0,P|15:113|34:57,1,88.000002685547,2|0,2:2|2:2,0:0:0:0:
138,13,62140,2,0,P|175:24|214:68,1,88.000002685547,2|0,1:2|2:2,0:0:0:0:
413,162,62418,6,0,B|442:121|405:78|405:78|353:85|344:133,1,176.000005371094,8|0,1:1|0:0,0:0:0:0:
350,202,62836,1,2,2:2:0:0:
404,86,62975,2,0,P|392:39|339:5,1,88.000002685547,0|0,1:2|2:2,0:0:0:0:
255,252,63254,6,0,P|277:335|366:370,1,176.000005371094,0|2,1:1|2:1,0:0:0:0:
491,275,63671,2,0,L|378:298,1,88.000002685547,0|8,2:2|2:2,0:0:0:0:
53,340,64089,6,0,B|-10:320|-10:320|77:301,1,155.999992858887,8|0,1:1|0:0,0:0:0:0:
152,322,64367,2,0,P|152:274|115:232,1,88.000002685547,2|0,2:3|2:2,0:0:0:0:
219,361,64646,2,0,P|266:336|296:273,1,88.000002685547,2|0,2:3|2:2,0:0:0:0:
511,161,64924,6,0,P|450:194|365:169,1,155.999992858887,0|0,1:1|2:2,0:0:0:0:
287,301,65203,2,0,P|290:262|261:200,1,88.000002685547,2|0,2:3|2:2,0:0:0:0:
371,25,65481,2,0,P|350:54|339:88,1,71.9999978027344,2|0,2:3|0:0,0:0:0:0:
447,339,65759,6,0,P|329:305|218:360,1,251.999992309571,8|0,1:1|0:0,0:0:0:0:
69,268,66316,2,0,P|115:278|150:338,1,88.000002685547,0|0,1:2|2:2,0:0:0:0:
218,359,66595,2,0,P|225:275|169:215,2,160,0|2|8,1:1|2:1|2:2,0:0:0:0:
426,14,67430,6,0,P|399:69|262:78,1,176.000005371094,8|0,1:1|2:2,0:0:0:0:
211,66,67848,1,2,2:2:0:0:
288,91,67987,2,0,P|339:60|355:-1,1,88.000002685547,0|0,1:2|2:2,0:0:0:0:
130,34,68265,2,0,P|56:82|33:177,1,176.000005371094,0|0,1:2|2:2,0:0:0:0:
94,339,68683,1,8,0:3:0:0:
163,304,68822,2,0,P|138:223|83:197,1,88.000002685547,0|0,1:2|2:2,0:0:0:0:
16,329,69101,6,0,P|61:363|166:287,1,176.000005371094,8|0,1:1|2:2,0:0:0:0:
301,204,69518,1,0,1:2:0:0:
246,154,69657,2,0,P|253:101|298:60,1,88.000002685547,2|0,2:2|2:2,0:0:0:0:
287,278,69936,2,0,P|234:296|119:233,2,176.000005371094,0|2|8,1:1|2:1|2:2,0:0:0:0:
500,234,70771,1,8,1:1:0:0:
500,234,71189,5,0,2:2:0:0:
445,110,71328,2,0,P|434:148|436:187,1,80,0|0,2:2|0:0,0:0:0:0:
269,6,71606,6,0,P|246:74|191:119,1,143.999995605469,0|0,1:1|0:0,0:0:0:0:
178,123,71885,2,0,P|111:120|68:92,1,88.000002685547,2|0,2:3|2:2,0:0:0:0:
309,85,72163,2,0,P|359:97|409:151,1,88.000002685547,2|0,2:3|2:2,0:0:0:0:
252,370,72442,6,0,B|234:269|271:300|253:192,1,176.000005371094,8|0,1:1|0:0,0:0:0:0:
267,29,72859,1,0,1:2:0:0:
207,75,72998,2,0,P|192:158|174:186,1,88.000002685547,8|0,2:3|2:2,0:0:0:0:
3,331,73277,6,0,P|43:282|147:289,1,167.999994873047,2|0,1:3|0:0,0:0:0:0:
253,195,73555,6,0,P|311:210|345:266,1,95.9999970703126,2|0,2:3|0:0,0:0:0:0:
499,371,73834,6,0,P|492:327|465:294,1,71.9999978027344,2|0,2:3|0:0,0:0:0:0:
501,235,74112,6,0,P|471:283|349:286,1,160,12|0,1:1|0:0,0:0:0:0:
253,194,74530,2,0,P|215:208|189:238,1,80,0|2,0:0|2:1,0:0:0:0:
411,212,74947,6,0,P|430:136|387:71,1,155.999992858887,8|0,1:2|0:0,0:0:0:0:
406,0,75226,2,0,P|372:-1|324:38,1,88.000002685547,2|0,2:2|0:0,0:0:0:0:
253,194,75504,2,0,P|269:223|326:246,1,88.000002685547,2|0,1:2|2:2,0:0:0:0:
477,110,75783,6,0,P|390:131|406:60,1,176.000005371094,8|0,1:1|0:0,0:0:0:0:
406,0,76200,1,2,2:2:0:0:
406,74,76339,2,0,P|362:120|311:111,1,88.000002685547,0|0,1:2|2:2,0:0:0:0:
0,146,76618,6,0,P|90:142|176:213,1,176.000005371094,0|2,1:1|2:1,0:0:0:0:
303,297,77036,2,0,P|319:337|357:359,1,88.000002685547,0|8,2:2|2:2,0:0:0:0:
433,260,77453,6,0,P|426:333|356:358,1,155.999992858887,8|0,1:1|2:2,0:0:0:0:
303,297,77732,2,0,P|319:249|364:226,1,88.000002685547,2|0,2:3|2:2,0:0:0:0:
417,178,78010,2,0,P|457:210|516:211,1,88.000002685547,2|0,2:3|2:2,0:0:0:0:
286,94,78288,6,0,P|223:74|131:105,1,155.999992858887,0|0,1:1|2:2,0:0:0:0:
358,126,78567,2,0,P|366:83|321:25,1,88.000002685547,2|0,2:3|0:0,0:0:0:0:
139,98,78845,2,0,P|109:132|104:239,1,132.00000402832,2|0,2:3|0:0,0:0:0:0:
145,371,79124,6,0,P|178:295|139:368,1,251.999992309571,8|0,1:1|0:0,0:0:0:0:
23,289,79681,2,0,P|20:254|48:204,1,71.9999978027344,0|0,1:2|2:2,0:0:0:0:
247,300,79959,2,0,P|185:243|103:261,2,176.000005371094,0|2|8,1:1|2:1|2:2,0:0:0:0:
247,300,80655,5,0,2:2:0:0:
164,327,80794,2,0,P|210:271|346:253,1,207.999990478516,8|0,1:1|2:2,0:0:0:0:
424,372,81212,5,0,3:2:0:0:
347,334,81351,2,0,P|416:364|444:406,1,88.000002685547,0|0,1:2|2:2,0:0:0:0:
508,372,81630,6,0,B|502:294|477:326|469:245,1,132.00000402832,0|0,1:1|0:0,0:0:0:0:
452,245,81908,2,0,P|466:178|538:166,1,132.00000402832,2|0,2:1|0:0,0:0:0:0:
480,48,82186,2,0,P|447:86|392:104,1,88.000002685547,8|0,2:2|2:2,0:0:0:0:
255,75,82465,6,0,B|217:49|214:3|214:3|206:53|246:92,1,176.000005371094,8|0,1:1|2:2,0:0:0:0:
216,230,82882,5,0,3:2:0:0:
134,219,83022,2,0,P|166:162|220:144,1,88.000002685547,0|0,1:2|2:2,0:0:0:0:
0,275,83300,5,0,1:1:0:0:
73,267,83578,5,2,2:1:0:0:
129,320,83857,1,8,2:2:0:0:
129,320,83996,1,0,2:2:0:0:
257,340,84135,6,0,P|295:368|388:357,1,132.00000402832,8|0,1:1|2:2,0:0:0:0:
383,360,84414,2,0,P|413:332|426:290,1,71.9999978027344,2|0,2:2|2:2,0:0:0:0:
512,165,84692,6,0,P|480:199|422:215,1,96,2|0,2:2|0:0,0:0:0:0:
428,215,84971,2,0,P|409:161|328:130,1,103.999995239258,0|0,1:1|0:0,0:0:0:0:
124,135,85249,6,0,P|134:230|196:260,1,143.999995605469,2|0,2:2|2:2,0:0:0:0:
323,199,85527,2,0,P|329:148|283:95,1,111.999996582031,2|0,2:2|0:0,0:0:0:0:
9,374,85806,6,0,P|95:306|324:301,1,335.999989746094,8|0,1:1|0:0,0:0:0:0:
453,362,86363,2,0,P|473:358|449:360,1,95.9999970703126,2|0,2:2|2:2,0:0:0:0:
316,219,86641,2,0,P|345:289|382:197,1,223.999993164063,8|2,1:3|2:1,0:0:0:0:
489,149,87059,1,0,0:0:0:0:
475,136,87198,1,8,2:2:0:0:
491,29,87337,5,0,2:2:0:0:
483,24,87407,1,0,2:2:0:0:
472,17,87476,2,0,B|337:30|397:63|261:85,1,223.999993164063,12|0,1:1|2:2,0:0:0:0:
30,139,87894,6,0,P|77:165|141:153,1,95.9999970703126,2|0,2:2|2:2,0:0:0:0:
94,79,88172,1,2,2:3:0:0:
151,240,88312,2,0,P|195:209|211:165,1,95.9999970703126,0|0,1:2|0:0,0:0:0:0:
311,101,88590,2,0,P|257:59|151:68,1,143.999995605469,8|0,2:2|0:0,0:0:0:0:
211,172,88868,2,0,P|266:203|333:201,1,95.9999970703126,8|0,2:2|0:0,0:0:0:0:
498,294,89147,6,0,B|363:307|423:340|287:362,1,223.999993164063,4|0,1:1|2:2,0:0:0:0:
52,322,89565,2,0,P|103:285|171:287,1,95.9999970703126,2|0,2:2|2:2,0:0:0:0:
132,366,89843,1,2,2:3:0:0:
188,217,89982,2,0,P|247:225|310:290,1,143.999995605469,0|0,1:2|2:2,0:0:0:0:
406,382,90261,2,0,P|390:335|408:271,1,95.9999970703126,8|0,2:2|2:2,0:0:0:0:
388,124,90539,2,0,P|381:179|345:236,1,95.9999970703126,8|0,2:2|2:2,0:0:0:0:
95,213,90817,6,0,B|230:226|170:259|306:281,1,223.999993164063,12|0,1:1|2:2,0:0:0:0:
512,208,91235,2,0,P|459:211|404:173,1,95.9999970703126,2|0,2:2|2:2,0:0:0:0:
373,130,91514,1,2,2:3:0:0:
512,208,91653,2,0,B|549:244|538:292|523:307|523:307|496:293|497:263,1,143.999995605469,0|0,1:2|2:2,0:0:0:0:
372,129,91931,2,0,P|335:158|321:204,1,95.9999970703126,8|0,2:2|0:0,0:0:0:0:
448,356,92210,2,0,P|484:326|499:281,1,95.9999970703126,8|0,2:2|0:0,0:0:0:0:
489,37,92488,6,0,L|477:-2,1,32,12|0,1:1|2:2,0:0:0:0:
431,95,92906,6,0,L|411:68,1,32,0|0,2:2|2:2,0:0:0:0:
405,178,93323,6,0,L|377:159,1,32,2|0,2:2|2:2,0:0:0:0:
414,267,93602,6,0,L|373:263,1,32,0|2,2:2|2:3,0:0:0:0:
201,302,94159,6,0,B|155:299|155:299|120:316|120:316|56:310,1,128,4|0,1:1|2:2,0:0:0:0:
11,278,94576,6,0,L|-3:228,1,47.9999985351563,8|0,2:3|2:2,0:0:0:0:
77,311,94994,1,8,1:3:0:0:
48,176,95272,2,0,L|34:126,1,47.9999985351563,8|2,2:2|2:2,0:0:0:0:
88,77,95829,6,0,B|197:93|197:93|245:46,1,160,4|0,1:1|2:2,0:0:0:0:
407,10,96247,6,0,L|372:45,1,47.9999985351563,8|0,2:3|2:2,0:0:0:0:
453,89,96664,2,0,L|436:98,1,16,8|0,1:3|2:2,0:0:0:0:
460,172,96943,1,2,2:2:0:0:
421,241,97082,1,0,0:0:0:0:
354,263,97221,1,2,2:2:0:0:
290,168,97360,5,0,0:0:0:0:
294,161,97430,1,0,0:0:0:0:
300,156,97500,2,0,B|351:152|351:152|391:171|391:171|455:165,1,160,4|0,1:1|2:2,0:0:0:0:
419,86,97917,2,0,L|405:37,1,47.9999985351563,8|0,2:3|2:2,0:0:0:0:
290,168,98335,1,8,1:3:0:0:
426,239,98613,2,0,L|475:251,1,47.9999985351563,8|2,2:2|2:2,0:0:0:0:
224,271,99170,6,0,B|122:243,1,71.9999978027344,12|0,1:1|0:0,0:0:0:0:
0,358,99449,6,0,P|59:311|59:205,1,155.999992858887,0|0,3:3|0:0,0:0:0:0:
91,148,99727,6,0,P|141:188|155:252,1,132.00000402832,0|0,3:3|0:0,0:0:0:0:
197,324,100005,6,0,P|230:290|234:224,1,107.999996704102,0|0,3:3|0:0,0:0:0:0:
361,237,100284,6,0,P|402:233|440:215,1,83.9999974365235,0|0,3:3|0:0,0:0:0:0:
506,282,100562,6,0,L|502:321,1,27.9999991455078,8|0,3:1|0:0,0:0:0:0:
372,136,100841,6,0,B|365:89|365:89|375:55|375:55|368:1,1,128,4|0,1:1|2:2,0:0:0:0:
447,95,101258,2,0,L|500:87,1,47.9999985351563,8|0,2:3|2:2,0:0:0:0:
291,39,101676,1,8,1:3:0:0:
494,87,101954,2,0,B|526:110|526:110|428:91,1,120,8|0,2:2|0:0,0:0:0:0:
372,136,102233,2,0,L|297:120,1,64,2|0,2:2|0:0,0:0:0:0:
33,53,102511,6,0,B|-2:149|-2:149|44:206,1,160,4|0,1:1|2:2,0:0:0:0:
202,89,102929,2,0,L|182:38,1,47.9999985351563,8|0,2:3|2:2,0:0:0:0:
131,104,103346,1,8,1:3:0:0:
120,179,103486,1,0,2:2:0:0:
191,216,103625,1,2,2:2:0:0:
239,155,103764,1,0,0:0:0:0:
107,192,103903,2,0,P|68:187|20:184,1,71.9999978027344,2|0,2:2|0:0,0:0:0:0:
478,218,104182,1,12,2:1:0:0:
484,220,104460,6,0,B|440:228|403:199|413:182|374:150|328:158,1,167.999994873047,8|0,2:2|2:2,0:0:0:0:
266,187,104739,1,2,2:2:0:0:
503,134,105295,6,0,P|397:218|265:186,1,280,0|0,2:2|0:0,0:0:0:0:
155,364,105852,6,0,P|179:289|87:228,1,167.999994873047,4|0,1:1|0:0,0:0:0:0:
4,260,106131,2,0,P|41:304|120:294,1,111.999996582031,4|0,2:3|2:2,0:0:0:0:
211,193,106409,2,0,P|205:135|135:98,1,111.999996582031,2|0,2:2|2:2,0:0:0:0:
0,376,106966,6,0,P|71:269|369:248,1,448,2|0,2:1|0:0,0:0:0:0:
444,274,107523,6,0,P|386:328|371:250,1,191.999994140625,4|0,1:1|2:2,0:0:0:0:
433,193,107940,1,0,3:3:0:0:
500,140,108080,2,0,P|500:84|475:55,1,71.9999978027344,0|0,3:3|0:0,0:0:0:0:
339,18,108358,2,0,P|356:85|421:110,1,143.999995605469,2|0,1:2|3:3,0:0:0:0:
259,48,108915,2,0,P|223:48|191:65,1,71.9999978027344,2|0,3:3|2:2,0:0:0:0:
145,244,109193,6,0,P|94:262|14:109,1,240,2|0,1:2|2:2,0:0:0:0:
71,79,109750,2,0,P|87:110|87:146,1,71.9999978027344,0|0,3:3|3:3,0:0:0:0:
34,219,110029,5,2,1:2:0:0:
29,224,110307,1,0,3:3:0:0:
139,350,110585,2,0,P|170:366|206:366,1,71.9999978027344,0|0,3:3|1:1,0:0:0:0:
399,260,110864,6,0,P|410:227|311:175,1,176.000005371094,4|0,1:1|3:3,0:0:0:0:
262,238,111281,1,0,2:2:0:0:
257,243,111421,2,0,L|270:321,1,71.9999978027344,0|0,3:3|0:0,0:0:0:0:
327,377,111699,6,0,P|362:377|414:338,1,95.9999970703126,2|0,1:2|0:0,0:0:0:0:
302,167,111978,2,0,P|279:134|241:122,1,80,0|0,3:3|0:0,0:0:0:0:
132,294,112256,2,0,P|120:313|125:352,1,64,2|0,3:3|2:2,0:0:0:0:
131,359,112534,6,0,P|195:314|274:319,1,160,2|0,1:2|2:2,0:0:0:0:
109,215,112952,2,0,P|38:182|2:111,1,160,0|0,3:3|3:3,0:0:0:0:
1,0,113370,6,0,P|38:11|66:39,1,80,2|0,1:2|0:0,0:0:0:0:
162,15,113648,2,0,P|183:58|177:100,1,64,0|0,3:3|0:0,0:0:0:0:
233,136,113926,2,0,P|229:159|218:180,1,47.9999985351563,0|0,3:3|1:1,0:0:0:0:
67,65,114205,6,0,P|175:34|236:128,1,240,4|0,1:1|3:3,0:0:0:0:
204,204,114762,2,0,P|196:242|200:286,1,71.9999978027344,0|0,3:3|0:0,0:0:0:0:
321,346,115040,6,0,P|423:354|473:265,1,215.999993408203,2|0,1:2|0:0,0:0:0:0:
447,178,115597,2,0,P|415:199|387:233,1,71.9999978027344,2|0,3:3|2:2,0:0:0:0:
316,351,115875,6,0,P|310:289|300:261,1,71.9999978027344,2|0,1:2|0:0,0:0:0:0:
302,181,116154,2,0,P|245:155|216:149,1,71.9999978027344,0|0,2:2|2:2,0:0:0:0:
147,108,116432,2,0,P|96:144|77:166,1,71.9999978027344,0|0,3:3|3:3,0:0:0:0:
312,274,116711,6,0,P|275:223|253:204,1,71.9999978027344,2|0,1:2|0:0,0:0:0:0:
120,165,116989,2,0,P|94:221|88:250,1,71.9999978027344,0|0,3:3|0:0,0:0:0:0:
122,384,117268,2,0,P|184:377|212:367,1,71.9999978027344,0|0,3:3|1:1,0:0:0:0:
264,212,117546,6,0,P|176:219|228:297,1,215.999993408203,4|0,1:1|2:2,0:0:0:0:
290,352,118103,2,0,P|307:320|307:285,1,71.9999978027344,0|0,3:3|0:0,0:0:0:0:
446,191,118381,6,0,P|392:238|449:195,1,215.999993408203,2|0,1:2|0:0,0:0:0:0:
414,273,118938,2,0,P|445:290|480:290,1,71.9999978027344,2|0,3:3|2:2,0:0:0:0:
512,83,119217,6,0,L|441:95,1,55.9999982910157,10|0,1:2|0:0,0:0:0:0:
344,0,119495,2,0,L|389:55,1,55.9999982910157,0|0,2:2|3:3,0:0:0:0:
354,184,119773,2,0,L|379:117,1,55.9999982910157,0|0,2:2|3:3,0:0:0:0:
459,2,120052,6,0,P|405:89|223:94,1,287.999991210938,2|0,1:2|3:3,0:0:0:0:
186,29,120748,1,0,1:1:0:0:
44,3,120887,6,0,P|19:83|89:159,1,160,12|0,1:1|0:0,0:0:0:0:
112,68,121305,1,8,2:3:0:0:
60,148,121444,2,0,P|122:162|171:143,1,80,8|0,2:3|2:2,0:0:0:0:
271,112,121722,6,0,P|312:161|308:225,1,132.00000402832,2|0,1:2|2:2,0:0:0:0:
313,230,122001,2,0,P|334:196|373:171,1,88.000002685547,8|0,2:3|0:0,0:0:0:0:
480,192,122279,2,0,P|498:227|499:268,1,60.0000022888184,0|0,2:2|2:2,0:0:0:0:
391,384,122558,6,0,P|326:327|241:334,1,176.000005371094,2|0,1:2|2:2,0:0:0:0:
154,375,122975,1,8,2:3:0:0:
163,282,123114,2,0,P|161:238|141:199,1,80,8|0,2:3|2:2,0:0:0:0:
299,165,123393,6,0,B|342:171|348:218|348:218|319:258|277:239,1,160,2|8,1:2|1:3,0:0:0:0:
221,186,123810,1,0,2:2:0:0:
294,159,123950,2,0,P|330:142|370:142,1,80,0|0,2:2|2:2,0:0:0:0:
400,365,124228,6,0,P|315:371|247:317,1,176.000005371094,2|0,1:1|2:2,0:0:0:0:
347,260,124646,1,8,2:3:0:0:
242,310,124785,2,0,P|229:245|258:187,1,120,8|0,2:3|2:2,0:0:0:0:
256,192,125063,6,0,P|311:173|341:122,1,120,2|0,1:2|0:0,0:0:0:0:
186,101,125342,2,0,P|133:102|77:151,1,88.000002685547,8|0,2:3|0:0,0:0:0:0:
350,122,125620,2,0,P|344:75|319:34,1,95.9999970703126,0|0,2:2|2:2,0:0:0:0:
257,324,125899,6,0,B|378:214|245:32|157:249|279:217,1,311.999985717774,2|8,1:2|2:3,0:0:0:0:
276,212,126386,1,8,2:3:0:0:
277,205,126455,2,0,P|242:174|266:214,1,132.00000402832,8|0,2:3|0:0,0:0:0:0:
363,298,126734,2,0,P|418:296|480:239,1,143.999995605469,2|8,1:2|1:3,0:0:0:0:
482,233,127152,1,0,3:2:0:0:
512,321,127291,1,0,3:2:0:0:
29,383,127569,6,0,P|-25:277|1:163,1,240,2|8,1:1|2:3,0:0:0:0:
97,106,128126,2,0,P|100:148|80:187,1,80,8|0,2:3|2:2,0:0:0:0:
188,307,128404,6,0,P|222:194|322:132,1,240,2|8,1:2|2:3,0:0:0:0:
406,133,128961,1,8,2:3:0:0:
341,384,129240,6,0,P|387:347|444:329,1,120,2|0,1:2|2:2,0:0:0:0:
506,261,129518,2,0,P|486:222|486:179,1,88.000002685547,0|0,2:2|2:2,0:0:0:0:
438,39,129797,2,0,P|437:82|410:130,1,95.9999970703126,8|0,2:3|2:2,0:0:0:0:
326,135,130075,6,0,P|300:63|232:28,1,155.999992858887,2|0,1:2|2:2,0:0:0:0:
149,56,130353,2,0,P|124:95|122:160,1,95.9999970703126,0|0,2:2|0:0,0:0:0:0:
321,140,130632,2,0,P|282:115|217:113,1,80,8|0,2:3|2:2,0:0:0:0:
0,224,130910,6,0,B|140:224|70:259|211:259,1,215.999993408203,2|8,1:1|2:3,0:0:0:0:
252,189,131467,2,0,P|283:223|296:265,1,71.9999978027344,8|0,2:3|2:2,0:0:0:0:
369,384,131746,2,0,P|361:295|407:208,1,160,2|0,1:2|2:2,0:0:0:0:
456,0,132302,2,0,P|455:39|469:76,1,80,8|0,2:3|2:2,0:0:0:0:
512,192,132581,6,0,P|423:82|288:97,1,287.999991210938,2|8,1:2|2:3,0:0:0:0:
128,83,133138,2,0,P|126:43|140:6,1,80,8|0,2:3|2:2,0:0:0:0:
254,212,133416,6,0,P|151:349|138:175,1,447.999986328125,2|0,1:2|2:2,0:0:0:0:
145,175,134112,1,0,1:1:0:0:
256,384,134251,1,6,1:1:0:0:
0,208,134530,5,0,3:3:0:0:
153,172,134669,1,0,3:3:0:0:
259,146,134808,1,0,3:3:0:0:
333,127,135087,1,2,3:2:0:0:
384,113,135643,6,0,L|324:103,1,60.0000022888184,0|0,2:2|2:2,0:0:0:0:
182,69,135922,1,2,2:2:0:0:
362,21,136200,1,8,2:3:0:0:
512,192,136479,1,0,2:2:0:0:
379,118,136757,5,2,2:2:0:0:
507,197,137036,1,8,2:3:0:0:
270,302,137314,2,0,L|260:242,1,60.0000022888184,0|0,3:3|0:0,0:0:0:0:
256,0,137592,1,6,3:1:0:0:
419,344,137871,5,0,3:3:0:0:
266,308,138010,1,0,3:3:0:0:
160,282,138149,1,0,3:3:0:0:
86,263,138428,1,2,3:2:0:0:
2,86,138706,6,0,P|8:44|32:12,1,80,0|0,2:2|2:2,0:0:0:0:
35,249,138985,1,8,2:3:0:0:
143,137,139263,6,0,P|17:133|24:7,1,279.999991455078,2|0,2:2|0:0,0:0:0:0:
109,0,140098,6,0,P|136:1|162:12,1,55.9999982910157,2|0,2:2|0:0,0:0:0:0:
215,84,140377,2,0,P|228:112|230:144,1,64,0|0,2:2|2:2,0:0:0:0:
192,231,140655,2,0,P|171:260|142:279,1,71.9999978027344,8|0,2:3|2:2,0:0:0:0:
0,383,140933,6,0,P|125:313|266:326,1,287.999991210938,4|0,2:2|2:2,0:0:0:0:
360,374,141630,1,8,2:3:0:0:
409,277,141769,2,0,P|440:222|496:192,2,128,0|0|0,2:2|2:2|2:2,0:0:0:0:
512,90,142604,6,0,P|431:65|350:88,1,167.999994873047,8|0,2:3|2:2,0:0:0:0:
348,83,143161,2,0,P|368:48|369:14,1,55.9999982910157,8|0,2:3|0:0,0:0:0:0:
256,0,143439,2,0,P|193:57|173:139,1,167.999994873047,8|0,2:3|0:0,0:0:0:0:
208,208,143996,1,0,2:2:0:0:
0,246,144275,6,0,P|-14:348|83:384,1,223.999993164063,8|8,2:3|2:3,0:0:0:0:
158,303,145110,2,0,P|172:250|212:213,2,111.999996582031,8|0|8,2:3|2:2|2:3,0:0:0:0:
325,375,145945,2,0,P|360:307|264:327,1,223.999993164063,8|8,2:3|2:3,0:0:0:0:
330,380,146780,6,0,P|357:373|380:357,1,55.9999982910157,8|0,2:3|0:0,0:0:0:0:
370,265,147059,2,0,P|378:234|376:203,1,64,0|0,2:2|0:0,0:0:0:0:
280,161,147337,2,0,P|255:135|223:120,1,71.9999978027344,8|0,2:3|0:0,0:0:0:0:
471,165,147616,6,0,P|496:140|505:28,1,143.999995605469,6|0,2:1|0:0,0:0:0:0:
430,63,148033,1,0,2:2:0:0:
506,29,148172,2,0,P|485:0|455:-17,1,71.9999978027344,8|0,2:3|2:2,0:0:0:0:
222,55,148451,6,0,P|212:89|217:124,1,71.9999978027344,0|0,3:3|2:2,0:0:0:0:
351,89,148729,2,0,P|339:56|313:32,1,71.9999978027344,0|0,3:3|2:2,0:0:0:0:
150,183,149008,2,0,P|178:204|213:213,1,71.9999978027344,0|0,3:3|2:2,0:0:0:0:
374,187,149286,6,0,P|340:174|268:313,1,215.999993408203,6|0,2:1|2:2,0:0:0:0:
381,322,149843,2,0,P|402:293|411:258,1,71.9999978027344,8|0,2:3|2:2,0:0:0:0:
314,75,150121,6,0,B|244:63|276:89|196:80,1,119.999996337891,2|0,2:2|2:2,0:0:0:0:
18,7,150957,6,0,P|126:28|190:74,1,191.999994140625,12|0,1:1|0:0,0:0:0:0:
217,161,151374,2,0,P|270:140|277:83,1,120.000004577637,0|0,1:0|2:2,0:0:0:0:
128,230,151792,6,0,P|104:283|117:341,1,120,0|0,1:1|2:2,0:0:0:0:
122,346,152070,2,0,P|169:311|183:260,1,88.000002685547,0|0,3:2|2:2,0:0:0:0:
133,152,152349,2,0,P|92:130|45:135,1,95.9999970703126,0|0,3:2|2:2,0:0:0:0:
244,336,152627,6,0,P|332:344|416:161,1,311.999985717774,8|0,1:1|2:2,0:0:0:0:
497,114,153184,2,0,P|501:154|513:193,1,80,0|0,3:2|2:2,0:0:0:0:
419,384,153462,2,0,P|401:298|351:226,1,176.000005371094,0|2,1:1|2:1,0:0:0:0:
286,158,153880,1,0,2:2:0:0:
256,250,154019,1,8,2:2:0:0:
512,0,154298,6,0,P|458:37|394:50,1,132.00000402832,8|0,1:1|2:2,0:0:0:0:
324,88,154576,2,0,P|314:41|335:-3,1,95.9999970703126,2|0,2:3|2:2,0:0:0:0:
502,110,154855,2,0,P|475:149|429:166,1,95.9999970703126,2|0,2:3|2:2,0:0:0:0:
262,245,155133,6,0,P|207:190|132:172,1,155.999992858887,0|0,1:1|2:2,0:0:0:0:
61,223,155411,2,0,P|34:264|-1:285,1,88.000002685547,2|0,2:3|2:2,0:0:0:0:
294,146,155690,2,0,P|280:103|258:72,1,80,2|0,2:3|0:0,0:0:0:0:
52,133,155968,6,0,P|105:262|256:249,1,311.999985717774,8|0,1:1|0:0,0:0:0:0:
374,191,156525,2,0,P|352:224|345:262,1,80,0|0,2:2|2:2,0:0:0:0:
512,384,156804,2,0,P|508:292|426:253,2,191.999994140625,0|2|8,1:1|2:1|2:2,0:0:0:0:
252,243,157639,6,0,P|250:151|331:109,1,176.000005371094,8|0,1:1|2:2,0:0:0:0:
395,88,158056,1,2,2:2:0:0:
400,93,158196,2,0,P|397:132|378:167,1,80,0|0,1:2|2:2,0:0:0:0:
374,332,158474,6,0,P|466:330|508:411,1,160,0|0,1:1|2:2,0:0:0:0:
248,238,159031,2,0,P|208:241|173:260,1,80,0|0,1:2|2:2,0:0:0:0:
7,158,159309,6,0,P|1:66|75:12,1,191.999994140625,8|0,1:1|2:2,0:0:0:0:
155,15,159727,1,2,2:2:0:0:
110,86,159866,2,0,P|84:56|73:17,1,80,0|0,1:2|2:2,0:0:0:0:
314,109,160145,6,0,P|316:201|235:243,2,176.000005371094,0|2|8,1:1|2:1|2:2,0:0:0:0:
266,25,160841,1,0,2:2:0:0:
405,95,160980,6,0,P|448:102|492:99,1,88.000002685547,8|0,1:1|0:0,0:0:0:0:
301,349,161397,1,2,2:2:0:0:
247,238,161537,2,0,P|286:189|348:187,1,120,0|0,2:2|2:2,0:0:0:0:
347,190,161815,6,0,L|330:268,1,80,0|0,1:1|2:2,0:0:0:0:
196,121,162094,2,0,L|136:67,1,80,2|0,2:3|2:2,0:0:0:0:
326,24,162372,2,0,L|402:-1,1,80,2|0,2:3|2:2,0:0:0:0:
512,192,162650,6,0,P|373:217|290:109,1,287.999991210938,8|0,1:1|2:2,0:0:0:0:
387,101,163207,2,0,P|380:149|349:205,1,80,2|0,2:2|2:2,0:0:0:0:
175,308,163486,5,2,1:3:0:0:
149,314,163764,1,2,2:3:0:0:
117,321,164043,2,0,L|126:374,1,40,2|0,2:3|2:2,0:0:0:0:
302,384,164321,6,0,P|269:260|164:199,1,207.999990478516,12|0,1:1|0:0,0:0:0:0:
93,192,164739,2,0,P|79:247|126:278,1,120.000004577637,0|2,1:0|2:1,0:0:0:0:
215,208,165156,6,0,P|280:197|340:207,1,120,8|0,1:2|0:0,0:0:0:0:
358,297,165435,2,0,P|307:295|269:272,1,88.000002685547,2|0,2:2|0:0,0:0:0:0:
189,126,165713,2,0,P|188:79|209:36,1,95.9999970703126,2|0,1:2|2:2,0:0:0:0:
464,67,165991,6,0,P|383:180|272:96,1,311.999985717774,8|0,1:1|2:2,0:0:0:0:
115,0,166548,2,0,P|75:3|40:21,1,80,2|0,1:2|2:2,0:0:0:0:
44,177,166827,6,0,P|126:195|190:139,1,176.000005371094,0|2,1:1|2:1,0:0:0:0:
194,44,167244,1,0,1:2:0:0:
110,5,167384,1,8,2:2:0:0:
135,363,167662,6,0,P|174:382|269:365,1,132.00000402832,8|0,1:1|0:0,0:0:0:0:
307,294,167940,2,0,P|304:250|278:203,1,95.9999970703126,2|0,2:3|2:2,0:0:0:0:
132,213,168219,2,0,P|160:252|201:277,1,95.9999970703126,2|0,2:3|2:2,0:0:0:0:
379,222,168497,6,0,P|379:174|450:90,1,155.999992858887,0|0,1:1|2:2,0:0:0:0:
512,166,168776,2,0,P|499:208|473:242,1,88.000002685547,2|0,2:3|0:0,0:0:0:0:
305,51,169054,2,0,P|336:80|357:150,1,80,2|0,2:3|2:2,0:0:0:0:
130,206,169333,6,0,P|164:54|318:60,1,311.999985717774,8|0,1:1|2:2,0:0:0:0:
357,118,169889,1,0,3:2:0:0:
354,209,170029,1,0,3:2:0:0:
204,138,170168,6,0,P|272:154|202:163,1,191.999994140625,0|2,1:1|2:1,0:0:0:0:
221,384,170725,2,0,L|204:289,1,95.9999970703126,8|0,2:2|2:2,0:0:0:0:
129,132,171003,6,0,P|76:136|3:248,1,191.999994140625,8|0,1:1|2:2,0:0:0:0:
115,347,171421,1,0,3:2:0:0:
186,318,171560,1,0,1:2:0:0:
218,248,171699,1,0,3:2:0:0:
199,173,171838,2,0,P|228:216|362:224,1,191.999994140625,0|2,1:1|2:1,0:0:0:0:
253,38,172395,2,0,P|221:61|200:95,1,80,8|0,2:2|2:2,0:0:0:0:
299,136,172674,6,0,P|328:92|462:84,1,191.999994140625,8|0,1:1|2:2,0:0:0:0:
390,293,173091,1,0,3:2:0:0:
379,215,173230,1,0,1:2:0:0:
426,153,173370,1,0,3:2:0:0:
502,142,173509,2,0,P|507:181|441:265,1,132.00000402832,0|0,1:1|2:2,0:0:0:0:
385,288,173787,6,0,P|351:260|309:246,1,88.000002685547,2|0,2:1|2:2,0:0:0:0:
211,206,174066,2,0,P|186:212|133:251,1,88.000002685547,8|0,2:2|0:0,0:0:0:0:
34,377,174344,6,0,L|128:359,1,95.9999970703126,8|0,1:1|2:2,0:0:0:0:
232,342,174623,2,0,L|205:200,1,143.999995605469,0|0,3:2|2:2,0:0:0:0:
190,123,174901,2,0,P|231:109|265:81,1,88.000002685547,0|0,3:2|2:2,0:0:0:0:
367,2,175179,6,0,L|340:144,1,143.999995605469,0|0,1:1|2:2,0:0:0:0:
325,223,175458,2,0,L|419:205,1,95.9999970703126,0|0,3:2|2:2,0:0:0:0:
512,192,175736,1,0,1:2:0:0:
227,347,176015,6,0,P|100:342|124:218,1,287.999991210938,8|0,1:1|2:2,0:0:0:0:
214,154,176572,2,0,P|218:186|201:230,1,80,0|0,1:2|2:2,0:0:0:0:
0,295,176850,6,0,L|283:244,1,287.999991210938,0|0,1:1|2:2,0:0:0:0:
373,175,177407,2,0,P|377:136|357:84,1,95.9999970703126,8|0,2:2|2:2,0:0:0:0:
224,0,177685,5,4,1:1:0:0:
256,192,177703,12,0,181026,3:3:0:0:
288,384,184367,6,0,P|280:344|262:309,1,64,2|0,2:2|0:0,0:0:0:0:
220,263,184646,2,0,P|255:191|271:113,1,160,2|0,2:2|2:2,0:0:0:0:
259,34,185481,2,0,P|337:17|402:-14,1,140,2|0,2:2|0:0,0:0:0:0:
397,0,186038,6,0,L|402:31,1,23.9999992675781,0|0,2:2|0:0,0:0:0:0:
467,66,186316,2,0,L|472:97,1,23.9999992675781,0|0,2:2|2:2,0:0:0:0:
397,100,186595,2,0,L|402:131,1,23.9999992675781,0|0,2:2|2:2,0:0:0:0:
475,212,186873,6,0,L|470:188,1,23.9999992675781,8|0,2:3|2:2,0:0:0:0:
465,318,187152,2,0,L|460:294,1,23.9999992675781,0|0,2:2|2:2,0:0:0:0:
512,384,187430,1,8,2:3:0:0:
389,244,187708,6,0,P|193:242|64:384,1,400,2|0,2:2|0:0,0:0:0:0:
0,320,189379,6,0,P|1:306|4:292,2,27.9999991455078,0|0|0,2:2|2:2|2:2,0:0:0:0:
126,316,189657,2,0,P|160:359|191:378,1,80,8|0,2:3|2:2,0:0:0:0:
326,368,190214,6,0,P|342:331|344:316,1,40,0|0,2:2|2:2,0:0:0:0:
268,275,190493,2,0,P|264:235|258:221,1,40,0|0,2:2|2:2,0:0:0:0:
183,261,190771,1,8,2:3:0:0:
331,373,191049,6,0,P|333:177|98:35,1,480,0|0,2:2|2:2,0:0:0:0:
107,39,192998,5,0,2:2:0:0:
72,112,193277,6,0,P|90:118|110:117,1,40,0|0,2:2|0:0,0:0:0:0:
134,216,193555,6,0,P|158:203|177:183,1,55.9999982910157,2|0,2:2|2:2,0:0:0:0:
273,279,193834,6,0,P|283:245|281:210,1,71.9999978027344,2|0,2:2|2:2,0:0:0:0:
476,229,194112,6,0,P|457:190|423:162,1,88.000002685547,2|0,2:2|2:2,0:0:0:0:
512,0,194391,6,0,P|470:41|514:2,1,176.000005371094,12|0,2:1|0:0,0:0:0:0:
380,30,194808,2,0,P|346:61|253:64,1,128,0|0,2:2|2:2,0:0:0:0:
194,36,195226,1,2,1:2:0:0:
31,214,195504,6,0,P|35:264|77:308,1,80
127,267,195783,2,0,P|123:217|81:173,1,80,8|0,2:2|1:1,0:0:0:0:
50,288,196061,6,0,P|103:317|207:224,1,207.999990478516,2|0,1:2|0:0,0:0:0:0:
414,189,196479,2,0,P|460:170|458:213,1,103.999995239258,0|0,0:0|2:2,0:0:0:0:
460,215,196757,1,0,2:2:0:0:
342,244,196896,6,0,P|322:199|368:110,1,132.00000402832,2|0,1:2|0:0,0:0:0:0:
364,99,197175,2,0,P|373:64|366:30,1,71.9999978027344,8|0,2:2|0:0,0:0:0:0:
282,207,197453,2,0,P|307:231|341:243,1,71.9999978027344,0|0,1:1|0:0,0:0:0:0:
263,113,197732,6,0,B|227:112|203:145|203:145|207:103|260:82,1,143.999995605469,2|0,1:2|0:0,0:0:0:0:
277,22,198149,1,0,2:2:0:0:
449,293,198428,1,0,2:2:0:0:
396,344,198567,2,0,L|323:372,1,55.9999982910157,2|0,1:2|0:0,0:0:0:0:
171,329,198845,6,0,P|264:323|305:279,1,120,8|0,2:2|0:0,0:0:0:0:
288,300,199124,2,0,L|318:222,1,80,0|0,2:2|0:0,0:0:0:0:
162,197,199402,6,0,L|176:255,1,55.9999982910157,2|0,1:2|0:0,0:0:0:0:
74,301,199681,6,0,L|42:261,2,40,0|0|8,3:3|0:0|2:2,0:0:0:0:
38,118,200237,6,0,P|11:120|-14:109,1,55.9999982910157,2|0,1:2|0:0,0:0:0:0:
137,72,200516,6,0,P|119:38|125:1,1,71.9999978027344,0|0,2:2|3:3,0:0:0:0:
226,136,200794,6,0,P|256:95|318:95,1,88.000002685547,8|0,3:2|1:1,0:0:0:0:
503,324,201073,6,0,P|462:366|496:318,1,176.000005371094,8|0,2:1|2:2,0:0:0:0:
475,231,201490,2,0,P|408:255|371:315,1,143.999995605469,8|0,2:2|2:2,0:0:0:0:
316,374,201908,1,2,1:2:0:0:
31,170,202186,6,0,P|35:120|77:76,1,80
127,117,202465,2,0,P|123:167|81:211,1,80,0|8,2:2|2:2,0:0:0:0:
7,326,202743,6,0,P|81:368|132:275,1,207.999990478516,2|0,1:2|0:0,0:0:0:0:
248,177,203161,2,0,P|294:158|292:201,1,103.999995239258,0|0,0:0|2:2,0:0:0:0:
297,202,203439,1,0,2:2:0:0:
475,311,203578,6,0,P|513:285|458:238,1,132.00000402832,2|0,1:2|0:0,0:0:0:0:
408,363,203857,2,0,P|373:372|339:365,1,71.9999978027344,8|0,2:2|0:0,0:0:0:0:
297,202,204135,2,0,P|322:178|356:166,1,71.9999978027344,0|0,1:1|3:3,0:0:0:0:
467,234,204414,6,0,B|375:236|410:278|311:279,1,160,8|0,2:1|0:0,0:0:0:0:
256,320,204831,1,8,2:2:0:0:
116,53,205110,1,0,1:2:0:0:
169,104,205249,2,0,L|242:132,1,55.9999982910157,2|0,1:2|0:0,0:0:0:0:
370,27,205527,6,0,P|277:33|236:77,1,120
253,56,205806,2,0,L|337:86,1,80,8|0,2:2|2:2,0:0:0:0:
401,241,206084,6,0,L|343:302,1,64,2|0,1:2|0:0,0:0:0:0:
204,213,206363,6,0,L|219:154,1,47.9999985351563,0|0,3:2|0:0,0:0:0:0:
317,185,206641,5,0,1:1:0:0:
317,185,206780,1,0,3:2:0:0:
317,185,206920,1,4,1:3:0:0:
3,251,207198,5,0,1:1:0:0:
19,298,207337,1,0,3:2:0:0:
68,344,207476,1,0,1:1:0:0:
139,360,207616,1,0,3:3:0:0:
215,341,207755,6,0,P|258:318|302:311,1,88.000002685547,8|0,1:1|0:0,0:0:0:0:
350,203,208033,2,0,L|344:251,1,47.9999985351563,0|0,2:2|0:0,0:0:0:0:
381,371,208312,6,0,P|442:293|507:277,1,132.00000402832,0|0,2:2|0:0,0:0:0:0:
487,261,208590,2,0,P|455:305|477:256,1,160,0|2,1:1|2:2,0:0:0:0:
510,187,209008,1,0,0:0:0:0:
459,128,209147,2,0,P|421:107|356:118,1,80,0|0,2:2|2:2,0:0:0:0:
210,185,209425,6,0,P|144:227|62:216,1,155.999992858887,0|0,1:1|0:0,0:0:0:0:
62,217,209704,2,0,P|45:185|-17:163,1,88.000002685547,8|0,2:2|0:0,0:0:0:0:
286,33,209982,6,0,P|293:78|206:69,1,132.00000402832,0|0,1:1|0:0,0:0:0:0:
216,94,210261,2,0,P|196:165|147:76,1,223.999993164063,12|0,2:1|2:2,0:0:0:0:
131,81,210678,6,0,P|111:70|130:57,2,55.9999982910157,0|0|8,1:1|0:0|1:2,0:0:0:0:
125,69,210957,1,0,0:0:0:0:
22,234,211096,6,0,P|55:275|150:280,1,111.999996582031,8|0,1:1|0:0,0:0:0:0:
204,208,211374,2,0,L|184:260,1,55.9999982910157,0|0,2:2|0:0,0:0:0:0:
187,374,211653,6,0,P|251:359|301:306,1,132.00000402832,0|0,1:1|0:0,0:0:0:0:
296,313,211931,1,8,1:1:0:0:
442,180,212210,1,0,0:0:0:0:
471,216,212349,1,0,2:2:0:0:
471,248,212488,1,8,2:2:0:0:
458,267,212627,1,0,2:2:0:0:
444,273,212766,6,0,P|406:267|406:227,1,71.9999978027344,2|0,1:2|0:0,0:0:0:0:
442,180,213045,6,0,P|511:175|481:96,1,167.999994873047,0|0,2:2|0:0,0:0:0:0:
485,100,213323,2,0,P|516:97|479:83,1,111.999996582031,8|0,1:2|0:0,0:0:0:0:
437,10,213602,2,0,P|406:54|403:70,1,64,12|8,2:1|2:1,0:0:0:0:
442,180,214019,1,0,3:3:0:0:
249,243,214159,6,0,L|201:234,1,47.9999985351563,8|0,3:2|1:1,0:0:0:0:
150,181,214437,2,0,P|75:223|12:224,1,143.999995605469,8|0,2:1|2:2,0:0:0:0:
31,143,214994,2,0,P|17:100|23:71,1,55.9999982910157,0|0,3:3|1:1,0:0:0:0:
102,26,215272,6,0,P|90:98|18:91,1,160,10|0,1:2|0:0,0:0:0:0:
18,225,215690,1,0,0:0:0:0:
63,284,215829,2,0,P|107:302|162:275,1,80,0|0,2:2|3:3,0:0:0:0:
245,236,216107,6,0,P|315:226|398:281,1,160,2|0,1:2|0:0,0:0:0:0:
452,218,216525,2,0,P|486:192|499:153,1,64,0|8,0:0|2:2,0:0:0:0:
430,51,216804,5,0,1:1:0:0:
359,71,216943,2,0,P|331:117|358:206,1,120.000004577637,2|0,1:2|0:0,0:0:0:0:
283,260,217221,2,0,P|309:288|345:304,1,80,0|8,2:2|3:2,0:0:0:0:
393,369,217500,2,0,P|429:351|447:308,1,68.0000012969971,8|0,3:2|1:1,0:0:0:0:
473,109,217778,6,0,P|391:117|338:179,1,167.999994873047,2|0,1:2|0:0,0:0:0:0:
283,260,218335,2,0,L|294:339,1,55.9999982910157,8|0,2:2|2:2,0:0:0:0:
286,323,218613,6,0,P|171:315|129:237,1,160,2|0,1:2|2:2,0:0:0:0:
31,240,219031,1,0,0:0:0:0:
59,207,219170,1,8,1:2:0:0:
74,250,219309,1,0,1:1:0:0:
0,151,219449,6,0,P|73:174|194:76,1,240,0|0,1:1|0:0,0:0:0:0:
364,90,220005,2,0,L|372:15,1,64,8|0,1:2|2:2,0:0:0:0:
383,16,220284,6,0,P|480:20|522:146,1,223.999993164063,2|0,1:2|0:0,0:0:0:0:
480,256,220701,1,0,0:0:0:0:
400,322,220841,1,0,0:0:0:0:
327,344,220980,1,0,0:0:0:0:
297,347,221119,1,4,2:1:0:0:
274,344,221258,2,0,B|265:279|289:300|280:233,1,111.999996582031,2|0,2:2|2:2,0:0:0:0:
281,234,221815,1,2,1:1:0:0:
38,101,222233,6,0,L|48:47,1,48,8|0,2:1|2:2,0:0:0:0:
55,44,222790,5,4,2:1:0:0:
238,148,222929,2,0,P|255:126|265:87,1,60.0000022888184,2|0,2:2|2:2,0:0:0:0:
363,81,223207,2,0,P|406:117|417:141,1,60.0000022888184,0|0,1:2|2:2,0:0:0:0:
489,8,223486,2,0,P|443:12|417:30,1,60.0000022888184,4|0,1:1|2:2,0:0:0:0:
3,321,223903,6,0,L|14:390,1,64,8|0,2:1|0:0,0:0:0:0:
0,164,232813,6,0,P|63:105|129:120,1,143.999995605469,2|2,2:2|2:2,0:0:0:0:
121,118,233370,2,0,P|107:141|81:162,1,47.9999985351563,2|0,2:2|0:0,0:0:0:0:
53,277,233648,6,0,P|135:302|155:366,1,143.999995605469,2|0,2:2|0:0,0:0:0:0:
160,355,234205,2,0,P|176:372|197:384,1,47.9999985351563,2|0,2:2|0:0,0:0:0:0:
347,333,234483,6,0,P|362:284|326:196,1,143.999995605469,2|2,2:2|2:2,0:0:0:0:
335,195,235040,2,0,P|351:177|372:165,1,47.9999985351563,2|0,2:2|0:0,0:0:0:0:
264,302,235319,2,0,P|217:256|272:291,1,191.999994140625,2|0,2:2|0:0,0:0:0:0:
202,379,236015,5,0,0:0:0:0:
76,357,236154,2,0,P|9:292|17:199,1,192,6|2,2:2|2:2,0:0:0:0:
90,124,236711,2,0,P|99:86|90:35,1,64,2|0,2:2|0:0,0:0:0:0:
22,205,236989,6,0,P|29:235|94:280,1,107.999996704102,2|0,2:2|0:0,0:0:0:0:
185,193,237268,2,0,P|207:170|214:92,1,107.999996704102,2|0,2:2|0:0,0:0:0:0:
93,57,237546,2,0,P|62:48|-8:81,1,107.999996704102,2|0,2:2|0:0,0:0:0:0:
105,201,237824,6,0,L|199:217,1,71.9999978027344,6|0,2:2|0:0,0:0:0:0:
317,129,238103,2,0,P|315:41|280:0,1,143.999995605469,2|0,2:2|3:3,0:0:0:0:
209,317,238660,2,0,P|213:352|228:384,1,71.9999978027344,10|0,2:2|0:0,0:0:0:0:
420,368,238938,5,2,2:2:0:0:
422,282,239077,1,2,2:2:0:0:
362,220,239217,1,2,2:2:0:0:
276,220,239356,1,2,2:2:0:0:
479,148,239495,6,0,P|401:258|270:224,1,287.999991210938,14|8,2:2|3:3,0:0:0:0:
164,160,240052,2,0,P|112:170|82:239,1,95.9999970703126,2|0,2:2|0:0,0:0:0:0:
275,217,240330,6,0,P|322:193|333:119,1,95.9999970703126,10|0,2:2|0:0,0:0:0:0:
81,196,240609,2,0,P|63:246|108:306,1,95.9999970703126,2|0,2:2|0:0,0:0:0:0:
265,139,240888,2,0,L|251:60,1,60.0000022888184,10|0,2:2|0:0,0:0:0:0:
29,2,241165,6,0,P|41:141|180:126,1,311.999985717774,6|0,2:2|3:3,0:0:0:0:
259,74,241722,2,0,P|297:88|325:116,1,80,2|0,2:2|0:0,0:0:0:0:
338,260,242001,6,0,P|363:138|470:172,1,264.000008056641,2|0,2:2|0:0,0:0:0:0:
512,312,242558,2,0,P|500:350|474:380,1,80,2|0,2:2|0:0,0:0:0:0:
333,265,242836,6,0,P|252:217|186:239,1,143.999995605469,2|0,2:2|0:0,0:0:0:0:
158,287,243114,2,0,P|158:338|187:382,1,95.9999970703126,2|8,2:2|3:3,0:0:0:0:
401,311,243393,2,0,P|414:261|397:211,1,95.9999970703126,2|0,2:2|0:0,0:0:0:0:
276,153,243671,6,0,B|240:238|283:220|247:306,1,155.999992858887,10|0,2:2|0:0,0:0:0:0:
185,380,243950,2,0,P|134:380|90:351,1,88.000002685547,2|0,2:2|0:0,0:0:0:0:
0,192,244228,2,0,P|35:174|75:174,1,80,10|0,2:2|0:0,0:0:0:0:
204,84,244507,6,0,P|90:184|16:0,1,415.999980957032,6|2,2:2|2:2,0:0:0:0:
174,0,245203,1,2,2:2:0:0:
76,100,245342,6,0,P|110:45|83:104,1,191.999994140625,2|10,2:2|2:2,0:0:0:0:
375,131,245899,2,0,L|280:147,1,95.9999970703126,2|0,2:2|0:0,0:0:0:0:
164,239,246177,6,0,P|150:329|223:384,1,191.999994140625,14|2,2:2|2:2,0:0:0:0:
320,313,246594,1,10,2:2:0:0:
303,236,246734,1,2,2:2:0:0:
233,205,246873,1,2,2:2:0:0:
325,318,247012,6,0,P|415:333|470:261,1,176.000005371094,10|2,2:2|2:2,0:0:0:0:
465,48,247569,2,0,P|483:87|482:131,1,88.000002685547,10|0,2:2|0:0,0:0:0:0:
298,241,247848,6,0,P|207:256|141:187,1,191.999994140625,6|2,2:2|2:2,0:0:0:0:
119,57,248265,1,2,2:2:0:0:
95,129,248404,1,2,2:2:0:0:
20,143,248544,1,2,2:2:0:0:
3,11,248683,2,0,P|70:5|127:54,1,143.999995605469,2|0,2:2|0:0,0:0:0:0:
177,113,248961,6,0,P|217:125|276:110,1,95.9999970703126,10|0,2:2|0:0,0:0:0:0:
325,49,249240,2,0,L|419:32,1,95.9999970703126,2|0,2:2|0:0,0:0:0:0:
220,204,249518,6,0,L|245:345,1,143.999995605469,2|0,2:2|0:0,0:0:0:0:
334,375,249797,2,0,P|356:333|356:285,1,95.9999970703126,2|8,2:2|3:3,0:0:0:0:
320,181,250075,2,0,L|226:199,1,95.9999970703126,2|0,2:2|0:0,0:0:0:0:
15,291,250353,6,0,L|156:266,1,143.999995605469,10|0,2:2|0:0,0:0:0:0:
220,204,250632,2,0,P|219:156|197:114,1,95.9999970703126,2|0,2:2|0:0,0:0:0:0:
117,43,250910,1,10,2:2:0:0:
342,88,251189,6,0,P|241:226|84:128,1,383.99998828125,2|2,2:2|2:2,0:0:0:0:
122,38,251885,1,2,2:2:0:0:
83,128,252024,6,0,P|46:98|0:88,1,95.9999970703126,10|0,2:2|0:0,0:0:0:0:
231,194,252302,2,0,L|247:288,1,95.9999970703126,10|0,2:2|3:3,0:0:0:0:
347,82,252581,2,0,P|371:42|411:17,1,95.9999970703126,2|0,2:2|3:3,0:0:0:0:
512,191,252859,6,0,P|207:224|480:85,1,863.999973632813,14|2,2:2|2:2,0:0:0:0:
319,250,254251,2,0,P|288:214|281:165,1,95.9999970703126,2|0,2:2|2:2,0:0:0:0:
482,88,254530,6,0,P|503:186|468:277,1,176.000005371094,2|2,2:2|2:2,0:0:0:0:
421,309,254947,1,2,2:2:0:0:
314,255,255087,2,0,P|272:241|230:250,1,88.000002685547,2|0,2:2|3:3,0:0:0:0:
101,361,255365,6,0,P|39:299|-45:275,1,160,2|2,2:2|2:2,0:0:0:0:
0,192,255783,1,0,0:0:0:0:
118,125,255922,1,2,2:2:0:0:
123,120,256200,6,0,B|229:120|185:153|294:152,1,176.000005371094,6|2,2:2|2:2,0:0:0:0:
359,193,256618,1,0,2:2:0:0:
452,110,256757,2,0,P|446:66|424:28,1,88.000002685547,2|0,2:2|0:0,0:0:0:0:
254,66,257036,6,0,P|253:136|209:192,1,143.999995605469,2|0,2:2|0:0,0:0:0:0:
136,204,257314,2,0,P|81:179|50:122,1,95.9999970703126,2|0,2:2|0:0,0:0:0:0:
288,148,257592,2,0,P|315:197|311:293,1,143.999995605469,2|0,2:2|0:0,0:0:0:0:
218,380,257871,6,0,P|56:326|54:156,1,363.999983337403,2|0,2:2|0:0,0:0:0:0:
136,125,258428,2,0,P|159:161|148:208,1,80,2|0,2:2|3:3,0:0:0:0:
1,281,258706,6,0,P|1:210|48:157,1,143.999995605469,2|0,2:2|0:0,0:0:0:0:
141,120,258985,2,0,P|208:152|254:147,1,95.9999970703126,2|0,2:2|0:0,0:0:0:0:
310,20,259263,1,2,2:2:0:0:
363,308,259541,6,0,P|487:331|493:204,1,287.999991210938,6|0,2:2|3:3,0:0:0:0:
456,130,260098,2,0,P|424:154|411:191,1,80,2|0,2:2|0:0,0:0:0:0:
277,355,260377,2,0,B|264:196|148:298|136:124,1,287.999991210938,2|0,2:2|0:0,0:0:0:0:
61,61,260933,2,0,P|48:98|16:121,1,80,2|0,2:2|2:2,0:0:0:0:
0,259,261212,6,0,P|89:228|182:248,1,176.000005371094,2|2,2:2|2:2,0:0:0:0:
251,282,261630,1,2,2:2:0:0:
291,200,261769,2,0,P|333:207|363:238,1,88.000002685547,2|0,2:2|3:3,0:0:0:0:
496,353,262047,6,0,P|503:268|444:206,2,176.000005371094,2|2|2,2:2|2:2|2:2,0:0:0:0:
507,82,262882,6,0,P|411:172|284:205,1,264.000008056641,6|2,2:2|2:2,0:0:0:0:
165,183,263439,2,0,P|114:167|70:174,1,88.000002685547,2|0,2:2|0:0,0:0:0:0:
272,80,263718,6,0,P|303:136|290:199,1,132.00000402832,2|0,2:2|0:0,0:0:0:0:
249,293,263996,2,0,P|184:292|136:249,1,132.00000402832,2|0,2:2|0:0,0:0:0:0:
76,166,264275,2,0,P|108:110|170:90,1,132.00000402832,2|0,2:2|0:0,0:0:0:0:
194,183,264553,6,0,P|58:196|77:21,1,352.000010742188,10|2,2:2|2:2,0:0:0:0:
177,10,265249,1,0,3:3:0:0:
140,132,265388,6,0,L|130:72,1,60.0000022888184,2|0,2:2|0:0,0:0:0:0:
329,95,265667,6,0,L|342:174,1,80,0|0,1:1|0:0,0:0:0:0:
245,287,265945,6,0,L|214:88,1,180.000006866455,2|0,2:2|0:0,0:0:0:0:
265,2,266223,6,0,P|260:64|234:239,1,207.999990478516,6|2,2:2|2:2,0:0:0:0:
386,143,266641,6,0,P|372:201|352:243,2,103.999995239258,2|2|2,2:2|2:2|2:2,0:0:0:0:
135,137,267059,6,0,P|140:199|166:374,1,207.999990478516,10|2,2:2|2:2,0:0:0:0:
0,342,267476,6,0,P|14:284|34:242,1,103.999995239258,10|2,2:2|2:2,0:0:0:0:
110,213,267755,1,2,2:2:0:0:
250,292,267894,6,0,P|255:230|281:55,1,207.999990478516,6|2,2:2|2:2,0:0:0:0:
466,169,268312,6,0,P|444:121|433:71,2,103.999995239258,2|2|2,2:2|2:2|2:2,0:0:0:0:
391,362,268729,6,0,P|386:300|360:125,1,207.999990478516,10|2,2:2|2:2,0:0:0:0:
160,254,269147,6,0,P|171:203|192:156,1,103.999995239258,10|2,2:2|2:2,0:0:0:0:
290,187,269425,1,2,2:2:0:0:
168,353,269565,6,0,P|99:358|25:352,2,103.999995239258,6|2|2,2:2|2:2|2:2,0:0:0:0:
342,273,269982,6,0,P|411:278|485:272,2,103.999995239258,2|2|2,2:2|2:2|2:2,0:0:0:0:
99,206,270400,6,0,P|144:180|187:151,2,103.999995239258,10|2|2,2:2|2:2|2:2,0:0:0:0:
400,112,270817,6,0,P|352:90|308:63,1,103.999995239258,10|2,2:2|2:2,0:0:0:0:
256,0,271096,1,2,2:2:0:0:
0,192,271235,6,0,P|241:351|302:68,1,680,6|0,2:2|0:0,0:0:0:0:
