osu file format v14

[General]
AudioFilename: audio.mp3
AudioLeadIn: 0
PreviewTime: 106878
Countdown: 0
SampleSet: Soft
StackLeniency: 0.4
Mode: 0
LetterboxInBreaks: 0
WidescreenStoryboard: 1

[Editor]
Bookmarks: 18967,19802,45695,60730,61565,74094,94141,94976,107505,120869,121704,122122,134233,150939,151774,164303,177667,178502,194303,207737,208572,226043,239477,240312,252841,267319
DistanceSpacing: 1.9
BeatDivisor: 4
GridSize: 8
TimelineZoom: 2.4

[Metadata]
Title:Watashi ga Tenshi Janaku Naru Hi
TitleUnicode:わたしが天使じゃなくなる日
Artist:Ceui
ArtistUnicode:Ceui
Creator:ScubDomino
Version:Descension
Source:
Tags:セイ labyrinthus ラビュリントス LACA-15194 4540774151943 Lantis Haruhito Nishi 西 陽仁 にし はるひと Yumi Suzuha 鈴葉 ユミ すずは ゆみ Kotaro Koutarou Odaka 小高 光太郎 おだか こうたろう megu Yasushi Asada 浅田 靖 あさだ やすし Hironobu Asano 淺野 浩伸 あさの ひろのぶ Yoshihiko Ando Andou 安藤 義彦 あんどう よしひこ Studio Magic Garden Sound MagicGarden スタジオマジックガーデン SplashSoundStudio LOOP Aobadai 青葉台スタジオ あおばだいスタジオ anime girl anime_girl jungkyuyoung natsume shiki natsume_shiki scub domino [keqing] 8972308 jyanaku s0m3guy someguy some guy 11141924 impurepug kineticdog 3124248 TT Mouse TT_Mouse TtmnZk 2495509 female vocal pop japanese waltz violin guitar neo folk neofolk yuukichi yuu kichi ゆうきち 冷たい森
BeatmapID:3312133
BeatmapSetID:1622207

[Difficulty]
HPDrainRate:5
CircleSize:3
OverallDifficulty:8
ApproachRate:9.3
SliderMultiplier:1.4
SliderTickRate:1

[Events]
//Background and Video events
0,0,"yuukichi.jpg",0,0
//Break Periods
//Storyboard Layer 0 (Background)
//Storyboard Layer 1 (Fail)
//Storyboard Layer 2 (Pass)
//Storyboard Layer 3 (Foreground)
//Storyboard Layer 4 (Overlay)
//Storyboard Sound Samples

[TimingPoints]
248,316.622691292876,3,2,0,40,1,0
15445,295.20295202952,3,2,0,40,1,0
18397,-100,3,2,10,40,0,0
18985,278.422273781903,3,2,10,40,1,0
19820,-133.333333333333,3,2,10,40,0,0
21490,-181.818181818181,3,2,10,40,0,0
22047,-100,3,2,10,40,0,0
24831,-133.333333333333,3,2,10,40,0,0
32349,-100,3,2,10,65,0,0
34298,-133.333333333333,3,2,10,65,0,0
34576,-83.3333333333333,3,2,10,65,0,0
34855,-133.333333333333,3,2,10,65,0,0
35411,-100,3,2,10,65,0,0
39031,-90.9090909090909,3,2,10,65,0,0
43764,-76.9230769230769,3,2,10,65,0,0
44860,-55.5555555555556,3,2,0,65,0,0
44878,-55.5555555555556,3,2,10,65,0,0
45713,-50,3,2,10,75,0,0
47087,-133.333333333333,3,2,0,75,0,0
47105,-133.333333333333,3,2,10,75,0,0
47384,-133.333333333333,3,2,11,75,0,0
49036,-66.6666666666667,3,2,0,75,0,0
49054,-66.6666666666667,3,2,10,75,0,0
50446,-66.6666666666667,3,2,11,75,0,0
50725,-133.333333333333,3,2,11,75,0,0
51821,-100,3,2,0,75,0,0
51838,-100,3,2,11,75,0,0
52377,-100,3,2,0,75,0,0
52395,-100,3,2,10,75,0,0
53091,-100,3,2,11,75,0,0
53213,-125,3,2,0,75,0,0
53230,-125,3,2,11,75,0,0
54066,-125,3,2,11,55,0,0
57389,-90.9090909090908,3,2,0,55,0,0
57407,-90.9090909090908,3,2,10,75,0,0
57824,-90.9090909090908,3,2,11,75,0,0
58224,-90.9090909090909,3,2,0,75,0,0
58242,-90.9090909090909,3,2,11,75,0,0
59077,-100,3,2,10,80,0,0
59495,-100,3,2,11,80,0,0
60748,-66.6666666666667,3,2,11,86,0,0
62140,-100,3,2,11,86,0,0
62418,-66.6666666666667,3,2,11,86,0,0
64367,-66.6666666666667,3,2,10,86,0,0
66595,-58.8235294117647,3,2,10,86,0,0
66873,-58.8235294117647,3,2,11,86,0,0
67430,-66.6666666666667,3,2,11,86,0,0
71885,-66.6666666666667,3,2,10,86,0,0
72442,-55.5555555555556,3,2,10,86,0,0
72998,-55.5555555555556,3,2,14,86,0,0
73277,-55.5555555555556,3,2,10,86,0,0
74112,-66.6666666666667,3,2,11,86,0,0
75226,-58.8235294117647,3,2,11,86,0,0
75504,-66.6666666666667,3,2,11,86,0,0
77453,-58.8235294117647,3,2,11,86,0,0
77732,-66.6666666666667,3,2,10,86,0,0
78845,-58.8235294117647,3,2,10,86,0,0
79959,-66.6666666666667,3,2,10,86,0,0
80237,-66.6666666666667,3,2,11,86,0,0
81630,-76.9230769230769,3,2,11,86,0,0
82186,-100,3,2,11,86,0,0
82465,-76.9230769230769,3,2,11,86,0,0
84414,-66.6666666666667,3,2,11,86,0,0
85806,-58.8235294117647,3,2,11,86,0,0
87476,-52.6315789473684,3,2,11,80,0,0
87894,-52.6315789473684,3,2,10,80,0,0
88172,-52.6315789473684,3,2,11,80,0,0
89147,-52.6315789473684,3,2,12,80,0,0
89843,-52.6315789473684,3,2,11,80,0,0
90817,-52.6315789473684,3,2,12,80,0,0
91514,-52.6315789473684,3,2,11,80,0,0
92488,-52.6315789473684,3,2,12,80,0,0
92906,-222.222222222221,3,2,12,75,0,0
93880,-222.222222222221,3,2,11,75,0,0
94159,-100,3,2,12,65,0,0
94576,-100,3,2,11,65,0,0
95272,-100,3,2,12,65,0,0
96247,-100,3,2,11,65,0,0
96943,-100,3,2,12,65,0,0
97917,-100,3,2,11,65,0,0
98613,-100,3,2,12,65,0,0
100841,-83.3333333333333,3,2,12,65,0,0
101258,-90.9090909090909,3,2,11,65,0,0
101954,-90.9090909090909,3,2,12,65,0,0
102929,-90.9090909090909,3,2,11,65,0,0
103625,-90.9090909090909,3,2,12,65,0,0
105295,-133.333333333333,3,2,12,65,0,0
106131,-100,3,2,10,65,0,0
106966,-83.3333333333333,3,2,10,65,0,0
107523,-83.3333333333333,3,2,12,75,0,0
108080,-100,3,2,12,75,0,0
108358,-83.3333333333333,3,2,12,75,0,0
108915,-83.3333333333333,3,2,11,75,0,0
109193,-83.3333333333333,3,2,12,75,0,0
109750,-100,3,2,12,75,0,0
110864,-83.3333333333333,3,2,12,75,0,0
111421,-100,3,2,12,75,0,0
111699,-83.3333333333333,3,2,12,75,0,0
112256,-83.3333333333333,3,2,11,75,0,0
112534,-83.3333333333333,3,2,12,75,0,0
113926,-133.333333333333,3,2,12,75,0,0
114205,-83.3333333333333,3,2,12,75,0,0
114762,-133.333333333333,3,2,12,75,0,0
115597,-133.333333333333,3,2,11,75,0,0
115875,-83.3333333333333,3,2,12,75,0,0
117824,-83.3333333333333,3,3,50,75,0,0
117829,-83.3333333333333,3,2,12,75,0,0
118103,-133.333333333333,3,2,12,75,0,0
118381,-83.3333333333333,3,2,12,75,0,0
118938,-83.3333333333333,3,2,11,75,0,0
119217,-83.3333333333333,3,2,12,75,0,0
120052,-90.9090909090909,3,2,12,75,0,0
120330,-90.9090909090909,3,3,50,75,0,0
120335,-90.9090909090909,3,2,12,75,0,0
120887,-66.6666666666667,3,2,12,80,0,0
121374,-133.333333333333,3,2,0,80,0,0
121444,-133.333333333333,3,2,12,80,0,0
121722,-76.9230769230769,3,2,12,80,0,0
122279,-133.333333333333,3,2,12,80,0,0
122558,-66.6666666666667,3,2,12,80,0,0
123114,-76.9230769230769,3,2,12,80,0,0
123393,-66.6666666666667,3,2,12,80,0,0
123949,-90.9090909090909,3,2,12,80,0,0
124228,-66.6666666666667,3,2,12,80,0,0
125620,-83.3333333333333,3,2,12,80,0,0
125899,-66.6666666666667,3,2,12,80,0,0
126734,-83.3333333333333,3,2,12,85,0,0
128404,-100,3,2,12,85,0,0
129240,-76.9230769230769,3,2,12,85,0,0
130075,-66.6666666666667,3,2,12,85,0,0
130353,-76.9230769230769,3,2,12,85,0,0
132581,-66.6666666666667,3,2,12,90,0,0
133416,-50,3,2,12,90,0,0
134251,-50,3,2,12,75,0,0
135643,-133.333333333333,3,2,12,80,0,0
135922,-133.333333333333,3,2,11,75,0,0
137592,-66.6666666666667,3,2,10,80,0,0
138985,-66.6666666666667,3,2,11,75,0,0
139263,-66.6666666666667,3,2,10,75,0,0
139820,-66.6666666666667,3,2,11,75,0,0
140377,-100,3,2,11,80,0,0
140655,-100,3,2,11,75,0,0
140933,-76.9230769230769,3,2,10,80,0,0
141630,-76.9230769230769,3,2,11,75,0,0
141769,-100,3,2,11,80,0,0
142604,-100,3,2,11,55,0,0
145945,-111.111111111111,3,2,11,80,0,0
146362,-111.111111111111,3,2,11,75,0,0
146780,-83.3333333333333,3,2,11,75,0,0
147616,-76.9230769230769,3,2,10,80,0,0
148172,-76.9230769230769,3,2,11,80,0,0
149286,-76.9230769230769,3,2,10,86,0,0
149843,-76.9230769230769,3,2,11,86,0,0
150121,-66.6666666666667,3,2,10,80,0,0
150957,-62.5,3,2,11,83,0,0
152627,-71.4285714285714,3,2,11,83,0,0
153462,-58.8235294117647,3,2,11,83,0,0
154298,-71.4285714285714,3,2,11,83,0,0
154576,-71.4285714285714,3,2,10,83,0,0
156804,-58.8235294117647,3,2,10,83,0,0
157082,-58.8235294117647,3,2,11,83,0,0
157639,-66.6666666666667,3,2,11,83,0,0
162094,-66.6666666666667,3,2,10,83,0,0
163068,-55.5555555555556,3,2,10,83,0,0
163207,-55.5555555555556,3,2,14,86,0,0
163486,-55.5555555555556,3,2,10,83,0,0
164321,-66.6666666666667,3,2,11,83,0,0
165435,-58.8235294117647,3,2,11,83,0,0
165713,-66.6666666666667,3,2,11,83,0,0
167940,-66.6666666666667,3,2,10,83,0,0
169333,-58.8235294117647,3,2,10,83,0,0
170168,-66.6666666666667,3,2,10,83,0,0
170446,-66.6666666666667,3,2,11,83,0,0
171838,-83.3333333333333,3,2,11,83,0,0
172674,-66.6666666666667,3,2,11,83,0,0
176015,-58.8235294117647,3,2,11,83,0,0
177407,-66.6666666666667,3,2,11,83,0,0
184367,-133.333333333333,3,2,13,50,0,0
184646,-153.846153846153,3,2,13,50,0,0
186316,-285.714285714282,3,2,10,35,0,0
187430,-285.714285714282,3,2,10,50,0,0
187708,-153.846153846153,3,2,13,50,0,0
187987,-181.818181818181,3,2,13,50,0,0
189379,-181.818181818181,3,2,10,50,0,0
192719,-181.818181818181,3,2,13,65,0,0
193555,-153.846153846153,3,2,13,70,0,0
193834,-100,3,2,13,70,0,0
194112,-66.6666666666667,3,2,13,70,0,0
194391,-71.4285714285714,3,2,12,95,0,1
194808,-71.4285714285714,3,2,12,82,0,1
194947,-71.4285714285714,3,2,14,82,0,1
196061,-100,3,2,14,82,0,1
196896,-100,3,2,14,82,0,1
198288,-100,3,2,13,82,0,1
198427,-100,3,2,14,82,0,1
199402,-71.4285714285714,3,2,14,90,0,1
199681,-71.4285714285714,3,2,13,90,0,1
199889,-71.4285714285714,3,2,14,90,0,1
200655,-71.4285714285714,3,2,13,90,0,1
201073,-71.4285714285714,3,2,14,90,0,1
202743,-100,3,2,14,90,0,1
204275,-100,3,2,13,90,0,1
204414,-71.4285714285714,3,2,14,90,0,1
205249,-76.9230769230769,3,2,14,90,0,1
206084,-71.4285714285714,3,2,14,90,0,1
206920,-71.4285714285714,3,2,13,90,0,1
207337,-71.4285714285714,3,2,14,90,0,1
207615,-71.4285714285714,3,2,13,90,0,1
208033,-71.4285714285714,3,2,14,90,0,1
208590,-71.4285714285714,3,2,14,90,0,1
209425,-58.8235294117647,3,2,14,90,0,1
210539,-71.4285714285714,3,2,14,90,0,1
212766,-58.8235294117647,3,2,14,90,0,1
214019,-58.8235294117647,3,2,13,90,0,1
214437,-58.8235294117647,3,2,14,90,0,1
214715,-71.4285714285714,3,2,13,90,0,1
214854,-71.4285714285714,3,2,10,90,0,1
214994,-71.4285714285714,3,2,13,90,0,1
215272,-71.4285714285714,3,2,14,90,0,1
215968,-71.4285714285714,3,2,13,90,0,1
216107,-83.3333333333333,3,2,14,90,0,1
216943,-66.6666666666667,3,2,14,90,0,1
217360,-66.6666666666667,3,2,13,90,0,1
217778,-66.6666666666667,3,2,14,90,0,1
219449,-83.3333333333333,3,2,13,90,0,1
219727,-83.3333333333333,3,2,14,90,0,1
220284,-125,3,2,14,90,0,1
221119,-66.6666666666667,3,2,12,90,0,0
222233,-50,3,2,12,90,0,1
222790,-66.6666666666667,3,2,12,95,0,0
223207,-50,3,2,12,95,0,0
223903,-33.3333333333333,3,2,12,95,0,1
224460,-100,3,2,0,95,0,0
225295,-1000,3,2,13,50,0,0
226131,-200,3,2,15,50,0,0
226409,-200,3,2,50,50,0,0
226414,-200,3,2,16,50,0,0
226966,-200,3,2,17,50,0,0
227245,-200,3,2,18,50,0,0
227523,-200,3,2,19,50,0,0
227802,-200,3,2,20,50,0,0
228080,-200,3,2,51,50,0,0
228084,-200,3,2,21,50,0,0
228358,-200,3,2,22,50,0,0
228637,-200,3,2,23,50,0,0
228915,-200,3,2,0,50,0,0
229194,-200,3,2,25,50,0,0
229472,-200,3,2,26,50,0,0
229750,-200,3,2,27,50,0,0
230029,-200,3,2,28,50,0,0
230307,-200,3,2,29,50,0,0
230586,-200,3,2,30,50,0,0
230864,-200,3,2,31,50,0,0
231143,-200,3,2,32,50,0,0
231421,-200,3,2,52,50,0,0
231425,-200,3,2,33,50,0,0
231699,-200,3,2,34,50,0,0
231839,-200,3,2,35,50,0,0
231978,-250.000000000001,3,2,36,50,0,0
232256,-250.000000000001,3,2,33,50,0,0
232813,-133.333333333333,3,2,37,50,0,0
233092,-133.333333333333,3,2,53,50,0,0
233096,-133.333333333333,3,2,38,50,0,0
233231,-133.333333333333,3,2,39,50,0,0
233370,-133.333333333333,3,2,40,50,0,0
233648,-133.333333333333,3,2,41,50,0,0
233927,-133.333333333333,3,2,54,50,0,0
233931,-133.333333333333,3,2,42,50,0,0
234205,-133.333333333333,3,2,43,50,0,0
234484,-133.333333333333,3,2,44,50,0,0
234762,-133.333333333333,3,2,55,50,0,0
234766,-133.333333333333,3,2,45,50,0,0
234901,-133.333333333333,3,2,46,50,0,0
235041,-133.333333333333,3,2,47,50,0,0
235319,-133.333333333333,3,2,48,50,0,0
235597,-133.333333333333,3,2,49,50,0,0
236154,-83.3333333333333,3,2,50,75,0,0
236433,-83.3333333333333,3,2,56,75,0,0
236437,-83.3333333333333,3,2,51,75,0,0
236572,-83.3333333333333,3,2,52,75,0,0
236711,-83.3333333333333,3,2,53,75,0,0
236989,-83.3333333333333,3,2,54,75,0,0
237128,-83.3333333333333,3,2,0,75,0,0
237268,-83.3333333333333,3,2,55,75,0,0
237546,-83.3333333333333,3,2,56,75,0,0
237685,-83.3333333333333,3,2,0,75,0,0
237825,-83.3333333333333,3,2,57,85,0,0
237963,-83.3333333333333,3,2,0,85,0,0
238103,-83.3333333333333,3,2,58,85,0,0
238381,-83.3333333333333,3,2,10,85,0,0
238660,-83.3333333333333,3,2,59,85,0,0
238799,-83.3333333333333,3,2,0,85,0,0
238938,-83.3333333333333,3,2,60,95,0,0
239078,-83.3333333333333,3,2,61,95,0,0
239217,-83.3333333333333,3,2,62,95,0,0
239356,-83.3333333333333,3,2,63,95,0,0
239495,-58.8235294117647,3,2,64,95,0,0
239774,-58.8235294117647,3,2,57,95,0,0
239778,-58.8235294117647,3,2,65,95,0,0
239913,-58.8235294117647,3,2,0,95,0,0
240052,-58.8235294117647,3,2,66,95,0,0
240331,-58.8235294117647,3,2,67,95,0,0
240538,-58.8235294117647,3,2,0,95,0,0
240609,-58.8235294117647,3,2,68,95,0,0
240887,-58.8235294117647,3,2,69,95,0,0
241166,-58.8235294117647,3,2,70,95,0,0
241444,-58.8235294117647,3,2,58,95,0,0
241448,-58.8235294117647,3,2,71,95,0,0
241583,-58.8235294117647,3,2,10,95,0,0
241723,-58.8235294117647,3,2,72,95,0,0
241861,-58.8235294117647,3,2,0,95,0,0
242001,-58.8235294117647,3,2,73,95,0,0
242279,-58.8235294117647,3,2,74,95,0,0
242558,-58.8235294117647,3,2,75,95,0,0
242697,-58.8235294117647,3,2,0,95,0,0
242836,-58.8235294117647,3,2,76,95,0,0
243044,-58.8235294117647,3,2,0,95,0,0
243115,-58.8235294117647,3,2,77,95,0,0
243254,-58.8235294117647,3,2,10,95,0,0
243393,-58.8235294117647,3,2,78,95,0,0
243672,-58.8235294117647,3,2,79,95,0,0
243879,-58.8235294117647,3,2,0,95,0,0
243950,-58.8235294117647,3,2,80,95,0,0
244228,-58.8235294117647,3,2,81,95,0,0
244507,-58.8235294117647,3,2,82,95,0,0
244785,-58.8235294117647,3,2,59,95,0,0
244790,-58.8235294117647,3,2,83,95,0,0
244924,-58.8235294117647,3,2,0,95,0,0
245064,-58.8235294117647,3,2,84,95,0,0
245203,-58.8235294117647,3,2,85,95,0,0
245342,-66.6666666666667,3,2,86,95,0,0
245621,-66.6666666666667,3,2,87,95,0,0
245899,-66.6666666666667,3,2,88,95,0,0
246038,-66.6666666666667,3,2,0,95,0,0
246177,-58.8235294117647,3,2,89,95,0,0
246456,-58.8235294117647,3,2,90,95,0,0
246595,-58.8235294117647,3,2,91,95,0,0
246734,-58.8235294117647,3,2,92,95,0,0
246873,-58.8235294117647,3,2,93,95,0,0
247013,-58.8235294117647,3,2,94,95,0,0
247291,-58.8235294117647,3,2,95,95,0,0
247569,-58.8235294117647,3,2,96,95,0,0
247848,-58.8235294117647,3,2,97,95,0,0
248126,-58.8235294117647,3,2,65,95,0,0
248266,-58.8235294117647,3,2,98,95,0,0
248405,-58.8235294117647,3,2,99,95,0,0
248544,-58.8235294117647,3,2,100,95,0,0
248683,-66.6666666666667,3,2,101,95,0,0
248891,-66.6666666666667,3,2,0,95,0,0
248961,-100,3,2,102,95,0,0
249240,-66.6666666666667,3,2,103,95,0,0
249379,-66.6666666666667,3,2,0,95,0,0
249518,-66.6666666666667,3,2,104,95,0,0
249726,-66.6666666666667,3,2,0,95,0,0
249797,-66.6666666666667,3,2,105,95,0,0
249936,-66.6666666666667,3,2,10,95,0,0
250075,-66.6666666666667,3,2,106,95,0,0
250354,-66.6666666666667,3,2,107,95,0,0
250492,-66.6666666666667,3,2,0,95,0,0
250632,-66.6666666666667,3,2,108,95,0,0
250771,-66.6666666666667,3,2,0,95,0,0
250911,-66.6666666666667,3,2,109,95,0,0
251189,-58.8235294117647,3,2,110,95,0,0
251467,-58.8235294117647,3,2,60,95,0,0
251472,-58.8235294117647,3,2,55,95,0,0
251607,-58.8235294117647,3,2,111,95,0,0
251746,-58.8235294117647,3,2,112,95,0,0
251885,-58.8235294117647,3,2,113,95,0,0
252024,-71.4285714285714,3,2,114,95,0,0
252232,-71.4285714285714,3,2,0,95,0,0
252303,-71.4285714285714,3,2,115,95,0,0
252442,-71.4285714285714,3,2,10,95,0,0
252581,-52.6315789473684,3,2,116,95,0,0
252720,-52.6315789473684,3,2,10,95,0,0
252859,-62.5,3,2,117,85,0,0
252998,-62.5,3,2,0,85,0,0
253137,-62.5,3,2,61,85,0,0
253142,-62.5,3,2,118,85,0,0
253276,-62.5,3,2,0,85,0,0
253416,-62.5,3,2,62,85,0,0
253421,-62.5,3,2,119,85,0,0
253695,-62.5,3,2,63,85,0,0
253699,-62.5,3,2,120,85,0,0
253973,-62.5,3,2,64,85,0,0
253978,-62.5,3,2,121,85,0,0
254112,-62.5,3,2,122,85,0,0
254251,-76.9230769230769,3,2,123,85,0,0
254390,-76.9230769230769,3,2,10,85,0,0
254530,-76.9230769230769,3,2,124,85,0,0
254808,-76.9230769230769,3,2,125,85,0,0
254948,-76.9230769230769,3,2,39,85,0,0
255087,-52.6315789473684,3,2,126,85,0,0
255225,-52.6315789473684,3,2,10,85,0,0
255295,-62.5,3,2,0,85,0,0
255365,-62.5,3,2,127,85,0,0
255644,-62.5,3,2,128,85,0,0
255783,-62.5,3,2,0,85,0,0
255922,-62.5,3,2,72,85,0,0
256061,-62.5,3,2,0,85,0,0
256200,-66.6666666666667,3,2,129,85,0,0
256479,-66.6666666666667,3,2,130,85,0,0
256617,-66.6666666666667,3,2,10,85,0,0
256757,-66.6666666666667,3,2,131,85,0,0
256965,-52.6315789473684,3,2,0,85,0,0
257036,-52.6315789473684,3,2,132,85,0,0
257175,-52.6315789473684,3,2,0,85,0,0
257314,-52.6315789473684,3,2,133,85,0,0
257522,-52.6315789473684,3,2,0,85,0,0
257593,-52.6315789473684,3,2,134,85,0,0
257731,-52.6315789473684,3,2,0,85,0,0
257871,-52.6315789473684,3,2,135,85,0,0
258150,-52.6315789473684,3,2,65,85,0,0
258154,-52.6315789473684,3,2,136,85,0,0
258288,-52.6315789473684,3,2,10,85,0,0
258428,-52.6315789473684,3,2,137,85,0,0
258566,-52.6315789473684,3,2,0,85,0,0
258636,-52.6315789473684,3,2,137,85,0,0
258706,-52.6315789473684,3,2,138,85,0,0
258914,-52.6315789473684,3,2,0,85,0,0
258985,-52.6315789473684,3,2,139,85,0,0
259124,-52.6315789473684,3,2,0,85,0,0
259263,-52.6315789473684,3,2,140,85,0,0
259402,-52.6315789473684,3,2,0,85,0,0
259542,-52.6315789473684,3,2,141,85,0,0
259820,-52.6315789473684,3,2,66,85,0,0
259824,-52.6315789473684,3,2,90,85,0,0
259959,-52.6315789473684,3,2,10,85,0,0
260098,-100,3,2,142,85,0,0
260237,-100,3,2,0,85,0,0
260377,-66.6666666666667,3,2,143,85,0,0
260655,-66.6666666666667,3,2,67,85,0,0
260660,-66.6666666666667,3,2,144,85,0,0
260794,-66.6666666666667,3,2,0,85,0,0
260933,-52.6315789473684,3,2,145,85,0,0
261072,-52.6315789473684,3,2,10,85,0,0
261212,-66.6666666666667,3,2,146,85,0,0
261491,-66.6666666666667,3,2,147,85,0,0
261630,-52.6315789473684,3,2,148,85,0,0
261769,-52.6315789473684,3,2,149,85,0,0
261909,-66.6666666666667,3,2,10,85,0,0
262047,-66.6666666666667,3,2,150,85,0,0
262326,-66.6666666666667,3,2,151,85,0,0
262465,-66.6666666666667,3,2,0,85,0,0
262604,-66.6666666666667,3,2,151,85,0,0
262743,-66.6666666666667,3,2,0,85,0,0
262882,-66.6666666666667,3,2,152,85,0,0
263161,-66.6666666666667,3,2,68,85,0,0
263165,-66.6666666666667,3,2,153,85,0,0
263300,-66.6666666666667,3,2,52,85,0,0
263440,-66.6666666666667,3,2,154,85,0,0
263578,-66.6666666666667,3,2,0,85,0,0
263718,-66.6666666666667,3,2,155,85,0,0
263926,-66.6666666666667,3,2,0,85,0,0
263996,-66.6666666666667,3,2,156,85,0,0
264204,-66.6666666666667,3,2,0,85,0,0
264275,-66.6666666666667,3,2,157,85,0,0
264413,-66.6666666666667,3,2,0,85,0,0
264553,-62.5,3,2,158,85,0,0
264832,-62.5,3,2,69,85,0,0
264836,-62.5,3,2,159,85,0,0
264970,-62.5,3,2,0,85,0,0
265110,-62.5,3,2,159,85,0,0
265249,-62.5,3,2,10,85,0,0
265388,-181.818181818181,3,2,160,85,0,0
265596,-181.818181818181,3,2,0,85,0,0
265667,-100,3,2,12,85,0,0
265945,-55.5555555555556,3,2,161,85,0,0
266085,-55.5555555555556,3,2,162,85,0,0
266224,-55.5555555555556,3,2,163,95,0,0
266363,-55.5555555555556,3,2,0,95,0,0
266502,-55.5555555555556,3,2,165,95,0,0
266641,-55.5555555555556,3,2,166,85,0,0
266781,-55.5555555555556,3,2,167,95,0,0
266920,-55.5555555555556,3,2,168,95,0,0
267059,-62.5,3,2,169,95,0,0
267198,-62.5,3,2,0,95,0,0
267337,-62.5,3,2,170,95,0,0
267476,-71.4285714285714,3,2,171,95,0,0
267616,-71.4285714285714,3,2,167,95,0,0
267755,-71.4285714285714,3,2,168,95,0,0
267894,-50,3,2,163,95,0,0
268034,-50,3,2,0,95,0,0
268173,-50,3,2,165,95,0,0
268312,-50,3,2,166,95,0,0
268451,-50,3,2,167,95,0,0
268590,-50,3,2,168,95,0,0
268730,-50,3,2,172,95,0,0
268869,-50,3,2,164,95,0,0
269008,-50,3,2,170,95,0,0
269147,-55.5555555555556,3,2,173,95,0,0
269286,-55.5555555555556,3,2,174,95,0,0
269426,-55.5555555555556,3,2,168,95,0,0
269565,-55.5555555555556,3,2,175,95,0,0
269704,-55.5555555555556,3,2,164,95,0,0
269843,-55.5555555555556,3,2,165,95,0,0
269982,-55.5555555555556,3,2,176,95,0,0
270122,-55.5555555555556,3,2,177,95,0,0
270261,-55.5555555555556,3,2,168,95,0,0
270400,-55.5555555555556,3,2,178,95,0,0
270539,-55.5555555555556,3,2,164,95,0,0
270679,-55.5555555555556,3,2,170,95,0,0
270818,-55.5555555555556,3,2,179,95,0,0
270957,-55.5555555555556,3,2,170,95,0,0
271096,-55.5555555555556,3,2,180,95,0,0
271235,-125,3,2,181,95,0,0
273601,-125,3,2,0,95,0,0

[Colours]
Combo1 : 230,223,217
Combo2 : 164,207,242
Combo3 : 67,193,231
Combo4 : 145,150,217

[HitObjects]
256,192,15445,12,0,18397,3:3:0:0:
0,251,18692,5,0,2:2:0:0:
0,251,18985,2,0,P|75:251|225:268,1,210,6|0,2:2|2:2,0:0:0:0:
272,324,19541,1,8,2:3:0:0:
365,228,19820,2,0,P|437:221|476:225,2,105.000004005432,2|0|8,2:2|2:2|2:3,0:0:0:0:
352,367,20655,6,0,P|431:367|532:345,1,157.500006008148,10|0,2:2|2:2,0:0:0:0:
450,272,21212,2,0,P|407:275|382:278,1,52.5000020027161,0|0,2:2|2:2,0:0:0:0:
257,204,21490,2,0,P|295:209|334:209,1,77.0000023498536,2|0,2:2|2:2,0:0:0:0:
333,209,22047,2,0,P|333:182|331:127,1,70,8|0,2:3|2:2,0:0:0:0:
439,105,22326,6,0,P|361:95|211:106,1,210,6|0,2:2|2:2,0:0:0:0:
156,160,22882,1,8,2:3:0:0:
11,60,23161,6,0,P|51:64|139:67,1,105,2|0,2:2|2:2,0:0:0:0:
124,70,23439,2,0,P|123:117|120:159,1,70,0|0,2:2|2:2,0:0:0:0:
145,263,23718,2,0,P|93:265|50:271,1,70,8|0,2:3|2:2,0:0:0:0:
128,356,23996,6,0,B|207:343|199:380|289:371,1,140,4|0,2:3|2:2,0:0:0:0:
338,321,24414,2,0,P|337:271|252:211,1,140,0|0,2:2|2:2,0:0:0:0:
341,329,24831,2,0,P|408:308|444:312,2,105,2|0|8,2:2|2:2|2:3,0:0:0:0:
507,251,25667,6,0,P|500:193|505:84,1,157.500006008148,6|0,2:2|2:2,0:0:0:0:
426,53,26223,2,0,P|396:49|363:52,1,52.5000020027161,8|0,2:3|2:2,0:0:0:0:
289,20,26502,2,0,P|213:31|124:29,1,157.500006008148,2|0,2:2|2:2,0:0:0:0:
61,81,27059,1,8,2:3:0:0:
4,258,27337,5,10,2:2:0:0:
73,314,27616,1,0,2:2:0:0:
158,287,27894,1,8,2:3:0:0:
247,172,28172,5,2,2:2:0:0:
387,219,28451,1,0,2:2:0:0:
385,372,28729,1,8,2:3:0:0:
163,384,29008,6,0,P|170:336|162:225,1,157.500006008148,6|0,2:2|2:2,0:0:0:0:
121,151,29565,2,0,P|122:114|125:92,1,52.5000020027161,8|0,2:3|2:2,0:0:0:0:
55,17,29843,2,0,P|107:11|159:12,2,105.000004005432,2|0|10,2:2|2:2|2:3,0:0:0:0:
0,96,30539,1,0,2:2:0:0:
38,184,30678,5,2,2:1:0:0:
256,192,30957,1,0,2:2:0:0:
376,0,31235,1,8,2:3:0:0:
256,192,31514,2,0,P|295:272|319:352,1,157.500006008148,2|0,2:2|2:2,0:0:0:0:
396,374,32070,2,0,P|443:374|459:373,1,52.5000020027161,8|0,2:3|2:2,0:0:0:0:
443,263,32349,6,0,P|356:242|326:357,1,210,6|0,1:2|2:2,0:0:0:0:
232,367,32906,1,8,2:3:0:0:
42,226,33184,2,0,P|38:177|46:78,2,140,2|0|0,2:2|2:2|2:2,0:0:0:0:
48,233,33880,1,8,2:3:0:0:
36,319,34019,5,2,2:2:0:0:
231,374,34298,2,0,P|235:322|233:285,1,78.7500030040742,0|0,2:2|2:2,0:0:0:0:
205,213,34576,2,0,P|235:175|343:173,1,125.999996154785,0|0,2:2|2:2,0:0:0:0:
408,219,34855,2,0,P|474:221|534:203,1,105.000004005432,2|0,2:2|2:2,0:0:0:0:
512,308,35272,1,8,2:3:0:0:
419,314,35411,2,0,P|420:349|422:384,1,70,0|0,2:2|2:2,0:0:0:0:
401,211,35690,6,0,P|394:130|395:60,1,140,2|0,3:2|2:2,0:0:0:0:
465,12,36107,1,0,2:2:0:0:
465,12,36247,1,8,2:3:0:0:
304,74,36525,2,0,P|266:77|174:64,1,105,2|0,2:2|2:2,0:0:0:0:
112,81,36804,1,0,2:2:0:0:
47,138,37082,1,8,2:3:0:0:
150,260,37360,6,0,P|233:258|372:263,1,210,2|0,2:2|2:2,0:0:0:0:
435,301,37917,6,0,P|436:338|428:376,1,70,8|0,2:3|2:2,0:0:0:0:
359,262,38196,2,0,P|309:248|289:147,1,140,2|0,2:2|2:2,0:0:0:0:
380,47,38752,1,8,2:3:0:0:
436,213,39031,6,0,P|372:314|261:330,1,231.000007049561,2|0,2:2|2:2,0:0:0:0:
180,326,39588,2,0,P|152:354|129:384,1,77.0000023498536,8|0,2:3|2:2,0:0:0:0:
22,258,39866,2,0,P|95:224|182:255,1,154.000004699707,2|0,2:2|2:2,0:0:0:0:
294,143,40423,2,0,P|301:98|301:53,1,77.0000023498536,8|0,2:3|2:2,0:0:0:0:
218,23,40701,5,2,2:2:0:0:
146,81,40980,1,0,2:2:0:0:
169,199,41258,1,8,2:3:0:0:
361,277,41537,5,2,2:2:0:0:
305,65,41815,1,0,2:2:0:0:
248,127,42094,1,8,2:3:0:0:
425,216,42372,6,0,P|456:138|388:1,1,231.000007049561,2|0,2:2|2:2,0:0:0:0:
354,87,42929,2,0,P|356:131|353:169,1,77.0000023498536,8|0,2:3|2:2,0:0:0:0:
425,216,43207,2,0,P|423:260|437:382,1,154.000004699707,2|0,2:2|2:2,0:0:0:0:
109,294,43764,2,0,P|57:294|6:323,1,90.9999958343508,8|8,2:3|2:3,0:0:0:0:
156,383,44043,6,0,P|198:297|80:146,1,272.999987503052,2|0,2:2|2:2,0:0:0:0:
346,15,44599,2,0,P|324:68|307:141,1,90.9999958343508,8|0,2:3|2:2,0:0:0:0:
114,155,44878,6,0,P|227:5|198:204,1,503.999984619141,10|0,2:2|3:3,0:0:0:0:
2,46,45574,5,0,3:3:0:0:
398,185,45713,1,6,3:1:0:0:
4,48,45991,5,0,3:3:0:0:
104,40,46131,1,0,3:3:0:0:
254,94,46270,1,0,3:3:0:0:
391,275,46548,1,2,3:2:0:0:
130,384,47105,6,0,L|122:332,1,52.5000020027161,0|0,2:2|2:2,0:0:0:0:
239,338,47384,1,2,2:2:0:0:
185,270,47662,1,8,2:3:0:0:
196,187,47940,1,0,2:2:0:0:
348,226,48219,1,2,2:2:0:0:
316,305,48497,1,8,2:3:0:0:
239,338,48776,6,0,P|292:330|325:328,1,52.5000020027161,0|0,3:3|3:3,0:0:0:0:
465,0,49054,1,6,3:1:0:0:
497,373,49333,5,0,3:3:0:0:
448,293,49472,1,0,3:3:0:0:
327,201,49611,1,0,3:3:0:0:
103,145,49889,1,2,3:2:0:0:
387,11,50168,6,0,P|318:26|241:35,1,105.000004005432,0|0,2:2|2:2,0:0:0:0:
25,183,50446,1,8,2:3:0:0:
85,253,50725,6,0,P|64:152|104:57,1,210.000008010865,0|8,2:2|2:3,0:0:0:0:
177,11,51560,1,2,2:2:0:0:
252,78,51838,1,0,2:2:0:0:
371,56,52117,2,0,P|410:50|447:40,1,70,8|0,2:3|2:2,0:0:0:0:
512,0,52395,6,0,P|445:55|413:242,1,280,4|0,2:2|2:2,0:0:0:0:
417,248,53091,1,8,2:3:0:0:
397,338,53230,2,0,P|332:359|270:344,2,112,0|0|0,2:2|2:2|2:2,0:0:0:0:
207,315,54066,6,0,P|219:241|291:260,1,168,8|0,2:3|2:2,0:0:0:0:
291,353,54623,1,8,2:3:0:0:
132,377,54901,2,0,P|93:372|26:318,1,112,8|0,2:3|2:2,0:0:0:0:
27,179,55458,2,0,P|35:225|36:240,1,56,0|0,2:2|2:2,0:0:0:0:
125,241,55736,6,0,L|297:262,1,168,8|0,2:3|2:2,0:0:0:0:
366,220,56293,1,8,2:3:0:0:
504,278,56572,2,0,P|510:335|479:398,2,112,0|0|8,2:2|2:2|2:3,0:0:0:0:
116,210,57407,6,0,P|158:289|217:324,1,154.000004699707,6|0,2:1|2:2,0:0:0:0:
309,62,57824,2,0,P|219:58|159:92,1,154.000004699707,8|0,2:3|2:2,0:0:0:0:
340,303,58242,2,0,P|388:228|389:159,2,154.000004699707,0|0|0,2:2|2:2|2:2,0:0:0:0:
39,145,59077,6,0,P|28:77|59:15,1,140,6|0,2:1|2:2,0:0:0:0:
473,239,59495,2,0,P|483:306|452:368,1,140,8|0,2:3|2:2,0:0:0:0:
30,325,59913,5,0,3:3:0:0:
256,192,60191,1,0,3:3:0:0:
482,59,60469,1,0,3:3:0:0:
27,208,60748,6,0,P|140:180|286:303,1,315.000012016297,12|2,1:1|2:1,0:0:0:0:
435,360,61305,2,0,P|493:326|522:251,1,105.000004005432,8|0,2:2|2:2,0:0:0:0:
204,184,61583,6,0,P|223:265|333:289,1,157.500006008148,0|0,1:1|2:2,0:0:0:0:
368,267,61862,2,0,P|391:199|377:152,1,105.000004005432,0|0,3:2|2:2,0:0:0:0:
503,1,62140,2,0,P|494:36|501:87,1,70,0|0,3:2|2:2,0:0:0:0:
298,203,62418,6,0,P|145:174|31:68,1,315.000012016297,8|0,1:1|2:2,0:0:0:0:
285,13,62975,2,0,P|295:70|262:135,1,105.000004005432,0|0,3:2|2:2,0:0:0:0:
376,321,63254,6,0,P|389:218|459:142,1,210.000008010865,0|2,1:1|2:1,0:0:0:0:
498,221,63671,1,0,1:2:0:0:
471,369,63810,1,8,2:2:0:0:
190,223,64089,6,0,P|210:273|251:305,1,105.000004005432,8|0,1:1|2:2,0:0:0:0:
99,249,64367,2,0,P|45:241|-2:260,1,105.000004005432,2|0,2:3|2:2,0:0:0:0:
117,151,64646,2,0,P|150:108|157:57,1,105.000004005432,2|0,2:3|2:2,0:0:0:0:
359,214,64924,6,0,P|367:302|300:377,1,157.500006008148,0|0,1:1|2:2,0:0:0:0:
246,384,65203,2,0,P|186:358|112:369,1,105.000004005432,2|0,2:3|2:2,0:0:0:0:
395,130,65481,2,0,P|455:156|505:263,1,157.500006008148,2|0,2:3|2:2,0:0:0:0:
225,271,65759,6,0,P|206:162|445:39,1,420.000016021729,8|0,1:1|2:2,0:0:0:0:
502,232,66455,1,0,2:2:0:0:
249,365,66595,6,0,P|210:366|134:308,1,119.000002269745,0|0,1:1|2:2,0:0:0:0:
32,144,66873,1,2,2:1:0:0:
16,121,67152,1,8,2:2:0:0:
225,271,67430,6,0,P|218:172|123:146,1,210.000008010865,8|0,1:1|2:2,0:0:0:0:
0,263,67848,1,0,2:2:0:0:
0,263,67987,2,0,P|-5:323|26:373,1,105.000004005432,0|0,2:2|2:2,0:0:0:0:
225,271,68265,2,0,P|341:297|381:383,1,210.000008010865,0|0,1:1|2:2,0:0:0:0:
344,25,68822,2,0,P|288:45|241:118,1,105.000004005432,0|0,2:2|2:2,0:0:0:0:
116,51,69101,6,0,P|211:88|251:182,1,210.000008010865,8|0,1:1|2:2,0:0:0:0:
225,271,69518,1,0,2:2:0:0:
225,271,69657,2,0,P|176:238|160:187,1,105.000004005432,0|0,2:2|2:2,0:0:0:0:
471,204,69936,2,0,P|490:304|426:383,2,210.000008010865,0|2|8,1:1|2:1|2:2,0:0:0:0:
125,257,70771,6,0,P|115:155|31:98,1,210.000008010865,8|0,1:1|2:2,0:0:0:0:
0,184,71189,1,0,2:2:0:0:
183,79,71328,2,0,P|249:74|331:138,1,157.500006008148,0|0,2:2|2:2,0:0:0:0:
468,260,71606,6,0,L|380:183,1,105.000004005432,0|0,1:1|2:2,0:0:0:0:
224,159,71885,2,0,L|333:121,1,105.000004005432,2|0,2:3|2:2,0:0:0:0:
430,0,72163,2,0,L|408:114,1,105.000004005432,2|0,2:3|2:2,0:0:0:0:
512,233,72442,6,0,P|498:288|213:306,1,377.999988464356,8|0,1:1|2:2,0:0:0:0:
184,102,72998,5,8,1:3:0:0:
129,268,73138,1,4,1:3:0:0:
12,135,73277,1,2,1:3:0:0:
6,95,73555,1,2,2:3:0:0:
0,56,73834,1,2,2:3:0:0:
37,335,74112,6,0,P|172:382|329:102,1,525.000020027161,12|2,1:1|2:1,0:0:0:0:
255,62,74947,6,0,P|175:91|158:140,1,105.000004005432,8|0,1:2|2:2,0:0:0:0:
302,259,75226,2,0,P|427:314|486:274,1,178.500003404617,0|0,2:2|2:2,0:0:0:0:
509,232,75504,2,0,L|488:100,1,105.000004005432,0|0,2:2|2:2,0:0:0:0:
99,39,75783,6,0,P|86:147|248:100,1,315.000012016297,8|0,1:1|2:2,0:0:0:0:
379,19,76339,2,0,P|455:25|506:78,1,105.000004005432,0|0,2:2|2:2,0:0:0:0:
509,232,76618,6,0,P|455:277|287:236,1,210.000008010865,0|2,1:1|2:1,0:0:0:0:
268,188,77036,1,0,2:2:0:0:
295,53,77175,1,8,2:2:0:0:
0,226,77453,6,0,P|66:240|142:327,1,178.500003404617,8|0,1:1|2:2,0:0:0:0:
207,384,77732,2,0,P|191:331|204:253,1,105.000004005432,2|0,2:3|2:2,0:0:0:0:
243,138,78010,2,0,P|204:180|131:206,1,105.000004005432,2|0,2:3|2:2,0:0:0:0:
282,325,78288,6,0,P|328:368|437:336,1,157.500006008148,0|0,1:1|2:2,0:0:0:0:
377,171,78567,2,0,P|330:127|221:159,1,157.500006008148,2|0,2:3|2:2,0:0:0:0:
139,319,78845,2,0,P|84:351|16:341,1,119.000002269745,2|0,2:3|2:2,0:0:0:0:
242,137,79124,6,0,P|302:279|462:194,1,357.000006809235,8|0,1:1|2:2,0:0:0:0:
401,61,79681,2,0,P|371:116|395:200,1,119.000002269745,0|0,3:2|2:2,0:0:0:0:
405,376,79959,6,0,P|475:325|453:212,2,210.000008010865,0|2|8,1:1|2:1|2:2,0:0:0:0:
242,137,80655,1,0,2:2:0:0:
56,169,80794,6,0,P|31:72|107:8,1,210.000008010865,8|0,1:1|2:2,0:0:0:0:
316,12,81212,1,0,3:2:0:0:
242,137,81351,1,0,1:2:0:0:
289,304,81490,1,0,3:2:0:0:
431,377,81630,6,0,P|444:310|414:373,1,181.999991668702,0|2,1:1|2:1,0:0:0:0:
137,374,82186,2,0,P|126:317|128:297,1,70,8|0,2:2|2:2,0:0:0:0:
197,227,82465,6,0,P|155:270|5:259,1,181.999991668702,8|0,1:1|2:2,0:0:0:0:
0,197,82882,1,0,3:2:0:0:
151,121,83022,1,0,1:2:0:0:
311,147,83161,1,0,3:2:0:0:
432,268,83300,2,0,B|432:319|387:338|387:338|366:289|401:253,1,181.999991668702,0|2,1:1|2:1,0:0:0:0:
137,374,83857,5,8,2:2:0:0:
98,276,83996,1,0,1:2:0:0:
197,227,84135,2,0,P|214:156|195:92,1,136.499993751526,8|0,1:1|2:2,0:0:0:0:
191,86,84414,2,0,L|78:63,1,105.000004005432,0|0,3:2|2:2,0:0:0:0:
329,247,84692,2,0,L|431:267,1,105.000004005432,0|0,3:2|2:2,0:0:0:0:
456,59,84971,6,0,P|400:46|294:115,1,157.500006008148,0|0,1:1|2:2,0:0:0:0:
275,170,85249,2,0,P|207:208|131:197,1,157.500006008148,0|0,3:2|2:2,0:0:0:0:
88,65,85527,1,0,3:2:0:0:
418,214,85806,6,0,B|482:287|422:376|422:376|320:341|328:240,1,357.000006809235,8|0,1:1|2:2,0:0:0:0:
300,2,86363,2,0,P|339:49|337:124,1,119.000002269745,0|0,1:2|2:2,0:0:0:0:
275,170,86641,2,0,P|193:130|-1:129,2,238.00000453949,0|2|8,1:1|2:1|2:2,0:0:0:0:
339,234,87337,2,0,L|400:222,1,59.5000011348725,0|0,1:2|2:2,0:0:0:0:
512,102,87476,6,0,P|488:227|486:408,1,265.999992897034,12|0,1:1|2:2,0:0:0:0:
338,102,87894,2,0,P|335:177|341:247,1,132.999996448517,2|0,2:2|2:2,0:0:0:0:
82,171,88172,1,2,2:3:0:0:
171,263,88312,6,0,P|172:156|138:-25,2,265.999992897034,0|8|8,2:2|2:2|2:2,0:0:0:0:
42,66,89147,6,0,P|38:185|-13:381,1,265.999992897034,4|0,1:1|2:2,0:0:0:0:
271,268,89565,2,0,P|243:334|194:402,1,132.999996448517,2|0,2:2|2:2,0:0:0:0:
171,263,89843,1,2,2:3:0:0:
379,339,89982,6,0,P|363:237|306:113,1,199.499994672775,0|0,2:2|2:2,0:0:0:0:
322,136,90261,2,0,P|352:85|425:35,1,132.999996448517,8|0,2:2|2:2,0:0:0:0:
75,148,90539,2,0,P|135:174|201:176,1,132.999996448517,8|0,2:2|2:2,0:0:0:0:
512,244,90817,6,0,B|353:224|422:282|212:252,1,265.999992897034,12|0,1:1|2:2,0:0:0:0:
80,372,91235,2,0,P|6:324|10:252,1,132.999996448517,2|0,2:2|2:2,0:0:0:0:
57,64,91514,1,2,2:3:0:0:
276,143,91653,6,0,P|267:215|153:268,1,199.499994672775,0|0,2:2|2:2,0:0:0:0:
206,61,91931,2,0,P|272:32|375:105,1,199.499994672775,8|0,2:2|2:2,0:0:0:0:
174,161,92210,2,0,P|116:117|127:-8,1,199.499994672775,8|0,2:2|2:2,0:0:0:0:
464,107,92488,5,12,1:1:0:0:
498,366,92766,1,0,2:2:0:0:
498,366,92906,2,0,L|427:355,1,62.9999980773926,0|0,2:2|2:2,0:0:0:0:
352,339,93323,2,0,L|382:332,2,31.4999990386963,2|0|0,2:2|2:2|2:2,0:0:0:0:
444,269,93880,1,2,2:3:0:0:
0,351,94159,6,0,P|89:354|158:360,1,140,4|0,1:1|2:2,0:0:0:0:
240,377,94576,2,0,B|230:330|230:330|249:308|270:330|270:330|262:378,1,140,8|0,2:3|2:2,0:0:0:0:
357,359,94994,2,0,P|391:359|426:359,1,70,8|0,1:3|2:2,0:0:0:0:
512,354,95272,1,8,2:2:0:0:
512,354,95551,1,2,2:2:0:0:
352,269,95829,6,0,P|320:223|306:124,1,140,4|0,1:1|2:2,0:0:0:0:
207,141,96247,2,0,P|197:210|160:269,1,140,8|0,2:3|2:2,0:0:0:0:
222,345,96664,2,0,P|256:340|291:344,1,70,8|0,1:3|2:2,0:0:0:0:
304,141,96943,1,2,2:2:0:0:
207,141,97221,1,2,2:2:0:0:
22,254,97500,6,0,P|75:252|166:271,1,140,4|0,1:1|2:2,0:0:0:0:
251,185,97917,2,0,P|255:232|260:185,1,140,8|0,2:3|2:2,0:0:0:0:
352,268,98335,2,0,P|420:253|489:254,1,70,8|0,1:3|2:2,0:0:0:0:
508,285,98613,1,8,2:2:0:0:
494,198,98892,1,2,2:2:0:0:
328,34,99170,6,0,P|330:86|328:132,1,70,12|0,1:1|2:2,0:0:0:0:
328,248,99449,5,0,3:3:0:0:
256,176,99727,1,0,3:3:0:0:
184,248,100005,1,0,3:3:0:0:
216,352,100284,1,0,3:3:0:0:
296,352,100562,1,8,3:1:0:0:
40,322,100841,6,0,P|169:344|220:362,1,167.999994873047,4|0,1:1|2:2,0:0:0:0:
248,272,101258,2,0,B|233:235|233:235|240:213|255:206|255:206|269:213|277:235|277:235|262:272,1,154.000004699707,8|0,2:3|2:2,0:0:0:0:
308,355,101676,2,0,P|347:342|388:332,1,77.0000023498536,8|0,1:3|2:2,0:0:0:0:
465,279,101954,1,8,2:2:0:0:
47,279,102233,1,2,2:2:0:0:
202,354,102511,6,0,P|191:280|147:199,1,154.000004699707,4|0,1:1|2:2,0:0:0:0:
356,209,102929,2,0,P|321:278|310:354,1,154.000004699707,8|0,2:3|2:2,0:0:0:0:
250,180,103346,2,0,B|244:169|244:169|256:146|256:146|267:169|267:169|261:180,1,77.0000023498536,8|0,1:3|2:2,0:0:0:0:
256,16,103625,5,2,2:2:0:0:
256,376,103903,1,2,2:2:0:0:
512,305,104182,5,12,2:1:0:0:
176,0,104460,6,0,P|177:52|176:123,1,115.50000352478,8|0,2:2|2:2,0:0:0:0:
356,209,104739,1,2,2:2:0:0:
0,350,105295,6,0,P|78:339|157:337,1,157.500006008148,0|0,1:2|2:2,0:0:0:0:
448,369,105852,1,4,1:1:0:0:
13,260,106131,6,0,P|49:249|87:245,1,70,4|0,2:3|2:2,0:0:0:0:
312,384,106409,2,0,P|264:372|218:368,1,70,2|0,2:2|2:2,0:0:0:0:
261,14,106966,6,0,P|400:14|530:-3,1,251.999992309571,2|0,2:1|0:0,0:0:0:0:
136,143,107523,6,0,P|168:77|91:-12,1,167.999994873047,4|0,1:1|2:2,0:0:0:0:
27,11,107940,1,0,3:3:0:0:
27,11,108080,2,0,L|4:104,1,70,0|0,3:3|0:0,0:0:0:0:
136,143,108358,6,0,P|196:98|272:109,1,125.999996154785,2|0,1:2|0:0,0:0:0:0:
287,226,108636,2,0,P|295:300|248:360,1,125.999996154785,0|0,3:3|0:0,0:0:0:0:
143,313,108915,2,0,P|74:283|45:212,1,125.999996154785,2|0,3:3|0:0,0:0:0:0:
188,89,109193,6,0,P|271:94|318:256,1,251.999992309571,2|0,1:2|2:2,0:0:0:0:
271,342,109750,2,0,P|251:305|249:263,1,70,0|0,3:3|3:3,0:0:0:0:
418,128,110029,5,2,1:2:0:0:
418,128,110307,1,0,3:3:0:0:
489,339,110585,2,0,P|467:366|437:384,1,70,0|0,3:3|1:1,0:0:0:0:
103,251,110864,6,0,P|196:233|252:291,1,167.999994873047,4|0,1:1|3:3,0:0:0:0:
277,367,111281,1,0,3:2:0:0:
277,367,111421,2,0,L|355:387,1,70,0|0,3:3|0:0,0:0:0:0:
512,297,111699,6,0,P|464:258|402:260,1,125.999996154785,2|0,1:2|0:0,0:0:0:0:
209,252,111978,2,0,P|256:214|318:215,1,125.999996154785,0|0,3:3|0:0,0:0:0:0:
87,289,112256,2,0,P|72:327|78:368,1,83.9999974365235,2|0,3:3|2:2,0:0:0:0:
288,301,112534,6,0,P|330:221|296:119,1,167.999994873047,2|0,1:2|2:2,0:0:0:0:
88,96,112952,2,0,P|46:176|80:278,1,167.999994873047,0|0,3:3|3:3,0:0:0:0:
78,368,113370,6,0,L|157:270,1,125.999996154785,2|0,1:2|0:0,0:0:0:0:
340,235,113648,2,0,L|288:301,1,83.9999974365235,0|0,3:3|0:0,0:0:0:0:
452,244,113926,2,0,L|493:191,1,52.5000020027161,0|0,3:3|1:1,0:0:0:0:
411,26,114205,6,0,P|383:140|484:202,1,251.999992309571,4|0,1:1|3:3,0:0:0:0:
512,113,114762,2,0,L|497:60,1,52.5000020027161,0|0,3:3|0:0,0:0:0:0:
301,20,115040,5,2,1:2:0:0:
301,20,115319,1,0,3:3:0:0:
302,218,115597,2,0,L|348:244,1,52.5000020027161,2|0,3:3|2:2,0:0:0:0:
15,140,115875,6,0,P|9:74|66:3,1,125.999996154785,2|0,1:2|0:0,0:0:0:0:
188,54,116154,2,0,P|248:81|281:166,1,125.999996154785,0|0,2:2|0:0,0:0:0:0:
179,260,116432,2,0,P|124:298|34:284,1,125.999996154785,0|0,3:3|0:0,0:0:0:0:
37,23,116711,6,0,P|67:34|97:79,1,83.9999974365235,2|0,1:2|0:0,0:0:0:0:
66,298,116989,2,0,P|60:266|84:218,1,83.9999974365235,0|0,3:3|0:0,0:0:0:0:
277,130,117268,2,0,P|252:150|198:153,1,83.9999974365235,0|0,3:3|1:1,0:0:0:0:
13,105,117546,6,0,P|128:147|178:259,1,251.999992309571,4|0,1:1|2:2,0:0:0:0:
60,384,118103,2,0,P|34:377|10:357,1,52.5000020027161,0|0,3:3|0:0,0:0:0:0:
91,281,118381,6,0,P|105:329|3:350,2,167.999994873047,2|0|2,1:2|3:3|3:3,0:0:0:0:
0,271,119077,1,0,2:2:0:0:
14,362,119217,5,10,1:2:0:0:
173,222,119495,1,0,3:2:0:0:
375,296,119773,1,0,3:2:0:0:
387,13,120052,6,0,P|433:145|357:315,1,308.000009399414,2|0,1:2|3:3,0:0:0:0:
466,203,120748,1,0,1:1:0:0:
295,356,120887,6,0,P|140:363|19:268,1,210.000008010865,12|0,1:1|0:0,0:0:0:0:
42,179,121305,1,8,2:3:0:0:
10,316,121444,2,0,L|25:250,1,52.5000020027161,8|0,2:3|2:2,0:0:0:0:
184,132,121722,6,0,P|210:45|191:-5,1,136.499993751526,2|0,1:2|2:2,0:0:0:0:
202,1,122001,2,0,P|263:67|316:76,1,136.499993751526,8|0,2:3|2:2,0:0:0:0:
402,0,122279,2,0,L|390:51,1,52.5000020027161,0|0,2:2|2:2,0:0:0:0:
314,222,122558,6,0,P|437:267|483:361,1,210.000008010865,2|0,1:2|2:2,0:0:0:0:
433,228,122975,1,8,2:3:0:0:
433,228,123114,2,0,P|437:183|459:144,1,90.9999958343508,8|0,2:3|2:2,0:0:0:0:
238,200,123393,6,0,B|175:197|146:253|146:253|152:323|226:345,1,210.000008010865,2|8,1:2|1:3,0:0:0:0:
54,234,123810,1,0,2:2:0:0:
36,145,123950,2,0,P|50:102|82:70,1,77.0000023498536,0|0,2:2|2:2,0:0:0:0:
194,123,124228,6,0,B|216:248|171:203|196:342,1,210.000008010865,2|0,1:1|2:2,0:0:0:0:
311,384,124646,1,8,2:3:0:0:
408,326,124785,2,0,P|428:252|397:181,1,157.500006008148,8|0,2:3|2:2,0:0:0:0:
394,173,125063,6,0,P|370:133|381:50,1,105.000004005432,2|0,1:2|2:2,0:0:0:0:
332,270,125342,2,0,P|270:319|159:298,1,157.500006008148,8|0,2:3|2:2,0:0:0:0:
20,218,125620,2,0,P|62:224|98:244,1,83.9999974365235,0|0,2:2|2:2,0:0:0:0:
267,384,125899,6,0,B|196:341|214:216|305:202|305:202|355:216|333:278,1,315.000012016297,2|8,1:2|2:3,0:0:0:0:
331,268,126386,1,8,2:3:0:0:
322,269,126455,2,0,P|312:236|325:268,1,105.000004005432,8|0,2:3|2:2,0:0:0:0:
347,121,126734,2,0,P|427:112|512:187,1,167.999994873047,2|8,1:2|1:3,0:0:0:0:
504,171,127152,5,0,2:2:0:0:
512,269,127291,1,0,2:2:0:0:
181,193,127569,6,0,B|100:186|42:240|42:240|57:175|129:158,1,251.999992309571,2|8,1:1|2:3,0:0:0:0:
273,109,128126,2,0,P|282:148|270:188,1,83.9999974365235,8|0,2:3|2:2,0:0:0:0:
279,274,128404,6,0,B|413:268|350:337|492:330,1,210,2|8,1:2|2:3,0:0:0:0:
459,239,128961,1,8,2:3:0:0:
224,384,129240,6,0,P|164:358|131:274,1,136.499993751526,2|0,1:2|2:2,0:0:0:0:
49,250,129518,2,0,P|41:180|59:134,1,90.9999958343508,0|0,2:2|2:2,0:0:0:0:
181,6,129797,2,0,P|190:50|184:94,1,90.9999958343508,8|0,2:3|2:2,0:0:0:0:
328,190,130075,6,0,P|404:182|459:83,1,157.500006008148,2|0,1:2|2:2,0:0:0:0:
482,31,130353,2,0,P|404:42|358:108,1,136.499993751526,0|0,2:2|2:2,0:0:0:0:
328,190,130632,2,0,P|364:225|444:235,1,90.9999958343508,8|0,2:3|2:2,0:0:0:0:
262,384,130910,6,0,B|289:240|205:255|240:117,1,272.999987503052,2|8,1:1|2:3,0:0:0:0:
181,6,131467,2,0,P|113:24|56:14,1,90.9999958343508,8|0,2:3|2:2,0:0:0:0:
0,227,131746,2,0,P|120:260|190:304,1,181.999991668702,2|0,1:2|2:2,0:0:0:0:
462,360,132302,2,0,P|469:301|433:245,1,90.9999958343508,8|0,2:3|2:2,0:0:0:0:
497,87,132581,6,0,P|363:9|209:24,1,315.000012016297,2|8,1:2|2:3,0:0:0:0:
84,4,133138,2,0,P|72:55|52:103,1,105.000004005432,8|0,2:3|2:2,0:0:0:0:
87,345,133416,6,0,P|205:170|9:246,1,560,2|0,1:2|2:2,0:0:0:0:
287,367,134112,5,0,1:1:0:0:
177,41,134251,1,6,1:1:0:0:
9,246,134530,5,0,3:3:0:0:
97,218,134669,1,0,3:3:0:0:
231,175,134808,1,0,3:3:0:0:
437,116,135087,1,2,3:2:0:0:
501,328,135643,6,0,P|505:302|512:276,1,52.5000020027161,0|0,2:2|2:2,0:0:0:0:
368,384,135922,1,2,2:2:0:0:
295,341,136200,1,8,2:3:0:0:
211,334,136479,1,0,2:2:0:0:
332,223,136757,1,2,2:2:0:0:
368,299,137036,1,8,2:3:0:0:
368,383,137314,6,0,P|379:340|394:317,1,52.5000020027161,0|0,3:3|0:0,0:0:0:0:
294,0,137592,1,6,3:1:0:0:
0,50,137871,5,0,3:3:0:0:
92,70,138010,1,0,3:3:0:0:
233,102,138149,1,0,3:3:0:0:
449,144,138428,1,2,3:2:0:0:
512,384,138706,6,0,P|498:331|467:263,1,105.000004005432,0|0,2:2|2:2,0:0:0:0:
512,199,138985,1,8,2:3:0:0:
214,0,139263,5,2,2:2:0:0:
247,133,139541,1,0,2:2:0:0:
212,221,139820,1,8,2:3:0:0:
144,264,140098,1,2,2:2:0:0:
69,223,140377,6,0,P|75:172|103:139,1,70,0|0,2:2|2:2,0:0:0:0:
168,129,140655,2,0,P|209:159|223:200,1,70,8|0,2:3|2:2,0:0:0:0:
0,298,140933,6,0,P|114:253|360:184,1,363.999983337403,4|0,2:2|2:2,0:0:0:0:
418,121,141630,1,8,2:3:0:0:
448,255,141769,2,0,P|496:284|505:381,2,140,0|0|0,2:2|2:2|2:2,0:0:0:0:
350,189,142604,6,0,P|448:207|509:126,1,210,8|0,2:3|2:2,0:0:0:0:
502,36,143161,1,8,2:3:0:0:
418,121,143439,2,0,P|415:60|350:2,1,140,8|0,2:3|2:2,0:0:0:0:
203,200,143996,1,0,2:2:0:0:
269,146,144275,6,0,P|239:211|299:341,1,210,8|0,2:3|2:2,0:0:0:0:
417,266,144831,2,0,P|382:262|348:267,1,70,8|0,2:3|2:2,0:0:0:0:
374,359,145110,2,0,L|511:384,2,140,8|0|8,2:3|2:2|2:3,0:0:0:0:
348,266,145806,1,0,2:2:0:0:
266,384,145945,6,0,B|278:266|241:307|260:181,1,188.999994232178,8|0,2:3|2:2,0:0:0:0:
294,114,146502,2,0,P|268:75|230:56,1,62.9999980773926,8|0,2:3|2:2,0:0:0:0:
125,0,146780,2,0,P|45:29|5:137,2,167.999994873047,8|0|8,2:3|2:2|2:3,0:0:0:0:
511,285,147616,6,0,P|469:355|303:304,1,272.999987503052,6|0,2:1|2:2,0:0:0:0:
339,172,148172,2,0,P|387:151|434:156,1,90.9999958343508,8|0,2:3|2:2,0:0:0:0:
466,13,148451,6,0,L|501:109,1,90.9999958343508,0|0,3:3|2:2,0:0:0:0:
323,261,148729,2,0,L|339:172,1,90.9999958343508,0|0,3:3|2:2,0:0:0:0:
148,246,149008,2,0,L|89:315,1,90.9999958343508,0|0,3:3|2:2,0:0:0:0:
14,28,149286,6,0,B|88:-21|164:49|164:49|154:105|93:125,1,272.999987503052,6|0,2:1|2:2,0:0:0:0:
89,126,149843,2,0,P|63:144|82:119,1,90.9999958343508,8|0,2:3|2:2,0:0:0:0:
277,261,150121,2,0,B|249:127|344:8|471:6|471:6|503:84|441:151,1,525.000020027161,2|0,2:2|2:2,0:0:0:0:
289,360,150957,6,0,P|173:371|25:116,1,448,12|8,1:1|2:2,0:0:0:0:
99,44,151653,1,0,2:2:0:0:
297,119,151792,6,0,P|305:195|239:260,1,168,0|0,1:1|2:2,0:0:0:0:
158,242,152070,2,0,P|126:198|132:126,1,112,0|0,3:2|2:2,0:0:0:0:
413,268,152349,2,0,P|412:323|380:367,1,112,0|0,3:2|2:2,0:0:0:0:
336,29,152627,6,0,P|465:46|438:174,1,293.999991027832,8|0,1:1|2:2,0:0:0:0:
316,125,153184,2,0,L|340:7,1,97.9999970092774,0|0,1:2|2:2,0:0:0:0:
47,118,153462,6,0,P|26:226|127:273,1,238.00000453949,0|2,1:1|2:1,0:0:0:0:
193,189,153880,1,0,2:2:0:0:
57,111,154019,1,8,2:2:0:0:
297,217,154298,6,0,P|386:217|443:154,1,146.999995513916,8|0,1:1|2:2,0:0:0:0:
384,267,154576,2,0,P|346:318|347:387,1,97.9999970092774,2|0,2:3|2:2,0:0:0:0:
347,129,154855,2,0,P|321:70|261:36,1,97.9999970092774,2|0,2:3|2:2,0:0:0:0:
512,176,155133,6,0,P|525:255|469:336,1,146.999995513916,0|0,1:1|2:2,0:0:0:0:
431,380,155411,2,0,P|364:350|306:359,1,97.9999970092774,2|0,2:3|2:2,0:0:0:0:
146,240,155690,2,0,P|161:173|256:126,1,146.999995513916,2|0,2:3|2:2,0:0:0:0:
6,155,155968,6,0,P|47:334|229:359,1,391.99998803711,8|0,1:1|3:2,0:0:0:0:
358,138,156664,1,0,3:2:0:0:
211,16,156804,6,0,P|200:75|231:139,1,119.000002269745,0|0,1:1|2:2,0:0:0:0:
438,187,157082,1,2,2:1:0:0:
477,195,157360,1,8,2:2:0:0:
316,384,157639,6,0,P|350:290|282:216,1,210.000008010865,8|0,1:1|2:2,0:0:0:0:
102,221,158056,1,0,3:2:0:0:
102,221,158196,2,0,P|76:275|88:333,1,105.000004005432,0|0,1:2|2:2,0:0:0:0:
222,127,158474,6,0,P|173:39|73:36,1,210.000008010865,0|0,1:1|2:2,0:0:0:0:
371,233,159031,2,0,P|348:186|351:134,1,105.000004005432,0|0,1:2|2:2,0:0:0:0:
196,219,159309,6,0,P|297:219|352:134,1,210.000008010865,8|0,1:1|2:2,0:0:0:0:
280,20,159727,1,0,3:2:0:0:
280,20,159866,2,0,L|165:-3,1,105.000004005432,0|0,3:2|2:2,0:0:0:0:
21,117,160145,6,0,P|33:226|158:282,2,210.000008010865,0|2|8,1:1|2:1|2:2,0:0:0:0:
78,47,160841,1,0,2:2:0:0:
177,217,160980,6,0,P|271:177|362:221,1,210.000008010865,8|0,1:1|2:2,0:0:0:0:
459,222,161397,1,0,3:2:0:0:
341,315,161537,2,0,P|268:340|197:310,1,157.500006008148,0|0,3:2|2:2,0:0:0:0:
94,280,161815,6,0,L|65:159,1,105.000004005432,0|0,1:1|2:2,0:0:0:0:
0,15,162094,2,0,L|119:50,1,105.000004005432,2|0,2:3|2:2,0:0:0:0:
271,69,162372,2,0,L|180:154,1,105.000004005432,2|0,2:3|2:2,0:0:0:0:
0,253,162650,6,0,P|148:265|258:401,1,315.000012016297,8|0,1:1|2:2,0:0:0:0:
395,336,163207,5,8,1:3:0:0:
440,133,163346,1,4,1:3:0:0:
293,229,163486,1,2,1:3:0:0:
300,257,163764,1,2,1:3:0:0:
307,286,164043,1,2,1:3:0:0:
385,336,164182,2,0,L|447:326,1,62.9999980773926,0|0,1:2|2:2,0:0:0:0:
496,248,164321,6,0,P|298:206|20:390,1,525.000020027161,12|2,1:1|2:1,0:0:0:0:
104,237,165156,6,0,P|102:165|53:112,1,105.000004005432,8|0,1:2|2:2,0:0:0:0:
320,0,165435,2,0,P|354:80|319:160,1,178.500003404617,0|0,3:2|2:2,0:0:0:0:
234,171,165713,2,0,L|116:155,1,105.000004005432,0|0,3:2|2:2,0:0:0:0:
439,374,165991,6,0,P|495:294|346:277,1,315.000012016297,8|0,1:1|2:2,0:0:0:0:
10,308,166548,2,0,P|65:381|102:388,1,105.000004005432,0|0,1:2|2:2,0:0:0:0:
227,335,166827,6,0,P|247:265|150:150,1,210.000008010865,0|2,1:1|2:1,0:0:0:0:
98,211,167244,1,0,3:2:0:0:
73,384,167384,1,8,2:2:0:0:
184,70,167662,6,0,P|113:89|78:154,1,105.000004005432,8|0,1:1|2:2,0:0:0:0:
309,73,167940,2,0,P|268:11|196:-1,1,105.000004005432,2|0,2:3|2:2,0:0:0:0:
347,208,168219,2,0,P|384:172|396:121,1,105.000004005432,2|0,2:3|2:2,0:0:0:0:
253,369,168497,6,0,P|329:382|400:351,1,157.500006008148,0|0,1:1|2:2,0:0:0:0:
493,189,168776,2,0,P|417:174|347:208,1,157.500006008148,2|0,2:3|2:2,0:0:0:0:
144,250,169054,2,0,P|98:226|73:180,1,105.000004005432,2|0,2:3|2:2,0:0:0:0:
253,369,169333,6,0,P|272:269|62:189,1,357.000006809235,8|0,1:1|2:2,0:0:0:0:
0,281,169889,1,0,3:2:0:0:
24,364,170029,1,0,3:2:0:0:
181,274,170168,6,0,P|115:270|183:303,1,210.000008010865,0|2,1:1|2:1,0:0:0:0:
5,8,170725,2,0,L|35:138,1,105.000004005432,8|0,2:2|2:2,0:0:0:0:
102,156,171003,6,0,P|196:150|285:59,1,210.000008010865,8|0,1:1|2:2,0:0:0:0:
196,19,171421,1,0,3:2:0:0:
102,156,171560,1,0,1:2:0:0:
257,221,171699,1,0,3:2:0:0:
364,76,171838,2,0,P|428:76|507:146,1,167.999994873047,0|2,1:1|2:1,0:0:0:0:
225,257,172395,5,8,2:2:0:0:
296,190,172534,1,0,2:2:0:0:
396,231,172674,2,0,P|413:304|280:377,1,210.000008010865,8|0,1:1|2:2,0:0:0:0:
155,305,173091,5,0,3:2:0:0:
117,155,173230,1,0,1:2:0:0:
221,32,173370,1,0,3:2:0:0:
261,184,173509,2,0,P|200:195|100:130,1,157.500006008148,0|0,1:1|2:2,0:0:0:0:
92,69,173787,6,0,P|43:37|-20:37,1,105.000004005432,2|0,2:1|2:2,0:0:0:0:
176,231,174066,2,0,P|243:269|320:260,1,157.500006008148,8|0,2:2|2:2,0:0:0:0:
373,177,174344,6,0,L|495:153,1,105.000004005432,8|0,1:1|2:2,0:0:0:0:
279,353,174623,2,0,L|123:383,1,157.500006008148,0|0,3:2|2:2,0:0:0:0:
48,345,174901,2,0,P|15:285|25:215,1,105.000004005432,0|0,1:2|2:2,0:0:0:0:
67,116,175179,6,0,L|191:247,1,157.500006008148,0|0,1:1|2:2,0:0:0:0:
219,137,175458,2,0,L|302:57,1,105.000004005432,0|0,3:2|2:2,0:0:0:0:
355,0,175736,1,0,1:2:0:0:
510,301,176015,6,0,P|350:321|325:162,1,357.000006809235,8|0,1:1|2:2,0:0:0:0:
355,0,176572,2,0,P|421:10|484:91,1,119.000002269745,0|0,1:2|2:2,0:0:0:0:
512,300,176850,6,0,L|145:226,1,357.000006809235,0|0,1:1|2:2,0:0:0:0:
16,288,177407,2,0,P|13:339|40:383,1,105.000004005432,8|0,2:2|2:2,0:0:0:0:
256,296,177685,1,4,1:1:0:0:
256,192,177755,12,0,181026,3:3:0:0:
357,310,184367,6,0,P|317:319|280:346,1,78.7500030040742,2|0,2:2|2:2,0:0:0:0:
278,346,184646,2,0,P|194:321|94:323,1,181.999991668702,2|0,2:2|2:2,0:0:0:0:
56,177,185481,2,0,P|56:113|22:-6,1,181.999991668702,2|0,2:2|2:2,0:0:0:0:
146,129,186316,6,0,L|179:138,1,24.4999992523194,0|0,2:2|2:2,0:0:0:0:
227,122,186595,2,0,L|260:131,1,24.4999992523194,0|0,2:2|2:2,0:0:0:0:
264,213,186873,2,0,L|297:222,1,24.4999992523194,8|0,2:3|2:2,0:0:0:0:
308,208,187152,2,0,L|341:217,1,24.4999992523194,0|0,2:2|2:2,0:0:0:0:
381,287,187430,1,8,2:3:0:0:
466,380,187708,6,0,P|463:346|454:318,1,45.4999979171754,2|0,2:2|2:2,0:0:0:0:
381,287,187987,2,0,P|268:315|117:166,1,346.500010574341,2|0,2:2|2:2,0:0:0:0:
175,43,189379,6,0,L|187:10,2,19.2500005874634,0|0|0,2:2|2:2|2:2,0:0:0:0:
96,90,189657,2,0,P|47:61|18:56,1,77.0000023498536,8|0,2:3|2:2,0:0:0:0:
201,159,190214,6,0,P|226:153|240:152,1,38.5000011749268,0|0,2:2|2:2,0:0:0:0:
320,185,190493,2,0,P|333:206|338:219,1,38.5000011749268,0|0,2:2|2:2,0:0:0:0:
420,254,190771,1,8,2:3:0:0:
354,384,191049,6,0,P|298:289|502:71,1,462.000014099122,0|0,2:2|2:2,0:0:0:0:
512,84,192998,5,0,2:2:0:0:
511,122,193277,5,0,2:2:0:0:
471,202,193555,6,0,P|437:219|421:223,1,45.4999979171754,2|0,2:2|2:2,0:0:0:0:
343,310,193834,6,0,P|315:305|275:275,1,70,2|0,2:2|2:2,0:0:0:0:
100,256,194112,6,0,P|83:191|97:138,1,105.000004005432,2|0,2:2|2:2,0:0:0:0:
255,0,194391,6,0,P|361:14|431:187,1,293.999991027832,12|0,2:1|2:2,0:0:0:0:
344,242,194947,1,8,1:2:0:0:
318,128,195087,1,0,1:2:0:0:
378,373,195226,6,0,P|501:305|335:260,1,391.99998803711,2|8,1:2|2:2,0:0:0:0:
416,292,195922,1,0,1:1:0:0:
241,168,196061,6,0,P|230:55|149:134,1,280,2|0,1:2|2:2,0:0:0:0:
208,114,196757,1,0,1:2:0:0:
38,172,196896,6,0,P|-1:132|2:187,2,140,2|8|0,1:2|2:2|1:1,0:0:0:0:
197,376,197732,6,0,B|168:256|216:280|184:162,1,210,2|0,1:2|2:2,0:0:0:0:
96,154,198288,2,0,P|85:205|92:252,1,70,0|0,3:3|2:2,0:0:0:0:
12,288,198567,5,2,1:2:0:0:
197,376,198845,2,0,P|243:354|283:352,1,70,8|0,2:2|2:2,0:0:0:0:
373,215,199124,1,0,2:2:0:0:
465,370,199402,6,0,P|398:366|323:283,1,146.999995513916,2|0,1:2|2:2,0:0:0:0:
250,292,199681,2,0,P|209:238|225:127,1,146.999995513916,0|0,3:3|2:2,0:0:0:0:
152,88,199959,2,0,P|158:47|200:-2,1,97.9999970092774,8|0,2:2|2:2,0:0:0:0:
446,59,200237,5,2,1:2:0:0:
8,168,200516,5,0,2:2:0:0:
18,74,200655,1,0,3:3:0:0:
111,59,200794,1,8,3:2:0:0:
154,140,200933,1,0,1:1:0:0:
89,207,201073,1,8,2:1:0:0:
58,378,201351,6,0,P|35:300|49:257,1,97.9999970092774,0|8,2:2|2:2,0:0:0:0:
247,195,201630,2,0,P|270:273|256:316,1,97.9999970092774,0|0,2:2|2:2,0:0:0:0:
58,378,201908,6,0,P|133:253|375:267,1,391.99998803711,2|0,1:2|2:2,0:0:0:0:
450,249,202604,1,8,1:2:0:0:
512,105,202743,6,0,P|409:8|273:45,1,280,2|0,1:2|2:2,0:0:0:0:
231,107,203439,1,0,1:2:0:0:
42,151,203578,6,0,P|-1:116|12:21,2,140,2|8|0,1:2|2:2|1:1,0:0:0:0:
132,142,204275,1,0,3:3:0:0:
243,314,204414,6,0,B|233:362|175:380|175:380|112:369|57:295|118:214,1,293.999991027832,8|0,2:1|2:2,0:0:0:0:
194,197,204971,2,0,P|228:212|192:218,1,97.9999970092774,8|0,2:2|2:2,0:0:0:0:
333,344,205249,6,0,B|359:387|421:381|421:381|492:359|498:262|447:211,1,272.999987503052,2|0,1:2|2:2,0:0:0:0:
424,155,205806,2,0,P|376:183|352:232,1,90.9999958343508,8|0,2:2|2:2,0:0:0:0:
250,53,206084,6,0,P|311:14|382:27,1,146.999995513916,2|0,1:2|2:2,0:0:0:0:
285,139,206363,2,0,P|218:196|222:284,1,146.999995513916,0|0,2:2|2:2,0:0:0:0:
346,368,206641,2,0,P|313:333|298:287,1,97.9999970092774,0|0,1:1|2:2,0:0:0:0:
357,212,206920,5,4,1:3:0:0:
216,344,207198,2,0,P|173:365|125:363,1,97.9999970092774,0|0,1:1|2:2,0:0:0:0:
32,210,207476,2,0,P|70:189|140:198,1,97.9999970092774,0|0,1:1|3:3,0:0:0:0:
396,225,207755,6,0,P|387:306|297:387,1,195.999994018555,8|0,1:1|2:2,0:0:0:0:
15,115,208312,2,0,P|15:165|43:225,1,97.9999970092774,0|8,2:2|2:2,0:0:0:0:
118,158,208590,6,0,P|127:77|217:-4,1,195.999994018555,0|2,1:1|2:2,0:0:0:0:
470,67,209147,2,0,P|403:68|354:33,1,97.9999970092774,0|0,2:2|2:2,0:0:0:0:
212,231,209425,6,0,B|245:262|290:245|290:245|315:183|272:117|207:113,2,238.00000453949,0|8|0,1:1|2:2|1:1,0:0:0:0:
296,2,210261,5,12,2:1:0:0:
212,232,210539,2,0,P|151:251|102:251,1,97.9999970092774,0|0,2:2|1:1,0:0:0:0:
0,212,210817,1,8,1:2:0:0:
226,335,211096,6,0,P|286:322|402:386,1,195.999994018555,8|0,1:1|2:2,0:0:0:0:
512,87,211653,2,0,P|500:42|462:-5,1,97.9999970092774,0|8,1:1|2:2,0:0:0:0:
338,160,211931,6,0,P|295:205|122:91,1,293.999991027832,8|0,1:1|2:2,0:0:0:0:
316,74,212488,2,0,P|384:82|426:134,1,97.9999970092774,8|0,2:2|2:2,0:0:0:0:
474,283,212766,2,0,B|466:342|395:364|395:364|356:304|386:254,2,238.00000453949,2|0|8,1:2|2:2|1:2,0:0:0:0:
121,117,213602,1,12,2:1:0:0:
386,254,213880,5,8,2:1:0:0:
338,160,214019,1,0,3:3:0:0:
235,180,214159,1,8,3:2:0:0:
223,281,214298,1,0,1:1:0:0:
315,323,214437,1,8,2:1:0:0:
34,384,214715,6,0,P|6:337|7:274,1,97.9999970092774,0|0,3:3|2:2,0:0:0:0:
191,191,214994,2,0,P|219:238|218:301,1,97.9999970092774,0|0,3:3|1:1,0:0:0:0:
0,55,215272,6,0,P|180:12|293:160,1,391.99998803711,10|0,1:2|2:2,0:0:0:0:
343,234,215968,1,0,3:3:0:0:
383,384,216107,6,0,P|501:293|438:120,1,335.999989746094,2|8,1:2|2:2,0:0:0:0:
365,100,216804,1,0,1:1:0:0:
198,214,216943,6,0,P|97:219|37:138,1,210.000008010865,2|0,1:2|2:2,0:0:0:0:
43,49,217360,1,8,3:2:0:0:
116,0,217500,1,8,3:2:0:0:
203,21,217639,1,0,1:1:0:0:
280,177,217778,6,0,P|359:211|512:65,1,315.000012016297,2|0,1:2|2:2,0:0:0:0:
416,56,218335,2,0,P|423:144|455:195,1,105.000004005432,8|0,2:2|2:2,0:0:0:0:
196,301,218613,6,0,P|91:310|-21:233,2,210.000008010865,2|0|8,1:2|2:2|1:2,0:0:0:0:
274,86,219309,1,0,1:1:0:0:
348,20,219449,6,0,P|451:10|520:38,2,167.999994873047,0|0|8,1:1|2:2|1:2,0:0:0:0:
196,301,220145,1,0,2:2:0:0:
108,365,220284,6,0,P|55:382|-10:374,2,112,2|0|8,1:2|2:2|1:2,0:0:0:0:
512,384,221119,5,4,2:1:0:0:
325,311,221258,2,0,P|268:260|217:190,1,157.500006008148,2|0,1:2|2:2,0:0:0:0:
182,28,221537,6,0,P|228:80|248:114,1,105.000004005432,0|0,1:2|2:2,0:0:0:0:
243,289,221815,1,8,1:2:0:0:
397,108,221954,2,0,P|358:135|312:180,1,105.000004005432,0|0,1:2|2:2,0:0:0:0:
372,384,222233,6,0,P|221:238|53:113,1,420,8|0,1:1|2:2,0:0:0:0:
10,17,222790,5,4,2:1:0:0:
32,221,222929,2,0,P|83:270|128:323,1,105.000004005432,2|0,1:2|2:2,0:0:0:0:
191,101,223207,6,0,P|235:47|286:0,1,140,0|0,1:2|2:2,0:0:0:0:
383,105,223486,1,8,1:2:0:0:
383,105,223625,2,0,P|445:149|496:213,1,140,0|0,1:2|2:2,0:0:0:0:
12,384,223903,6,0,P|232:192|527:-4,1,630.000024032594,8|0,1:1|2:3,0:0:0:0:
512,4,225295,2,0,L|507:20,2,14,0|0|0,2:2|2:2|2:2,0:0:0:0:
512,109,226131,6,0,P|473:65|396:21,1,140,10|0,2:2|0:0,0:0:0:0:
427,171,226966,2,0,P|415:148|388:109,2,70,2|2|2,2:2|2:2|2:2,0:0:0:0:
321,55,227801,6,0,P|269:74|174:74,1,140,2|2,2:2|2:2,0:0:0:0:
130,162,228636,1,2,2:2:0:0:
130,162,229193,1,2,2:2:0:0:
81,251,229472,6,0,P|44:260|12:264,2,70,2|2|2,2:2|2:2|2:2,0:0:0:0:
235,242,230307,2,0,P|269:251|304:255,2,70,2|2|2,2:2|2:2|2:2,0:0:0:0:
157,384,231142,6,0,P|160:340|158:274,1,105,2|0,2:2|0:0,0:0:0:0:
156,187,231699,2,0,P|154:157|155:138,1,35,2|2,2:2|2:2,0:0:0:0:
246,198,231978,2,0,P|287:204|308:208,2,56,2|2|0,2:2|2:2|0:0,0:0:0:0:
246,198,232813,6,0,P|197:212|113:139,1,157.500006008148,2|2,2:2|2:2,0:0:0:0:
55,89,233370,2,0,P|22:83|-12:89,1,52.5000020027161,2|0,2:2|0:0,0:0:0:0:
119,21,233648,2,0,P|168:7|270:128,1,210.000008010865,2|2,2:2|2:2,0:0:0:0:
340,172,234344,1,0,0:0:0:0:
425,139,234483,6,0,P|458:79|429:-2,1,157.500006008148,2|2,2:2|2:2,0:0:0:0:
425,139,235040,2,0,P|441:187|458:206,1,52.5000020027161,2|0,2:2|0:0,0:0:0:0:
490,270,235319,2,0,P|486:312|428:374,2,105.000004005432,2|2|0,2:2|2:2|0:0,0:0:0:0:
363,384,236015,1,0,0:0:0:0:
393,268,236154,6,0,B|360:225|297:225|297:225|228:281|261:361,1,251.999992309571,6|2,2:2|2:2,0:0:0:0:
165,273,236711,2,0,P|128:253|104:204,1,83.9999974365235,2|0,2:2|0:0,0:0:0:0:
1,376,236989,6,0,P|42:373|77:350,1,83.9999974365235,2|0,2:2|0:0,0:0:0:0:
106,217,237268,2,0,P|102:174|165:104,1,125.999996154785,2|0,2:2|0:0,0:0:0:0:
158,105,237546,2,0,L|248:125,1,83.9999974365235,2|0,2:2|0:0,0:0:0:0:
313,293,237824,6,0,P|275:342|223:354,1,83.9999974365235,6|0,2:2|0:0,0:0:0:0:
44,169,238103,2,0,P|13:125|54:8,1,167.999994873047,2|0,2:2|3:3,0:0:0:0:
134,0,238520,1,0,0:0:0:0:
305,61,238660,6,0,P|374:50|423:-1,1,83.9999974365235,10|0,2:2|0:0,0:0:0:0:
404,174,238938,5,2,2:2:0:0:
359,279,239077,1,2,2:2:0:0:
218,152,239217,1,2,2:2:0:0:
512,71,239356,1,2,2:2:0:0:
403,383,239495,6,0,P|319:281|468:5,1,476.00000907898,14|2,2:2|2:2,0:0:0:0:
512,250,240191,1,0,0:0:0:0:
409,166,240330,6,0,P|400:89|474:-3,1,178.500003404617,10|0,2:2|0:0,0:0:0:0:
490,136,240609,2,0,P|486:213|426:251,1,119.000002269745,2|0,2:2|0:0,0:0:0:0:
172,104,240887,2,0,P|176:27|236:-11,1,119.000002269745,10|0,2:2|0:0,0:0:0:0:
453,8,241165,6,0,P|473:88|274:66,1,357.000006809235,6|0,2:2|3:3,0:0:0:0:
7,98,241722,2,0,P|-14:155|20:231,1,119.000002269745,2|0,2:2|0:0,0:0:0:0:
33,375,242001,6,0,P|120:349|47:223,1,238.00000453949,2|10,2:2|2:2,0:0:0:0:
391,315,242558,2,0,P|459:350|491:410,1,119.000002269745,2|0,2:2|0:0,0:0:0:0:
370,126,242836,6,0,P|290:141|258:274,1,178.500003404617,2|0,2:2|0:0,0:0:0:0:
280,302,243114,2,0,P|354:326|405:304,1,119.000002269745,2|8,2:2|3:3,0:0:0:0:
482,184,243393,2,0,L|516:57,1,119.000002269745,2|0,2:2|0:0,0:0:0:0:
210,0,243671,6,0,L|155:191,1,178.500003404617,10|0,2:2|0:0,0:0:0:0:
70,190,243950,2,0,P|23:144|15:90,1,119.000002269745,2|0,2:2|0:0,0:0:0:0:
302,83,244228,2,0,P|349:129|330:255,1,178.500003404617,10|0,2:2|0:0,0:0:0:0:
264,371,244507,6,0,P|255:194|485:256,1,476.00000907898,6|2,2:2|2:2,0:0:0:0:
272,384,245203,1,2,2:2:0:0:
190,259,245342,6,0,P|99:217|-13:248,1,210.000008010865,2|10,2:2|2:2,0:0:0:0:
418,384,245899,2,0,L|393:258,1,105.000004005432,2|0,2:2|0:0,0:0:0:0:
357,102,246177,6,0,P|434:82|441:211,1,238.00000453949,14|2,2:2|2:2,0:0:0:0:
327,209,246595,1,10,2:2:0:0:
303,0,246734,1,2,2:2:0:0:
489,88,246873,1,2,2:2:0:0:
327,209,247012,6,0,P|213:213|132:100,1,238.00000453949,10|2,2:2|2:2,0:0:0:0:
0,383,247569,2,0,P|46:341|62:280,1,119.000002269745,10|0,2:2|0:0,0:0:0:0:
136,125,247848,6,0,B|106:78|42:60|-12:86|-12:86|40:114|78:93,1,238.00000453949,6|2,2:2|2:2,0:0:0:0:
82,204,248265,1,2,2:2:0:0:
267,128,248404,1,2,2:2:0:0:
128,0,248544,1,2,2:2:0:0:
82,204,248683,6,0,P|118:266|232:281,1,157.500006008148,2|0,2:2|0:0,0:0:0:0:
267,235,248961,2,0,P|313:185|328:179,1,70,10|0,2:2|0:0,0:0:0:0:
498,281,249240,2,0,L|467:414,1,105.000004005432,2|0,2:2|0:0,0:0:0:0:
319,181,249518,6,0,P|323:81|387:29,1,157.500006008148,2|0,2:2|0:0,0:0:0:0:
461,0,249797,2,0,L|433:114,1,105.000004005432,2|8,2:2|3:3,0:0:0:0:
250,243,250075,2,0,P|189:194|176:119,1,157.500006008148,2|0,2:2|0:0,0:0:0:0:
156,31,250353,6,0,L|288:6,1,105.000004005432,10|0,2:2|0:0,0:0:0:0:
435,101,250632,2,0,L|331:120,1,105.000004005432,2|0,2:2|0:0,0:0:0:0:
96,300,250910,2,0,P|160:344|237:335,1,157.500006008148,10|0,2:2|0:0,0:0:0:0:
423,237,251189,6,0,B|314:210|254:300|299:307|218:420|98:365,1,357.000006809235,2|2,2:2|2:2,0:0:0:0:
0,292,251746,1,2,2:2:0:0:
122,61,251885,1,2,2:2:0:0:
79,242,252024,6,0,P|40:180|46:108,1,146.999995513916,10|0,2:2|0:0,0:0:0:0:
274,286,252302,6,0,L|287:415,1,97.9999970092774,10|0,2:2|3:3,0:0:0:0:
438,118,252581,6,0,P|479:41|447:-37,1,132.999996448517,2|0,2:2|3:3,0:0:0:0:
189,287,252859,6,0,P|514:234|164:186,1,1008,14|2,2:2|2:2,0:0:0:0:
391,268,254251,2,0,P|425:225|427:189,1,90.9999958343508,2|0,2:2|2:2,0:0:0:0:
68,186,254530,6,0,P|38:290|81:373,1,181.999991668702,2|2,2:2|2:2,0:0:0:0:
147,384,254947,1,2,2:2:0:0:
265,293,255087,2,0,P|359:263|429:287,1,132.999996448517,2|0,2:2|3:3,0:0:0:0:
512,38,255365,6,0,P|437:78|297:49,1,224,2|2,2:2|2:2,0:0:0:0:
217,12,255783,1,0,0:0:0:0:
45,91,255922,1,2,2:2:0:0:
45,91,256200,6,0,B|19:211|94:183|64:334,1,210.000008010865,6|2,2:2|2:2,0:0:0:0:
114,370,256618,1,0,2:2:0:0:
269,369,256757,2,0,P|306:324|306:216,1,157.500006008148,2|0,2:2|0:0,0:0:0:0:
348,142,257036,6,0,P|404:116|483:130,1,132.999996448517,2|0,2:2|0:0,0:0:0:0:
310,228,257314,2,0,P|245:237|159:130,1,199.499994672775,2|0,2:2|0:0,0:0:0:0:
297,0,257592,1,2,2:2:0:0:
417,324,257871,6,0,P|228:320|159:146,1,398.999989345551,2|0,2:2|3:3,0:0:0:0:
472,53,258428,2,0,P|512:145|474:267,1,199.499994672775,2|0,2:2|0:0,0:0:0:0:
417,324,258706,6,0,B|305:299|332:370|225:347,1,199.499994672775,2|0,2:2|0:0,0:0:0:0:
26,214,258985,2,0,P|5:145|43:66,1,132.999996448517,2|0,2:2|0:0,0:0:0:0:
205,0,259263,1,2,2:2:0:0:
62,345,259541,6,0,P|203:193|95:148,1,398.999989345551,6|0,2:2|3:3,0:0:0:0:
1,150,260098,2,0,P|15:199|47:232,1,70,2|0,2:2|0:0,0:0:0:0:
246,215,260377,6,0,B|341:212|368:90|303:127|321:-4|454:-1,1,315.000012016297,2|0,2:2|0:0,0:0:0:0:
500,168,260933,2,0,P|484:231|511:290,1,132.999996448517,2|0,2:2|2:2,0:0:0:0:
210,342,261212,6,0,P|147:299|-26:303,1,210.000008010865,2|2,2:2|2:2,0:0:0:0:
0,384,261630,1,2,2:2:0:0:
86,193,261769,2,0,P|164:163|220:168,1,132.999996448517,2|0,2:2|3:3,0:0:0:0:
374,210,262047,6,0,P|387:310|313:380,1,210.000008010865,2|2,2:2|2:2,0:0:0:0:
179,251,262465,1,0,0:0:0:0:
215,76,262604,1,2,2:2:0:0:
215,76,262882,6,0,B|386:33|352:141|525:96,1,315.000012016297,6|2,2:2|2:2,0:0:0:0:
469,234,263439,2,0,P|394:227|355:178,1,105.000004005432,2|0,2:2|0:0,0:0:0:0:
156,356,263718,6,0,P|250:358|308:305,1,157.500006008148,2|0,2:2|0:0,0:0:0:0:
373,209,263996,2,0,P|327:126|252:102,1,157.500006008148,2|0,2:2|0:0,0:0:0:0:
132,98,264275,2,0,P|83:178|100:255,1,157.500006008148,2|0,2:2|0:0,0:0:0:0:
224,220,264553,6,0,P|185:5|30:78,1,448,10|2,2:2|2:2,0:0:0:0:
91,237,265249,1,0,3:3:0:0:
132,98,265388,6,0,L|144:171,1,57.7500017623902,2|0,2:2|0:0,0:0:0:0:
361,145,265667,6,0,L|380:263,1,105,0|0,1:1|0:0,0:0:0:0:
115,363,265945,6,0,L|90:221,1,125.999996154785,2|2,2:2|2:2,0:0:0:0:
260,0,266223,6,0,P|250:106|252:227,1,188.999994232178,6|0,2:2|0:0,0:0:0:0:
256,272,266502,1,2,2:2:0:0:
444,125,266641,6,0,P|447:196|446:278,1,125.999996154785,2|2,2:2|2:2,0:0:0:0:
447,341,266920,1,2,2:2:0:0:
152,153,267059,6,0,P|147:224|149:392,1,224,10|2,2:2|2:2,0:0:0:0:
351,128,267476,5,10,2:2:0:0:
342,223,267616,1,2,2:2:0:0:
353,307,267755,1,2,2:2:0:0:
16,384,267894,6,0,P|14:261|-1:93,1,280,6|2,2:2|2:2,0:0:0:0:
241,152,268312,6,0,P|234:70|238:-7,1,140,2|2,2:2|2:2,0:0:0:0:
323,8,268590,1,2,2:2:0:0:
447,133,268729,6,0,P|442:206|447:297,2,140,10|2|2,2:2|2:2|2:2,0:0:0:0:
183,384,269147,6,0,P|182:296|177:237,1,125.999996154785,10|2,2:2|2:2,0:0:0:0:
123,58,269425,1,2,2:2:0:0:
130,104,269495,1,0,0:0:0:0:
115,151,269565,6,0,P|234:149|283:151,1,125.999996154785,6|2,2:2|2:2,0:0:0:0:
311,88,269843,1,2,2:2:0:0:
462,321,269982,6,0,P|343:323|294:321,1,125.999996154785,2|2,2:2|2:2,0:0:0:0:
266,384,270261,1,2,2:2:0:0:
14,353,270400,5,10,2:2:0:0:
246,299,270539,1,2,2:2:0:0:
138,370,270678,1,2,2:2:0:0:
466,164,270817,5,10,2:2:0:0:
272,209,270957,1,2,2:2:0:0:
362,149,271096,1,2,2:2:0:0:
38,7,271235,6,0,P|239:372|512:79,1,952,6|0,2:2|0:0,0:0:0:0:
