osu file format v14

[General]
AudioFilename: audio.mp3
AudioLeadIn: 0
PreviewTime: 206354
Countdown: 0
SampleSet: Soft
StackLeniency: 0.7
Mode: 0
LetterboxInBreaks: 0
WidescreenStoryboard: 0

[Editor]
Bookmarks: 21295,39408,57521,75634,91484,109597,168465,186578,206955,213748,231861,249974
DistanceSpacing: 1.6
BeatDivisor: 8
GridSize: 8
TimelineZoom: 2

[Metadata]
Title:Stardust Melodia
TitleUnicode:Stardust Melodia
Artist:Ceui
ArtistUnicode:Ceui
Creator:Kibbleru
Version:Celestial
Source:境界線上のホライゾン
Tags:anime japanese kyoukai senjou no horizon in the middle of nowhere ending odaka kotaro セイ labyrinthus fixxis black man
BeatmapID:2321530
BeatmapSetID:1111107

[Difficulty]
HPDrainRate:6
CircleSize:4
OverallDifficulty:8.5
ApproachRate:9.2
SliderMultiplier:3.39999990463257
SliderTickRate:1

[Events]
//Background and Video events
0,0,"72253537_p0.jpg",0,0
//Break Periods
2,207161,212618
//Storyboard Layer 0 (Background)
//Storyboard Layer 1 (Fail)
//Storyboard Layer 2 (Pass)
//Storyboard Layer 3 (Foreground)
//Storyboard Layer 4 (Overlay)
//Storyboard Sound Samples

[TimingPoints]
924,566.037735849057,4,2,1,35,1,0
924,-200,4,2,1,35,0,0
7716,-200,4,2,1,40,0,0
8565,-142.857142857143,4,2,1,40,0,0
9414,-111.111111111111,4,2,1,40,0,0
9697,-90.909090909091,4,2,1,50,0,0
9980,-90.909090909091,4,2,1,60,0,0
12244,-100,4,2,1,60,0,0
21301,-200,4,2,1,35,0,0
30357,-200,4,2,1,40,0,0
31490,-166.666666666667,4,2,1,40,0,0
32056,-200,4,2,1,40,0,0
32622,-166.666666666667,4,2,1,40,0,0
33754,-200,4,2,1,40,0,0
38565,-200,4,2,1,50,0,0
39414,-125,4,2,1,50,0,0
52999,-111.111111111111,4,2,1,60,0,0
57527,-100,4,2,1,65,0,1
66301,-100,4,2,1,65,0,0
66584,-100,4,2,1,65,0,1
75640,-100,4,2,1,50,0,0
84697,-166.666666666667,4,2,1,45,0,0
89367,-142.857142857143,4,2,1,45,0,0
91490,-200,4,2,1,45,0,0
92622,-125,4,2,1,45,0,0
109603,-125,4,2,1,50,0,0
123188,-111.111111111111,4,2,1,60,0,0
126018,-99.9999999999999,4,2,1,50,0,0
126301,-90.9090909090909,4,2,1,50,0,0
127716,-100,4,2,1,65,0,1
136490,-100,4,2,1,65,0,0
136773,-100,4,2,1,65,0,1
145900,-100,4,2,1,50,0,0
148376,-166.666666666667,4,2,1,60,0,0
148659,-142.857142857143,4,2,1,60,0,0
148942,-111.111111111111,4,2,1,60,0,0
149508,-111.111111111111,4,2,1,50,0,0
149791,-111.111111111111,4,2,1,60,0,0
150357,-100,4,2,1,60,0,0
168471,-125,4,2,1,50,0,0
186584,-200,4,2,1,60,0,0
187433,-166.666666666667,4,2,1,60,0,0
187999,-142.857142857143,4,2,1,60,0,0
188282,-125,4,2,1,60,0,0
188565,-111.111111111111,4,2,1,60,0,0
188848,-100,4,2,1,60,0,0
189414,-111.111111111111,4,2,1,60,0,0
189980,-100,4,2,1,60,0,0
191112,-111.111111111111,4,2,1,60,0,0
192244,-100,4,2,1,60,0,0
196490,-125,4,2,1,60,0,0
196773,-111.111111111111,4,2,1,60,0,0
197056,-100,4,2,1,60,0,0
197905,-111.111111111111,4,2,1,60,0,0
199320,-100,4,2,1,60,0,0
202433,-166.666666666667,4,2,1,60,0,0
203565,-833.333333333333,4,2,1,60,0,0
204768,-833.333333333333,4,2,1,45,0,0
213754,-100,4,2,1,65,0,1
213824,-100,4,2,1,65,0,0
216018,-100,4,2,1,65,0,1
222527,-100,4,2,1,65,0,0
222528,-100,4,2,1,65,0,0
222810,-100,4,2,1,65,0,1
222811,-100,4,2,1,65,0,1
231867,-125,4,2,1,60,0,0
232433,-100,4,2,1,60,0,0
240924,-125,4,2,1,60,0,0
241490,-100,4,2,1,60,0,0
243754,-90.9090909090909,4,2,1,60,0,0
244320,-100,4,2,1,60,0,0
244886,-111.111111111111,4,2,1,60,0,0
248848,-142.857142857143,4,2,1,60,0,0
249414,-125,4,2,1,60,0,0
249980,-125,4,2,1,35,0,0
256773,-125,4,2,1,30,0,0
259603,625,4,2,1,30,1,0
260228,697.674418604651,4,2,1,30,1,0
260925,967.741935483871,4,2,1,30,1,0
262195,566.037735849057,4,2,1,30,1,0
262195,-133.333333333333,4,2,1,30,0,0
262336,-100,4,2,4,5,0,0

[Colours]
Combo1 : 189,172,238
Combo2 : 198,184,155

[HitObjects]
413,142,640,5,0,0:0:0:0:
336,130,782,1,0,0:0:0:0:
438,116,924,5,2,0:0:0:0:
318,154,1207,1,0,0:0:0:0:
97,199,1490,1,0,0:0:0:0:
97,199,1773,1,0,0:0:0:0:
177,216,1914,1,0,0:0:0:0:
357,254,2056,5,2,0:0:0:0:
209,288,2480,1,2,0:0:0:0:
198,205,2622,1,0,0:0:0:0:
51,55,2905,1,2,0:0:0:0:
29,131,3046,1,0,0:0:0:0:
30,27,3188,5,2,0:0:0:0:
50,163,3471,1,0,0:0:0:0:
240,119,3754,1,0,0:0:0:0:
226,202,4037,1,0,0:0:0:0:
216,84,4320,5,2,0:0:0:0:
235,235,4603,1,2,0:0:0:0:
405,186,4886,1,2,0:0:0:0:
387,291,5169,1,0,0:0:0:0:
453,363,5310,5,0,0:0:0:0:
453,363,5381,1,0,0:0:0:0:
453,363,5452,2,0,P|378:316|283:326,1,169.999995231629,4|2,3:2|0:0,0:0:0:0:
85,172,6442,1,0,0:0:0:0:
85,172,6513,1,0,0:0:0:0:
85,172,6584,2,0,L|170:181,1,84.9999976158142,2|0,0:0|0:0,0:0:0:0:
260,233,7150,2,0,P|253:190|251:148,1,84.9999976158142,2|0,0:0|0:0,0:0:0:0:
390,47,7527,5,2,0:0:0:0:
390,47,7622,1,2,0:0:0:0:
390,47,7716,2,0,P|465:89|472:185,1,169.999995231628,4|2,3:2|3:0,0:0:0:0:
362,325,8565,1,0,0:0:0:0:
460,302,8707,1,0,0:0:0:0:
397,250,8848,6,0,L|403:186,1,59.4999965152742,0|0,3:2|0:0,0:0:0:0:
161,96,9131,1,0,0:0:0:0:
251,40,9273,1,2,0:0:0:0:
304,127,9414,6,0,L|311:207,1,76.4999955196382,2|0,0:3|0:0,0:0:0:0:
163,330,9697,6,0,L|174:233,1,93.5000002307892,2|0,1:2|0:0,0:0:0:0:
34,172,9980,5,0,3:2:0:0:
253,258,10263,1,0,3:2:0:0:
457,147,10546,1,8,0:3:0:0:
282,184,10829,1,4,0:3:0:0:
83,98,11112,5,8,0:3:0:0:
123,173,11254,1,4,0:3:0:0:
79,243,11395,1,2,3:2:0:0:
34,172,11537,5,0,1:0:0:0:
34,172,11607,1,0,1:0:0:0:
34,172,11678,1,8,0:0:0:0:
278,121,11820,1,8,0:0:0:0:
107,129,11961,5,8,0:3:0:0:
199,164,12103,1,4,0:3:0:0:
362,92,12244,6,0,P|424:104|472:211,1,169.999995231628,0|2,0:0|0:0,0:0:0:0:
431,266,12669,1,0,0:0:0:0:
233,272,12810,2,0,P|225:230|225:187,1,84.9999976158142,2|0,0:3|0:0,0:0:0:0:
329,327,13093,1,2,0:0:0:0:
168,354,13235,1,0,0:0:0:0:
265,112,13376,6,0,L|175:96,1,84.9999976158143,0|0,3:2|0:0,0:0:0:0:
312,234,13659,2,0,B|251:239|251:239|219:258|219:258|135:268,1,169.999995231629,2|8,0:0|0:0,0:0:0:0:
181,180,14084,1,0,0:0:0:0:
389,272,14225,2,0,P|399:230|404:185,1,84.9999976158143,2|0,0:0|0:0,0:0:0:0:
228,37,14508,6,0,P|177:86|194:198,1,169.999995231629,0|2,3:2|0:0,0:0:0:0:
251,233,14933,1,0,0:0:0:0:
404,189,15074,2,0,L|321:170,1,84.9999976158143,2|0,0:3|0:0,0:0:0:0:
423,289,15357,1,2,0:0:0:0:
385,96,15499,1,0,0:0:0:0:
251,233,15640,2,0,L|276:314,1,84.9999976158143,0|0,3:2|0:0,0:0:0:0:
423,289,15924,6,0,P|391:317|364:350,1,84.9999976158143,2|0,0:0|3:2,0:0:0:0:
339,131,16207,2,0,P|379:143|421:151,1,84.9999976158143,8|0,0:0|0:0,0:0:0:0:
232,286,16490,2,0,P|223:244|208:204,1,84.9999976158143,2|0,3:2|0:0,0:0:0:0:
66,86,16773,6,0,B|162:80|124:118|231:116,1,169.999995231629,0|2,3:2|0:0,0:0:0:0:
310,72,17197,2,0,L|325:180,1,84.9999976158143,0|2,0:0|0:3,0:0:0:0:
154,371,17480,1,0,0:0:0:0:
111,300,17622,2,0,L|122:215,1,84.9999976158143,2|0,0:0|0:0,0:0:0:0:
273,231,17905,6,0,L|376:246,1,84.9999976158143,0|0,3:2|0:0,0:0:0:0:
219,311,18188,1,2,0:0:0:0:
203,149,18329,1,0,3:2:0:0:
431,193,18471,2,0,P|438:234|439:277,1,84.9999976158143,0|0,0:0|0:0,0:0:0:0:
170,239,18754,2,0,P|171:196|178:154,1,84.9999976158143,2|0,3:2|0:0,0:0:0:0:
321,151,19037,6,0,L|305:338,1,169.999995231629,0|2,3:2|0:0,0:0:0:0:
504,360,19461,1,0,0:0:0:0:
419,361,19603,2,0,L|393:276,1,84.9999976158143,2|0,0:3|0:0,0:0:0:0:
146,239,19886,2,0,L|261:214,1,84.9999976158143,2|0,0:0|0:0,0:0:0:0:
387,64,20169,6,0,L|355:142,1,84.9999976158143,0|0,3:2|0:0,0:0:0:0:
322,225,20452,1,2,0:0:0:0:
461,177,20593,1,0,1:0:0:0:
461,177,20664,1,0,1:0:0:0:
461,177,20735,1,8,0:0:0:0:
461,177,21018,5,8,0:0:0:0:
197,117,21159,1,8,0:0:0:0:
272,65,21301,6,0,L|287:239,1,169.999995231629,2|0,0:0|0:0,0:0:0:0:
227,317,22150,1,2,0:0:0:0:
139,266,22433,2,0,L|41:279,1,84.9999976158143
8,211,22857,2,0,P|6:168|16:127,1,84.9999976158143
29,53,23282,2,0,L|123:72,1,84.9999976158143,2|0,0:0|0:0,0:0:0:0:
191,165,23848,5,0,0:0:0:0:
305,126,24131,1,2,0:0:0:0:
429,172,24414,1,0,0:0:0:0:
428,171,24697,2,0,P|435:213|433:256,1,84.9999976158143,0|0,0:0|0:0,0:0:0:0:
433,256,25122,1,0,0:0:0:0:
358,242,25263,2,0,L|263:253,1,84.9999976158143,2|0,0:0|0:0,0:0:0:0:
216,306,25688,1,0,0:0:0:0:
181,377,25829,6,0,L|148:197,1,169.999995231629,2|0,0:0|0:0,0:0:0:0:
68,84,26678,1,0,0:0:0:0:
68,84,26820,1,0,0:0:0:0:
68,84,26961,2,0,P|58:125|62:168,1,84.9999976158143,0|0,0:0|0:0,0:0:0:0:
148,227,27527,2,0,L|230:207,1,84.9999976158143,2|0,0:0|0:0,0:0:0:0:
313,211,27952,1,0,0:0:0:0:
386,250,28093,6,0,P|402:206|403:152,1,84.9999976158143,2|0,0:0|0:0,0:0:0:0:
446,99,28518,2,0,L|316:75,1,127.499996423721,2|0,0:0|0:0,0:0:0:0:
242,111,29084,1,0,0:0:0:0:
162,139,29225,1,2,0:0:0:0:
162,139,30074,5,2,0:0:0:0:
161,138,30357,6,0,P|151:89|152:45,2,84.9999976158143,2|0|0,3:2|0:0|3:2,0:0:0:0:
206,286,31207,1,2,0:0:0:0:
99,191,31490,2,0,B|194:194|153:157|261:169,1,152.999991039276,2|2,3:2|3:2,0:0:0:0:
330,87,32056,2,0,L|234:75,1,84.9999976158143,0|2,3:2|0:0,0:0:0:0:
162,61,32480,1,0,3:2:0:0:
379,13,32622,6,0,L|342:230,1,203.999988052369,2|0,3:2|3:2,0:0:0:0:
319,322,33471,1,2,0:0:0:0:
395,341,33612,1,0,0:0:0:0:
447,279,33754,2,0,P|439:227|437:183,1,84.9999976158143,2|0,3:2|0:0,0:0:0:0:
376,116,34178,1,2,0:0:0:0:
274,133,34320,2,0,P|218:146|172:153,1,84.9999976158143,0|2,3:2|0:0,0:0:0:0:
260,257,34886,6,0,B|165:262|192:204|99:222,1,169.999995231629,2|0,3:2|3:2,0:0:0:0:
163,336,35735,1,2,0:0:0:0:
331,312,36018,2,0,P|342:259|341:212,1,84.9999976158143,2|0,3:2|0:0,0:0:0:0:
299,36,36442,1,2,0:0:0:0:
234,84,36584,2,0,P|223:137|224:184,1,84.9999976158143,0|2,3:2|0:0,0:0:0:0:
437,229,37008,1,0,3:0:0:0:
388,157,37150,6,0,L|294:140,1,84.9999976158143,2|0,3:2|0:0,0:0:0:0:
141,237,37574,1,0,0:0:0:0:
97,299,37716,6,0,L|3:316,1,84.9999976158143,0|2,3:2|0:0,0:0:0:0:
13,314,38282,1,2,3:3:0:0:
101,112,38565,5,0,3:2:0:0:
101,112,38636,1,0,3:2:0:0:
101,112,38707,1,0,1:0:0:0:
101,112,38777,1,0,1:0:0:0:
101,112,38848,1,8,0:0:0:0:
127,29,39131,5,8,0:3:0:0:
91,191,39273,1,4,0:3:0:0:
7,352,39414,6,0,L|150:334,1,135.999996185303,4|0,3:2|0:0,0:0:0:0:
227,367,39839,1,0,0:0:0:0:
300,318,39980,2,0,L|289:250,1,67.9999980926514,2|0,0:3|0:0,0:0:0:0:
415,202,40263,2,0,L|336:186,1,67.9999980926514,2|0,0:0|0:0,0:0:0:0:
434,62,40546,6,0,B|359:64|381:94|274:93,1,135.999996185303,2|0,3:2|0:0,0:0:0:0:
218,150,40971,1,0,3:2:0:0:
122,124,41112,2,0,L|113:47,1,67.9999980926514,8|0,0:0|0:0,0:0:0:0:
53,196,41395,1,2,0:0:0:0:
113,275,41537,1,0,3:2:0:0:
200,243,41678,6,0,L|214:99,1,135.999996185303,2|0,3:2|0:0,0:0:0:0:
297,127,42103,1,0,0:0:0:0:
292,207,42244,2,0,L|284:274,1,67.9999980926514,2|0,0:3|0:0,0:0:0:0:
387,309,42527,1,2,0:0:0:0:
375,175,42669,1,0,0:0:0:0:
200,243,42810,6,0,P|162:250|127:258,1,67.9999980926514,0|0,3:2|0:0,0:0:0:0:
218,82,43093,2,0,P|179:76|146:71,1,67.9999980926514,0|0,0:0|0:0,0:0:0:0:
152,160,43376,2,0,B|103:164|103:164|80:177|80:177|9:182,1,135.999996185303,8|0,0:0|0:0,0:0:0:0:
52,101,43801,1,0,0:0:0:0:
200,243,43942,6,0,P|266:242|318:192,1,135.999996185303,2|0,3:2|0:0,0:0:0:0:
357,74,44367,2,0,P|368:106|376:139,1,67.9999980926514,2|2,0:0|0:3,0:0:0:0:
157,166,44650,1,0,0:0:0:0:
145,88,44791,2,0,P|167:62|194:41,1,67.9999980926514,2|0,0:0|0:0,0:0:0:0:
260,136,45074,6,0,L|278:296,1,135.999996185303,2|0,3:2|0:0,0:0:0:0:
418,255,45499,2,0,L|356:220,1,67.9999980926514,2|8,0:0|0:0,0:0:0:0:
114,257,45782,1,0,0:0:0:0:
141,337,45924,2,0,L|199:292,1,67.9999980926514,2|0,0:0|3:2,0:0:0:0:
260,136,46207,6,0,P|201:135|131:64,1,135.999996185303,2|0,3:2|0:0,0:0:0:0:
360,117,46631,2,0,P|357:150|351:184,1,67.9999980926514,2|2,0:0|0:3,0:0:0:0:
286,234,46914,1,0,0:0:0:0:
411,27,47056,2,0,P|435:50|455:78,1,67.9999980926514,2|0,0:0|0:0,0:0:0:0:
492,297,47339,2,0,B|424:296|441:267|357:268,1,135.999996185303,2|0,3:2|0:0,0:0:0:0:
168,184,47763,5,0,1:2:0:0:
154,181,47834,1,0,1:2:0:0:
140,177,47905,1,8,0:0:0:0:
63,205,48188,5,0,1:2:0:0:
250,163,48329,1,0,1:2:0:0:
369,51,48471,6,0,P|371:124|376:186,1,135.999996185303,2|0,3:2|0:0,0:0:0:0:
328,295,48895,2,0,P|316:262|302:232,1,67.9999980926514,2|2,0:0|0:3,0:0:0:0:
329,123,49178,1,0,0:0:0:0:
445,110,49320,2,0,P|477:118|511:125,1,67.9999980926514,2|0,0:0|0:0,0:0:0:0:
500,327,49603,6,0,P|447:314|413:181,1,203.999994277954,2|0,3:2|0:0,0:0:0:0:
331,308,50169,2,0,L|316:383,1,67.9999980926514,8|0,0:0|0:0,0:0:0:0:
149,267,50452,2,0,L|164:342,1,67.9999980926514,0|0,3:2|0:0,0:0:0:0:
246,301,50735,6,0,L|257:146,1,135.999996185303,2|0,3:2|0:0,0:0:0:0:
163,90,51159,1,0,0:0:0:0:
211,24,51301,2,0,L|279:16,1,67.9999980926514,2|0,0:3|0:0,0:0:0:0:
376,74,51584,1,0,0:0:0:0:
338,192,51725,1,0,0:0:0:0:
477,157,51867,6,0,L|409:149,1,67.9999980926514,2|0,3:2|0:0,0:0:0:0:
173,174,52150,1,0,0:0:0:0:
211,292,52291,1,0,3:2:0:0:
72,257,52433,1,8,0:0:0:0:
72,257,52716,2,0,L|140:249,1,67.9999980926514,0|0,1:0|1:0,0:0:0:0:
338,340,52999,6,0,B|415:352|400:303|494:323,1,152.999991039276,4|0,3:2|0:0,0:0:0:0:
465,185,53424,1,8,0:3:0:0:
416,121,53565,2,0,L|339:111,1,76.4999955196382,2|0,0:3|0:0,0:0:0:0:
301,238,53848,2,0,L|379:227,1,76.4999955196382,2|0,3:2|0:0,0:0:0:0:
205,46,54131,6,0,P|192:109|237:183,1,152.999991039276,4|0,3:2|0:0,0:0:0:0:
388,338,54556,1,8,0:3:0:0:
446,278,54697,2,0,P|456:235|456:189,1,76.4999955196382,8|0,0:0|0:0,0:0:0:0:
336,19,54980,1,4,0:3:0:0:
316,118,55122,1,4,0:3:0:0:
273,305,55263,1,4,3:1:0:0:
273,305,55546,5,8,0:0:0:0:
144,240,55688,1,0,1:0:0:0:
26,324,55829,2,0,L|123:309,1,76.4999955196382,8|0,0:0|0:0,0:0:0:0:
451,223,56112,5,8,0:0:0:0:
341,193,56254,1,0,1:0:0:0:
131,136,56395,5,8,0:0:0:0:
320,98,56537,1,8,0:3:0:0:
334,95,56607,1,8,0:3:0:0:
349,92,56678,1,8,0:3:0:0:
245,175,56820,1,4,0:3:0:0:
225,82,56961,5,8,0:0:0:0:
334,223,57103,1,0,1:0:0:0:
383,17,57244,5,10,0:0:0:0:
189,249,57386,1,10,0:0:0:0:
65,20,57527,6,0,L|160:40,1,84.9999976158143,4|0,3:2|0:0,0:0:0:0:
373,135,57810,2,0,L|289:152,1,84.9999976158143,0|2,0:0|0:0,0:0:0:0:
189,249,58093,1,2,0:3:0:0:
131,313,58235,2,0,P|91:279|103:145,1,169.999995231629,2|0,0:0|0:0,0:0:0:0:
293,64,58659,5,2,3:2:0:0:
373,135,58801,2,0,P|364:176|357:218,1,84.9999976158143,0|0,1:2|0:0,0:0:0:0:
266,249,59084,1,0,1:2:0:0:
212,92,59225,2,0,P|252:78|292:63,1,84.9999976158143,8|0,0:0|0:0,0:0:0:0:
266,249,59508,2,0,P|234:220|201:193,1,84.9999976158143,2|0,3:2|0:0,0:0:0:0:
116,129,59791,6,0,B|204:109|191:164|294:148,1,169.999995231629,2|0,3:2|0:0,0:0:0:0:
465,214,60216,1,0,0:0:0:0:
485,134,60357,2,0,P|452:104|391:93,1,84.9999976158143,2|0,0:3|0:0,0:0:0:0:
220,231,60640,2,0,L|205:328,1,84.9999976158143,2|0,0:0|0:0,0:0:0:0:
431,338,60924,5,0,3:2:0:0:
300,280,61065,1,0,1:2:0:0:
438,240,61207,1,2,0:0:0:0:
292,365,61348,1,0,1:2:0:0:
119,263,61490,6,0,L|106:178,1,84.9999976158143,8|0,0:0|0:0,0:0:0:0:
220,231,61773,1,0,3:2:0:0:
46,337,61914,1,2,0:0:0:0:
67,84,62056,6,0,P|109:89|149:103,1,84.9999976158143,4|0,3:2|0:0,0:0:0:0:
315,207,62339,1,0,0:0:0:0:
122,194,62480,1,2,0:0:0:0:
244,311,62622,2,0,P|227:271|219:230,1,84.9999976158143,2|0,0:3|0:0,0:0:0:0:
350,50,62905,2,0,P|324:83|292:111,1,84.9999976158143,2|0,0:0|0:0,0:0:0:0:
222,52,63188,5,2,3:2:0:0:
218,153,63329,2,0,L|193:335,1,169.999995231629,0|0,1:0|1:2,0:0:0:0:
351,383,63754,2,0,B|360:341|360:341|352:299,1,84.9999976158143,8|0,0:0|0:0,0:0:0:0:
34,243,64037,2,0,L|123:231,1,84.9999976158143,0|0,3:2|0:0,0:0:0:0:
437,276,64320,6,0,P|380:282|299:184,1,169.999995231629,2|0,3:2|0:0,0:0:0:0:
399,73,64744,1,0,0:0:0:0:
470,118,64886,2,0,P|477:159|479:202,1,84.9999976158143,2|0,0:3|0:0,0:0:0:0:
208,358,65169,2,0,P|200:316|198:273,1,84.9999976158143,2|0,0:0|0:0,0:0:0:0:
320,31,65452,5,8,0:3:0:0:
264,136,65593,1,4,0:3:0:0:
269,156,65664,1,4,0:3:0:0:
275,176,65735,1,0,3:2:0:0:
206,260,65876,1,0,3:2:0:0:
206,260,65947,1,0,3:2:0:0:
206,260,66018,5,8,0:0:0:0:
373,123,66159,1,0,3:0:0:0:
181,58,66301,5,10,0:0:0:0:
377,262,66442,1,10,0:0:0:0:
495,16,66584,6,0,L|398:38,1,84.9999976158143,4|0,3:2|0:0,0:0:0:0:
271,214,66867,1,0,0:0:0:0:
301,61,67008,1,2,0:0:0:0:
458,185,67150,2,0,L|356:170,1,84.9999976158143,2|0,0:3|0:0,0:0:0:0:
465,332,67433,2,0,L|363:351,1,84.9999976158143,2|0,0:0|0:0,0:0:0:0:
243,126,67716,5,2,3:2:0:0:
109,178,67857,2,0,B|171:181|171:181|211:208|211:208|270:213,1,169.999995231629,0|0,1:2|1:2,0:0:0:0:
191,370,68282,2,0,P|176:325|180:274,1,84.9999976158143,8|0,0:0|0:0,0:0:0:0:
326,141,68565,2,0,P|372:150|414:179,1,84.9999976158143,2|0,3:2|0:0,0:0:0:0:
432,363,68848,6,0,P|345:357|297:272,1,169.999995231629,2|0,3:2|0:0,0:0:0:0:
173,110,69273,1,0,0:0:0:0:
98,62,69414,2,0,L|87:162,1,84.9999976158143,2|0,0:3|0:0,0:0:0:0:
277,306,69697,2,0,L|267:221,1,84.9999976158143,2|0,0:0|0:0,0:0:0:0:
373,10,69980,5,0,3:2:0:0:
450,72,70122,2,0,P|443:113|440:156,1,84.9999976158143,0|0,1:2|0:0,0:0:0:0:
347,191,70405,1,0,1:2:0:0:
290,31,70546,2,0,P|331:22|372:9,1,84.9999976158143,8|0,0:0|0:0,0:0:0:0:
347,191,70829,2,0,P|310:161|278:139,1,84.9999976158143,0|0,3:2|0:0,0:0:0:0:
124,301,71112,6,0,P|166:248|288:239,1,169.999995231629,4|0,3:2|0:0,0:0:0:0:
358,345,71537,1,0,0:0:0:0:
427,298,71678,2,0,P|437:253|438:210,1,84.9999976158143,2|0,0:3|0:0,0:0:0:0:
189,109,71961,2,0,P|179:154|178:197,1,84.9999976158143,2|0,0:0|0:0,0:0:0:0:
236,35,72244,5,0,3:2:0:0:
97,134,72386,1,0,1:2:0:0:
36,60,72669,5,0,1:2:0:0:
262,154,72810,2,0,L|356:139,1,84.9999976158143,8|0,0:0|0:0,0:0:0:0:
241,342,73093,2,0,L|335:357,1,84.9999976158143,2|0,3:2|0:0,0:0:0:0:
311,249,73376,6,0,B|409:239|381:292|471:290,1,169.999995231629,2|0,3:2|0:0,0:0:0:0:
220,259,73801,1,0,0:0:0:0:
147,318,73942,6,0,P|94:256|92:158,1,169.999995231629,2|0,0:3|0:0,0:0:0:0:
259,19,74367,1,0,0:0:0:0:
348,19,74508,6,0,P|401:81|403:179,1,169.999995231629,2|0,3:2|0:0,0:0:0:0:
268,257,74933,1,0,1:2:0:0:
265,277,75004,1,0,1:2:0:0:
262,298,75074,1,8,0:0:0:0:
179,67,75216,1,0,1:0:0:0:
243,128,75357,5,0,1:0:0:0:
192,221,75499,1,2,1:2:0:0:
256,192,75640,12,2,79037,0:0:0:0:
327,168,79508,5,0,0:0:0:0:
197,210,79933,1,0,0:0:0:0:
256,192,80169,12,2,84414,3:2:0:0:
159,246,84697,5,0,3:2:0:0:
279,249,84839,2,0,L|172:235,1,101.999994026184,0|0,1:2|3:2,0:0:0:0:
308,104,85263,5,0,1:2:0:0:
337,177,85405,1,0,0:0:0:0:
142,149,85546,5,8,0:0:0:0:
229,56,85688,1,8,0:0:0:0:
310,275,85829,5,0,1:0:0:0:
159,246,85971,1,8,0:3:0:0:
159,246,86041,1,8,0:3:0:0:
159,246,86112,1,4,0:3:0:0:
159,246,86183,1,4,0:3:0:0:
159,246,86254,1,0,3:2:0:0:
272,345,86395,5,8,0:0:0:0:
243,200,86537,1,0,1:2:0:0:
389,28,86678,5,8,0:0:0:0:
355,181,86820,1,8,0:0:0:0:
442,355,86961,5,4,3:2:0:0:
442,355,87103,2,0,L|376:346,1,50.9999970130922,2|0,0:0|0:0,0:0:0:0:
493,223,87386,2,0,L|518:284,1,50.9999970130922,2|2,0:0|0:3,0:0:0:0:
347,250,87669,2,0,L|387:197,1,50.9999970130922,2|0,0:0|0:0,0:0:0:0:
430,275,87952,5,0,0:0:0:0:
334,260,88093,1,0,3:2:0:0:
241,209,88235,1,0,0:0:0:0:
146,191,88376,1,0,0:0:0:0:
214,133,88518,6,0,L|232:180,1,50.9999970130922,2|2,0:0|0:3,0:0:0:0:
58,161,88801,2,0,L|90:119,2,50.9999970130922,2|0|0,0:0|3:2|0:0,0:0:0:0:
153,285,89225,5,2,3:2:0:0:
153,285,89367,2,0,L|88:271,1,59.4999965152742,2|2,0:0|0:3,0:0:0:0:
233,106,89650,2,0,P|239:134|249:165,1,59.4999965152742,2|2,0:0|0:3,0:0:0:0:
29,152,89933,2,0,P|50:131|72:108,1,59.4999965152742,2|0,0:0|0:0,0:0:0:0:
156,320,90216,2,0,P|128:309|97:300,2,59.4999965152742,2|0|0,0:0|3:2|0:0,0:0:0:0:
333,214,90640,5,2,0:0:0:0:
222,246,90782,1,0,3:2:0:0:
353,240,90924,5,8,0:0:0:0:
198,223,91065,1,0,0:0:0:0:
369,142,91207,5,2,1:2:0:0:
250,332,91348,1,8,0:0:0:0:
60,173,91490,6,0,B|141:178|135:128|228:140,1,169.999995231629,4|2,3:2|0:3,0:0:0:0:
223,139,92339,1,0,0:0:0:0:
340,193,92622,5,2,3:2:0:0:
412,148,92763,2,0,P|419:181|429:215,1,67.9999980926514,0|0,0:0|0:0,0:0:0:0:
360,281,93046,1,2,0:0:0:0:
360,281,93188,2,0,L|284:297,1,67.9999980926514,2|0,0:3|0:0,0:0:0:0:
222,329,93471,2,0,P|214:295|205:262,1,67.9999980926514,2|0,3:2|0:0,0:0:0:0:
83,323,93754,6,0,L|102:177,1,135.999996185303,2|0,3:2|0:0,0:0:0:0:
59,121,94178,1,0,0:0:0:0:
14,54,94320,1,2,0:3:0:0:
14,54,94603,2,0,L|84:39,1,67.9999980926514,2|0,0:0|0:0,0:0:0:0:
93,37,94815,1,0,0:0:0:0:
106,34,94886,1,0,3:2:0:0:
172,172,95027,1,0,0:0:0:0:
100,218,95169,5,0,0:0:0:0:
181,73,95310,2,0,L|257:87,1,67.9999980926514,2|2,3:2|0:3,0:0:0:0:
350,96,95593,1,0,0:0:0:0:
350,96,95664,1,2,0:0:0:0:
350,96,95735,5,2,0:0:0:0:
172,172,95876,1,8,0:0:0:0:
100,218,96018,6,0,P|67:181|64:85,1,135.999996185303,2|0,3:2|0:0,0:0:0:0:
277,170,96442,1,0,0:0:0:0:
226,240,96584,2,0,B|234:312|203:307|223:385,1,135.999996185303,2|2,0:3|0:0,0:0:0:0:
358,368,97008,1,0,0:0:0:0:
402,295,97150,6,0,L|323:282,1,67.9999980926514,2|0,3:2|0:0,0:0:0:0:
277,170,97433,2,0,L|295:93,1,67.9999980926514,0|0,0:0|0:0,0:0:0:0:
487,175,97716,2,0,B|434:182|434:182|412:196|412:196|353:204,1,135.999996185303,2|2,0:3|0:0,0:0:0:0:
201,265,98140,1,2,0:0:0:0:
201,265,98211,1,2,0:0:0:0:
201,265,98282,6,0,L|183:129,1,135.999996185303,0|0,3:2|0:0,0:0:0:0:
112,185,98707,1,0,0:0:0:0:
43,239,98848,1,2,0:3:0:0:
43,239,99131,2,0,L|111:263,1,67.9999980926514,2|0,0:0|0:0,0:0:0:0:
166,354,99414,1,0,3:2:0:0:
250,340,99556,6,0,P|286:292|288:203,1,135.999996185303,2|0,0:0|3:2,0:0:0:0:
118,100,99980,1,2,0:3:0:0:
121,113,100051,1,2,0:0:0:0:
124,126,100122,1,2,0:0:0:0:
48,159,100263,5,0,0:0:0:0:
211,116,100405,1,8,0:0:0:0:
363,170,100546,6,0,L|502:185,1,135.999996185303,2|0,3:2|0:0,0:0:0:0:
483,265,100971,1,0,0:0:0:0:
403,256,101112,2,0,P|405:284|407:330,1,67.9999980926514,2|0,0:3|0:0,0:0:0:0:
285,207,101395,2,0,P|282:178|281:133,1,67.9999980926514,2|0,0:0|0:0,0:0:0:0:
367,22,101678,6,0,P|343:38|304:62,1,67.9999980926514,2|0,3:2|0:0,0:0:0:0:
200,149,101961,1,0,0:0:0:0:
162,44,102103,2,0,P|188:56|228:78,1,67.9999980926514,2|2,0:0|0:3,0:0:0:0:
224,280,102527,1,2,3:2:0:0:
482,172,102810,6,0,P|427:133|360:131,1,135.999996185303,2|0,3:2|0:0,0:0:0:0:
299,191,103235,1,0,0:0:0:0:
238,252,103376,2,0,P|244:285|249:331,1,67.9999980926514,2|0,0:3|0:0,0:0:0:0:
326,364,103659,2,0,P|357:352|393:346,1,67.9999980926514,2|0,0:0|0:0,0:0:0:0:
486,253,103942,5,2,3:2:0:0:
391,222,104084,1,0,0:0:0:0:
324,271,104225,1,0,0:0:0:0:
214,241,104367,1,0,3:2:0:0:
133,270,104508,2,0,L|121:196,1,67.9999980926514,10|0,0:0|0:0,0:0:0:0:
174,39,104791,1,0,0:0:0:0:
210,200,104933,1,8,0:0:0:0:
69,130,105074,6,0,B|137:139|135:97|219:123,1,135.999996185303,2|0,3:2|0:0,0:0:0:0:
279,96,105499,1,0,0:0:0:0:
356,70,105640,1,2,0:3:0:0:
356,70,105924,2,0,L|351:146,1,67.9999980926514,2|0,0:0|0:0,0:0:0:0:
240,190,106207,6,0,L|257:326,1,135.999996185303,2|0,3:2|0:0,0:0:0:0:
365,356,106631,1,2,3:2:0:0:
473,384,106773,1,8,0:0:0:0:
473,384,107056,5,2,1:2:0:0:
365,356,107197,1,0,1:2:0:0:
239,321,107339,5,12,0:0:0:0:
401,287,107622,1,4,0:3:0:0:
418,159,107905,5,2,0:3:0:0:
175,116,108188,1,8,0:3:0:0:
111,56,108471,5,12,0:0:0:0:
204,199,108612,1,8,0:3:0:0:
200,222,108683,1,8,0:3:0:0:
196,245,108754,1,4,0:3:0:0:
268,314,108895,1,4,0:3:0:0:
111,56,109037,1,8,0:0:0:0:
111,56,109320,5,10,0:0:0:0:
257,87,109461,1,10,0:0:0:0:
448,57,109603,6,0,L|424:197,1,135.999996185303,4|0,3:2|0:0,0:0:0:0:
455,359,110027,1,0,0:0:0:0:
380,333,110169,2,0,L|371:257,1,67.9999980926514,2|0,0:3|0:0,0:0:0:0:
321,190,110452,2,0,L|239:180,1,67.9999980926514,2|0,0:0|0:0,0:0:0:0:
295,303,110735,6,0,P|231:307|153:368,1,135.999996185303,2|0,3:2|0:0,0:0:0:0:
91,352,111159,1,0,3:2:0:0:
34,204,111301,2,0,P|64:188|96:177,1,67.9999980926514,8|0,0:0|0:0,0:0:0:0:
255,94,111584,1,2,0:0:0:0:
268,192,111725,1,0,3:2:0:0:
180,216,111867,6,0,L|163:63,1,135.999996185303,2|0,3:2|0:0,0:0:0:0:
339,59,112291,1,0,0:0:0:0:
262,26,112433,2,0,L|254:103,1,67.9999980926514,2|0,0:3|0:0,0:0:0:0:
268,192,112716,2,0,L|276:269,1,67.9999980926514,2|0,0:0|0:0,0:0:0:0:
243,349,112999,5,0,3:2:0:0:
144,324,113140,1,0,0:0:0:0:
169,226,113282,1,0,0:0:0:0:
169,226,113565,2,0,B|100:222|103:251|35:248,1,135.999996185303,8|0,0:0|0:0,0:0:0:0:
62,160,113990,1,0,0:0:0:0:
204,56,114131,6,0,P|241:115|235:198,1,135.999996185303,2|0,3:2|0:0,0:0:0:0:
120,342,114556,2,0,P|147:321|179:310,1,67.9999980926514,2|2,0:0|0:3,0:0:0:0:
338,220,114839,1,0,0:0:0:0:
370,344,114980,2,0,P|338:330|312:308,1,67.9999980926514,2|0,0:0|0:0,0:0:0:0:
115,135,115263,6,0,B|190:137|169:167|241:179,1,135.999996185303,2|0,3:2|0:0,0:0:0:0:
360,96,115688,2,0,P|326:100|295:114,1,67.9999980926514,2|8,0:0|0:0,0:0:0:0:
338,220,115971,1,0,0:0:0:0:
446,246,116112,2,0,P|460:201|459:164,1,67.9999980926514,2|0,0:0|3:2,0:0:0:0:
338,220,116395,6,0,L|319:360,1,135.999996185303,2|0,3:2|0:0,0:0:0:0:
168,330,116820,2,0,L|158:252,1,67.9999980926514,2|2,0:0|0:3,0:0:0:0:
246,282,117103,1,0,0:0:0:0:
67,283,117244,2,0,L|78:202,1,67.9999980926514,2|0,0:0|0:0,0:0:0:0:
7,108,117527,6,0,B|63:116|63:116|89:131|89:131|141:139,1,135.999996185303,2|0,3:2|0:0,0:0:0:0:
296,275,117952,5,0,1:2:0:0:
310,272,118023,1,0,1:2:0:0:
324,268,118094,1,8,0:0:0:0:
404,301,118376,5,0,1:2:0:0:
211,258,118518,1,0,1:2:0:0:
37,324,118659,6,0,P|5:266|6:199,1,135.999996185303,2|0,3:2|0:0,0:0:0:0:
95,126,119084,2,0,P|94:159|90:193,1,67.9999980926514,2|2,0:0|0:3,0:0:0:0:
158,312,119367,1,0,0:0:0:0:
243,278,119508,2,0,P|243:244|247:210,1,67.9999980926514,2|0,0:0|0:0,0:0:0:0:
328,84,119791,6,0,P|231:80|173:169,1,203.999994277954,2|0,3:2|0:0,0:0:0:0:
243,278,120357,2,0,L|329:279,1,67.9999980926514,8|0,0:0|0:0,0:0:0:0:
382,221,120640,2,0,P|389:174|390:136,1,67.9999980926514,0|0,3:2|0:0,0:0:0:0:
259,191,120924,6,0,L|273:347,1,135.999996185303,2|0,3:2|0:0,0:0:0:0:
166,380,121348,1,0,0:0:0:0:
91,341,121490,2,0,L|101:265,1,67.9999980926514,2|0,0:3|0:0,0:0:0:0:
70,177,121773,2,0,L|4:160,1,67.9999980926514,0|0,0:0|0:0,0:0:0:0:
165,46,122056,6,0,L|173:113,1,67.9999980926514,2|0,3:2|0:0,0:0:0:0:
288,328,122339,1,0,0:0:0:0:
305,247,122480,1,0,3:2:0:0:
338,92,122622,1,8,0:0:0:0:
338,92,122905,5,0,1:0:0:0:
305,247,123046,1,0,1:0:0:0:
277,352,123188,6,0,B|356:354|351:310|440:329,1,152.999991039276,4|0,3:2|0:0,0:0:0:0:
194,290,123612,1,8,0:3:0:0:
116,290,123754,2,0,P|103:253|98:205,1,76.4999955196382,2|0,0:3|0:0,0:0:0:0:
338,92,124037,2,0,P|333:129|321:166,1,76.4999955196382,2|0,3:2|0:0,0:0:0:0:
39,157,124320,6,0,P|80:118|190:120,1,152.999991039276,4|0,3:2|0:0,0:0:0:0:
414,293,124744,1,8,0:3:0:0:
345,246,124886,2,0,L|252:263,1,76.4999955196382,8|0,0:0|0:0,0:0:0:0:
85,363,125169,1,4,0:3:0:0:
115,267,125310,1,4,0:3:0:0:
155,85,125452,5,4,3:1:0:0:
155,85,125735,2,0,L|167:165,1,76.4999955196382,0|0,1:0|0:0,0:0:0:0:
280,346,126018,6,0,L|293:262,1,84.9999976158143,2|0,1:3|0:0,0:0:0:0:
390,56,126301,6,0,L|405:148,1,93.5000002307892,8|0,0:0|0:0,0:0:0:0:
476,224,126584,5,8,0:0:0:0:
250,189,126725,1,8,0:3:0:0:
250,189,126796,1,8,0:3:0:0:
250,189,126867,1,4,0:3:0:0:
114,223,127008,1,4,0:3:0:0:
237,100,127150,5,8,0:0:0:0:
366,244,127291,1,0,3:2:0:0:
197,282,127433,5,10,0:0:0:0:
390,56,127574,1,10,0:0:0:0:
110,18,127716,6,0,P|110:59|118:112,1,84.9999976158143,4|0,3:2|0:0,0:0:0:0:
204,367,127999,2,0,P|203:325|196:273,1,84.9999976158143,0|2,0:0|0:0,0:0:0:0:
5,216,128282,2,0,B|99:224|78:165|185:185,1,169.999995231629,2|0,0:3|0:0,0:0:0:0:
287,258,128707,1,0,0:0:0:0:
426,168,128848,5,2,3:2:0:0:
408,316,128990,2,0,P|384:274|368:238,1,84.9999976158143,0|0,1:2|0:0,0:0:0:0:
268,87,129273,1,0,1:2:0:0:
360,102,129414,2,0,P|335:143|312:175,1,84.9999976158143,8|0,0:0|0:0,0:0:0:0:
203,255,129697,2,0,P|250:255|290:259,1,84.9999976158143,2|0,3:2|0:0,0:0:0:0:
268,87,129980,6,0,P|207:92|144:192,1,169.999995231629,2|0,3:2|0:0,0:0:0:0:
294,284,130405,1,0,0:0:0:0:
215,339,130546,2,0,L|201:241,1,84.9999976158143,2|0,0:3|0:0,0:0:0:0:
321,156,130829,2,0,L|421:136,1,84.9999976158143,2|0,0:0|0:0,0:0:0:0:
458,345,131112,5,0,3:2:0:0:
294,284,131254,1,0,1:2:0:0:
415,246,131395,1,2,0:0:0:0:
336,354,131537,1,0,1:2:0:0:
121,303,131678,5,8,0:0:0:0:
121,303,131961,1,0,3:2:0:0:
148,180,132103,1,2,0:0:0:0:
59,91,132244,6,0,P|127:97|212:21,1,169.999995231629,4|0,3:2|0:0,0:0:0:0:
337,201,132669,1,2,0:0:0:0:
255,215,132810,2,0,P|235:172|227:118,1,84.9999976158143,2|0,0:3|0:0,0:0:0:0:
455,37,133093,2,0,P|448:103|432:135,1,84.9999976158143,2|0,0:0|0:0,0:0:0:0:
309,330,133376,5,2,3:2:0:0:
378,280,133518,2,0,B|401:185|349:203|360:112,1,169.999995231629,0|0,1:0|1:2,0:0:0:0:
302,53,133942,2,0,L|209:36,1,84.9999976158143,8|0,0:0|0:0,0:0:0:0:
297,240,134225,2,0,L|204:257,1,84.9999976158143,0|0,3:2|0:0,0:0:0:0:
33,182,134508,6,0,P|63:124|175:109,1,169.999995231629,2|0,3:2|0:0,0:0:0:0:
209,225,134933,1,0,0:0:0:0:
143,324,135074,2,0,L|126:228,1,84.9999976158143,2|0,0:3|0:0,0:0:0:0:
379,82,135357,2,0,L|364:165,1,84.9999976158143,2|0,0:0|0:0,0:0:0:0:
431,241,135640,5,8,0:3:0:0:
283,138,135782,1,4,0:3:0:0:
279,116,135853,1,4,0:3:0:0:
276,94,135924,1,0,3:2:0:0:
184,51,136065,1,0,3:2:0:0:
184,51,136136,1,0,3:2:0:0:
184,51,136207,5,8,0:0:0:0:
363,165,136348,1,0,3:0:0:0:
415,70,136490,5,10,0:0:0:0:
149,145,136631,1,10,0:0:0:0:
34,104,136773,6,0,P|43:149|53:211,1,84.9999976158143,4|0,3:2|0:0,0:0:0:0:
184,51,137056,2,0,P|139:36|81:13,1,84.9999976158143,0|2,0:0|0:0,0:0:0:0:
93,330,137339,1,2,0:3:0:0:
175,300,137480,2,0,P|190:232|143:140,1,169.999995231629,0|0,0:0|0:0,0:0:0:0:
261,103,137905,5,2,3:2:0:0:
285,186,138046,2,0,L|376:220,1,84.9999976158143,0|0,1:2|0:0,0:0:0:0:
512,292,138329,1,0,1:2:0:0:
450,229,138471,2,0,B|387:244|387:244|355:268|355:268|286:287,1,169.999995231629,8|2,0:0|3:2,0:0:0:0:
209,236,138895,1,0,0:0:0:0:
69,313,139037,6,0,P|11:271|3:165,1,169.999995231629,2|0,3:2|0:0,0:0:0:0:
47,109,139461,1,0,0:0:0:0:
126,251,139603,1,2,0:3:0:0:
126,251,139886,2,0,P|165:248|224:231,1,84.9999976158143,2|0,0:0|0:0,0:0:0:0:
396,307,140169,5,0,3:2:0:0:
358,221,140310,2,0,L|382:121,1,84.9999976158143,0|0,1:2|0:0,0:0:0:0:
284,152,140593,1,0,1:2:0:0:
396,307,140735,2,0,L|470:377,1,84.9999976158143,8|0,0:0|0:0,0:0:0:0:
219,326,141018,2,0,L|300:301,1,84.9999976158143,0|0,3:2|0:0,0:0:0:0:
445,196,141301,6,0,B|380:186|380:186|344:160|344:160|265:150,1,169.999995231629,4|0,3:2|0:0,0:0:0:0:
226,219,141725,1,0,0:0:0:0:
416,109,141867,1,2,0:3:0:0:
416,109,142150,2,0,P|425:61|424:12,1,84.9999976158143,2|0,0:0|0:0,0:0:0:0:
222,75,142433,5,0,3:2:0:0:
314,233,142574,1,0,1:2:0:0:
208,300,142857,5,0,1:2:0:0:
304,102,142999,2,0,L|314:-1,1,84.9999976158143,8|0,0:0|0:0,0:0:0:0:
138,155,143282,2,0,P|146:196|147:239,1,84.9999976158143,2|0,3:2|0:0,0:0:0:0:
62,211,143565,6,0,L|242:178,1,169.999995231629,2|0,3:2|0:0,0:0:0:0:
438,279,143990,1,0,0:0:0:0:
398,376,144131,6,0,L|320:215,1,169.999995231629,2|0,0:3|0:0,0:0:0:0:
252,62,144556,1,0,0:0:0:0:
343,45,144697,6,0,L|311:132,1,84.9999976158143,2|0,3:2|0:0,0:0:0:0:
62,211,144980,1,2,0:0:0:0:
141,253,145122,1,0,1:2:0:0:
146,273,145192,1,0,1:2:0:0:
152,293,145263,1,8,0:0:0:0:
314,356,145546,5,0,1:0:0:0:
353,238,145688,1,2,1:2:0:0:
426,24,145829,5,4,3:2:0:0:
256,192,145900,12,0,148093,0:0:0:0:
176,304,148376,6,0,L|172:252,1,50.9999970130922,0|0,0:0|3:0,0:0:0:0:
250,239,148659,6,0,L|266:165,1,59.4999965152742,2|2,0:0|0:0,0:0:0:0:
79,197,148942,6,0,L|58:114,1,76.4999955196382,0|0,1:2|1:2,0:0:0:0:
270,35,149225,5,4,0:0:0:0:
151,151,149367,1,2,0:0:0:0:
355,153,149508,5,8,0:3:0:0:
355,153,149579,1,8,0:3:0:0:
355,153,149650,1,4,0:3:0:0:
355,153,149721,1,4,0:3:0:0:
355,153,149791,1,8,0:0:0:0:
229,108,149933,1,2,0:0:0:0:
438,121,150074,5,8,0:0:0:0:
258,186,150216,1,10,0:0:0:0:
102,324,150357,6,0,P|44:299|29:188,1,169.999995231629,4|0,3:2|0:0,0:0:0:0:
204,261,150782,1,0,0:0:0:0:
274,301,150924,2,0,P|313:293|359:288,1,84.9999976158143,2|0,0:3|0:0,0:0:0:0:
317,121,151207,1,0,1:2:0:0:
189,76,151348,1,2,0:0:0:0:
226,154,151490,6,0,P|212:192|194:234,1,84.9999976158143,2|0,3:2|1:2,0:0:0:0:
369,311,151773,1,0,0:0:0:0:
456,199,151914,1,2,0:0:0:0:
370,187,152056,6,0,P|343:156|315:119,1,84.9999976158143,10|0,0:0|0:0,0:0:0:0:
168,246,152339,1,0,0:0:0:0:
216,377,152480,1,2,0:0:0:0:
285,323,152622,6,0,P|324:315|370:309,1,84.9999976158143,2|0,3:2|0:0,0:0:0:0:
316,120,152905,1,0,0:0:0:0:
471,304,153046,1,2,0:0:0:0:
456,199,153188,6,0,B|371:174|377:238|278:219,1,169.999995231629,2|0,0:3|0:0,0:0:0:0:
119,267,153612,1,0,0:0:0:0:
120,185,153754,2,0,P|169:157|217:159,1,84.9999976158143,0|0,3:2|1:2,0:0:0:0:
385,379,154037,6,0,P|387:332|372:291,1,84.9999976158143,2|0,0:0|0:0,0:0:0:0:
342,25,154320,1,8,0:0:0:0:
311,126,154461,1,2,0:0:0:0:
410,159,154603,1,0,0:0:0:0:
441,59,154744,1,2,0:0:0:0:
262,56,154886,6,0,L|170:42,1,84.9999976158143,2|0,3:2|0:0,0:0:0:0:
151,305,155169,1,0,0:0:0:0:
95,175,155310,1,0,0:0:0:0:
178,213,155452,2,0,L|262:200,1,84.9999976158143,2|0,0:3|0:0,0:0:0:0:
428,384,155735,2,0,B|444:344|444:344|437:290,1,84.9999976158143,2|0,0:0|0:0,0:0:0:0:
427,77,156018,5,2,3:2:0:0:
357,117,156159,2,0,B|341:157|341:157|348:211,1,84.9999976158143,0|0,1:2|0:0,0:0:0:0:
462,301,156442,1,2,0:0:0:0:
512,229,156584,2,0,L|430:205,1,84.9999976158143,8|0,0:0|0:0,0:0:0:0:
358,339,156867,2,0,B|296:346|296:346|265:372|265:372|171:385,1,169.999995231629,2|0,0:0|3:2,0:0:0:0:
79,253,157291,5,0,0:0:0:0:
158,231,157433,1,2,0:0:0:0:
208,292,157574,1,0,0:0:0:0:
60,255,157716,5,2,0:3:0:0:
112,165,157857,1,0,0:0:0:0:
219,182,157999,1,2,0:0:0:0:
226,295,158140,1,0,0:0:0:0:
149,243,158282,5,8,0:3:0:0:
390,201,158424,1,0,3:2:0:0:
390,201,158494,1,0,3:2:0:0:
390,201,158565,1,8,0:3:0:0:
407,114,158707,1,4,0:3:0:0:
149,91,158848,5,10,0:0:0:0:
141,10,158990,1,0,3:2:0:0:
351,40,159131,5,8,0:0:0:0:
304,210,159273,1,8,0:0:0:0:
391,375,159414,6,0,P|332:316|249:311,1,169.999995231629,4|0,3:2|0:0,0:0:0:0:
103,305,159839,1,0,0:0:0:0:
80,378,159980,2,0,B|37:376|37:376|-21:346,1,84.9999976158143,2|0,0:3|0:0,0:0:0:0:
161,181,160263,2,0,B|176:221|176:221|173:266,1,84.9999976158143,2|0,0:0|0:0,0:0:0:0:
60,177,160546,6,0,L|47:82,1,84.9999976158143,2|0,3:2|1:2,0:0:0:0:
186,284,160829,1,0,0:0:0:0:
256,227,160971,2,0,L|268:128,1,84.9999976158143,2|8,3:2|0:0,0:0:0:0:
512,251,161254,1,0,0:0:0:0:
464,181,161395,2,0,L|452:84,1,84.9999976158143,2|0,0:0|0:0,0:0:0:0:
365,169,161678,6,0,B|360:235|360:235|379:271|379:271|375:333,1,169.999995231629,2|0,3:2|0:0,0:0:0:0:
304,372,162103,1,0,0:0:0:0:
186,242,162244,2,0,L|270:230,1,84.9999976158143,2|0,0:3|0:0,0:0:0:0:
110,159,162527,1,0,0:0:0:0:
110,159,162598,1,0,0:0:0:0:
110,159,162669,1,2,0:0:0:0:
110,159,162740,1,2,0:0:0:0:
110,159,162810,6,0,L|143:81,1,84.9999976158143,2|0,3:2|1:2,0:0:0:0:
257,60,163093,2,0,L|311:127,1,84.9999976158143,2|0,0:0|0:0,0:0:0:0:
256,323,163376,1,8,0:0:0:0:
213,155,163518,1,0,0:0:0:0:
266,236,163659,2,0,L|183:250,1,84.9999976158143,2|0,0:0|0:0,0:0:0:0:
297,59,163942,6,0,L|340:147,1,84.9999976158143,2|0,3:2|0:0,0:0:0:0:
85,122,164225,2,0,L|143:47,1,84.9999976158143,2|0,0:0|0:0,0:0:0:0:
256,323,164508,2,0,B|195:310|195:310|166:277|166:277|77:257,1,169.999995231629,2|0,0:3|0:0,0:0:0:0:
121,348,164933,1,0,0:0:0:0:
283,208,165074,5,2,3:2:0:0:
352,260,165216,2,0,P|431:257|481:182,1,169.999995231629,0|2,1:2|0:0,0:0:0:0:
413,137,165640,2,0,P|402:95|397:53,1,84.9999976158143,8|0,0:0|0:0,0:0:0:0:
174,172,165924,2,0,P|184:130|190:87,1,84.9999976158143,2|0,0:0|0:0,0:0:0:0:
284,20,166207,2,0,L|296:120,1,84.9999976158143,0|0,3:2|0:0,0:0:0:0:
337,283,166490,5,2,0:0:0:0:
337,283,166560,1,2,0:0:0:0:
337,283,166631,1,0,0:0:0:0:
409,234,166773,5,2,0:3:0:0:
291,199,166914,1,0,0:0:0:0:
254,326,167056,1,2,0:0:0:0:
378,358,167197,1,0,0:0:0:0:
217,250,167339,5,0,3:2:0:0:
151,210,167480,2,0,L|139:118,1,84.9999976158143,0|0,1:0|0:0,0:0:0:0:
395,156,167763,1,0,1:2:0:0:
395,156,167834,1,0,1:2:0:0:
395,156,167905,2,0,L|407:71,1,84.9999976158143,8|0,0:0|0:0,0:0:0:0:
266,39,168188,1,8,0:3:0:0:
291,168,168329,1,4,0:3:0:0:
294,352,168471,6,0,B|367:363|353:317|425:336,1,135.999996185303,4|0,3:2|0:0,0:0:0:0:
226,292,168895,1,0,1:0:0:0:
159,343,169037,2,0,P|120:308|103:219,1,135.999996185303,2|0,0:3|1:2,0:0:0:0:
240,24,169603,5,2,3:2:0:0:
164,49,169744,2,0,P|155:82|150:116,1,67.9999980926514,0|0,1:2|0:0,0:0:0:0:
239,259,170027,1,2,0:0:0:0:
316,238,170168,2,0,P|324:205|329:171,1,67.9999980926514,2|0,0:3|0:0,0:0:0:0:
238,110,170452,1,2,3:2:0:0:
238,110,170735,6,0,B|164:96|178:136|104:129,1,135.999996185303,2|0,3:2|0:0,0:0:0:0:
239,341,171159,1,0,1:0:0:0:
310,301,171301,2,0,P|330:256|326:162,1,135.999996185303,2|0,0:3|1:2,0:0:0:0:
172,72,171867,5,0,3:2:0:0:
234,125,172008,2,0,P|239:153|246:191,1,67.9999980926514,0|0,1:0|0:0,0:0:0:0:
310,301,172291,1,2,3:2:0:0:
375,248,172433,2,0,P|405:240|441:234,1,67.9999980926514,2|0,0:3|0:0,0:0:0:0:
165,182,172716,2,0,P|157:215|148:248,1,67.9999980926514,0|0,3:2|0:0,0:0:0:0:
257,38,172999,6,0,P|305:35|396:98,1,135.999996185303,2|0,3:2|0:0,0:0:0:0:
193,101,173424,1,0,1:2:0:0:
110,82,173565,2,0,P|65:124|46:215,1,135.999996185303,2|0,0:3|1:2,0:0:0:0:
208,357,174131,6,0,L|199:290,1,67.9999980926514,2|0,3:2|1:2,0:0:0:0:
185,134,174414,2,0,L|176:201,1,67.9999980926514,0|0,0:0|3:2,0:0:0:0:
107,274,174697,1,2,0:3:0:0:
107,274,174980,1,2,3:2:0:0:
263,228,175122,1,0,0:0:0:0:
381,283,175263,6,0,B|457:292|441:247|512:263,1,135.999996185303,2|0,3:2|0:0,0:0:0:0:
347,200,175688,1,0,1:2:0:0:
263,228,175829,2,0,P|229:225|196:217,1,67.9999980926514,2|0,0:3|0:0,0:0:0:0:
341,55,176112,2,0,P|353:86|359:122,1,67.9999980926514,2|0,1:2|0:0,0:0:0:0:
149,118,176395,5,8,0:3:0:0:
206,50,176537,1,4,0:3:0:0:
206,50,176607,1,4,0:3:0:0:
206,50,176678,1,0,3:2:0:0:
233,127,176820,1,0,3:2:0:0:
73,72,176961,5,8,0:0:0:0:
234,149,177103,1,8,0:3:0:0:
412,190,177244,5,4,0:3:0:0:
300,219,177386,1,4,0:3:0:0:
100,352,177527,6,0,P|75:310|72:208,1,135.999996185303,4|0,3:2|0:0,0:0:0:0:
197,63,177952,1,0,1:2:0:0:
141,121,178093,2,0,B|69:116|80:155|10:149,1,135.999996185303,2|0,0:3|1:2,0:0:0:0:
284,377,178659,5,2,3:2:0:0:
220,331,178801,2,0,L|230:250,1,67.9999980926514,0|0,1:2|0:0,0:0:0:0:
322,117,179084,1,2,0:0:0:0:
360,193,179225,2,0,L|260:198,1,67.9999980926514,2|0,0:3|0:0,0:0:0:0:
149,237,179508,1,2,3:2:0:0:
149,237,179791,6,0,P|122:198|123:91,1,135.999996185303,2|0,3:2|0:0,0:0:0:0:
255,8,180216,1,0,1:2:0:0:
335,16,180357,2,0,P|362:55|361:162,1,135.999996185303,2|2,0:3|1:2,0:0:0:0:
255,318,180924,5,2,3:2:0:0:
286,207,181065,1,0,1:2:0:0:
404,283,181207,2,0,L|313:269,1,67.9999980926514,0|0,0:0|3:2,0:0:0:0:
135,209,181490,2,0,L|226:195,1,67.9999980926514,10|0,0:0|0:0,0:0:0:0:
404,140,181773,2,0,L|313:126,1,67.9999980926514,0|0,3:2|0:0,0:0:0:0:
135,209,182056,6,0,P|103:166|98:68,1,135.999996185303,2|0,3:2|0:0,0:0:0:0:
247,138,182480,1,0,1:2:0:0:
222,212,182622,2,0,B|234:288|201:270|211:345,1,135.999996185303,2|0,0:3|1:2,0:0:0:0:
445,213,183188,5,2,3:2:0:0:
399,279,183329,2,0,L|320:266,1,67.9999980926514,0|0,1:2|0:0,0:0:0:0:
133,83,183612,1,0,3:2:0:0:
179,149,183753,2,0,L|258:136,1,67.9999980926514,2|0,0:3|0:0,0:0:0:0:
407,71,184037,2,0,L|395:142,1,67.9999980926514,2|0,3:2|0:0,0:0:0:0:
484,292,184320,5,2,3:2:0:0:
484,292,184603,1,0,3:2:0:0:
318,248,184744,1,2,3:2:0:0:
101,315,184886,5,2,0:3:0:0:
101,315,185169,1,0,3:2:0:0:
169,254,185452,5,0,3:2:0:0:
116,139,185593,1,8,0:0:0:0:
176,71,185735,5,0,3:2:0:0:
150,249,185876,1,0,3:2:0:0:
37,178,186018,5,4,0:0:0:0:
139,158,186159,1,0,3:2:0:0:
243,200,186301,1,8,0:3:0:0:
393,168,186442,1,4,0:3:0:0:
468,223,186584,6,0,P|502:195|511:69,1,169.999995231629,4|2,3:2|0:3,0:0:0:0:
259,106,187433,2,0,P|257:157|268:212,1,101.999994026184,2|0,0:0|3:2,0:0:0:0:
346,252,187857,1,0,1:2:0:0:
373,63,187999,6,0,P|343:45|311:33,1,59.4999965152742,2|0,0:0|0:0,0:0:0:0:
346,252,188282,2,0,P|381:242|430:216,1,67.9999980926514,8|0,0:0|0:0,0:0:0:0:
179,80,188565,2,0,P|168:116|163:154,1,76.4999955196382,2|0,3:2|0:0,0:0:0:0:
201,292,188848,6,0,B|293:280|265:343|366:340,1,169.999995231629,0|2,3:2|0:0,0:0:0:0:
449,356,189273,1,0,0:0:0:0:
491,278,189414,2,0,P|497:235|508:198,1,76.4999955196382,2|0,0:3|0:0,0:0:0:0:
267,209,189697,2,0,P|260:166|252:127,1,76.4999955196382,0|0,0:0|0:0,0:0:0:0:
418,126,189980,6,0,P|385:153|355:183,1,84.9999976158143,2|0,3:2|0:0,0:0:0:0:
253,31,190263,2,0,P|291:46|332:60,1,84.9999976158143,2|0,0:0|0:0,0:0:0:0:
242,252,190546,2,0,P|245:210|244:168,1,84.9999976158143,8|0,0:0|0:0,0:0:0:0:
463,161,190829,2,0,P|421:171|382:186,1,84.9999976158143,2|0,3:2|0:0,0:0:0:0:
170,43,191112,6,0,P|260:51|314:119,1,152.999991039276,4|0,3:1|0:0,0:0:0:0:
159,189,191537,1,0,0:0:0:0:
89,223,191678,2,0,P|74:271|72:309,1,76.4999955196382,2|0,0:3|0:0,0:0:0:0:
278,258,191961,2,0,P|259:213|234:184,1,76.4999955196382,2|0,0:0|0:0,0:0:0:0:
179,335,192244,6,0,P|224:349|269:353,1,84.9999976158143,2|0,3:2|1:2,0:0:0:0:
378,220,192527,2,0,P|358:172|338:145,1,84.9999976158143,2|0,0:2|1:2,0:0:0:0:
192,106,192810,2,0,P|155:128|127:159,1,84.9999976158143,8|0,0:0|0:0,0:0:0:0:
269,235,193093,6,0,B|366:227|331:281|440:287,1,169.999995231629,2|4,3:2|3:2,0:0:0:0:
197,291,193518,1,0,0:0:0:0:
106,298,193659,2,0,P|63:276|31:235,1,84.9999976158143,2|0,0:0|0:0,0:0:0:0:
250,74,193942,2,0,P|277:126|261:249,1,169.999995231629,2|0,0:3|0:0,0:0:0:0:
197,291,194367,1,0,0:0:0:0:
144,226,194508,5,0,3:2:0:0:
321,156,194650,1,0,1:2:0:0:
419,264,194791,1,2,0:0:0:0:
366,363,194933,5,0,1:2:0:0:
366,363,195004,1,0,1:2:0:0:
366,363,195074,1,8,0:0:0:0:
341,279,195216,1,2,0:0:0:0:
199,86,195357,5,8,0:3:0:0:
174,245,195499,1,4,0:3:0:0:
199,330,195640,6,0,B|111:341|128:280|37:293,2,169.999995231629,4|0|2,3:2|0:0|0:3,0:0:0:0:
258,264,196348,1,0,0:0:0:0:
125,151,196490,2,0,P|109:181|101:214,1,67.9999980926514,2|0,0:0|0:0,0:0:0:0:
258,264,196773,2,0,P|246:218|224:182,1,76.4999955196382,0|0,3:2|0:0,0:0:0:0:
105,331,197056,6,0,P|145:342|187:347,1,84.9999976158143,2|0,0:0|0:0,0:0:0:0:
114,125,197339,2,0,P|83:154|57:188,1,84.9999976158143,8|0,0:0|0:0,0:0:0:0:
286,256,197622,2,0,P|282:213|271:172,1,84.9999976158143,2|0,3:2|0:0,0:0:0:0:
201,74,197905,6,0,L|185:227,1,152.999991039276,4|2,3:1|0:0,0:0:0:0:
175,336,198329,1,0,0:0:0:0:
103,301,198471,2,0,L|93:214,1,76.4999955196382,2|0,0:3|0:0,0:0:0:0:
282,279,198754,2,0,L|292:192,1,76.4999955196382,2|0,0:0|0:0,0:0:0:0:
474,306,199037,2,0,L|464:219,1,76.4999955196382,0|0,3:2|1:2,0:0:0:0:
330,360,199320,6,0,P|374:364|436:377,1,84.9999976158143,2|0,0:0|0:0,0:0:0:0:
331,164,199603,2,0,P|305:198|263:247,1,84.9999976158143,8|0,0:0|0:0,0:0:0:0:
504,276,199886,2,0,P|485:233|465:175,1,84.9999976158143,2|0,3:2|0:0,0:0:0:0:
371,267,200169,6,0,B|289:240|289:295|203:280,1,169.999995231629,2|0,3:2|0:0,0:0:0:0:
158,133,200593,1,0,0:0:0:0:
229,88,200735,2,0,P|271:92|310:108,1,84.9999976158143,2|0,0:3|0:0,0:0:0:0:
150,347,201018,2,0,P|124:303|117:253,1,84.9999976158143,2|0,0:0|0:0,0:0:0:0:
387,193,201301,5,0,3:2:0:0:
376,288,201442,1,0,1:2:0:0:
269,313,201584,5,0,0:0:0:0:
252,176,201725,1,0,3:2:0:0:
230,9,201867,5,8,0:0:0:0:
269,313,202150,1,2,3:2:0:0:
230,9,202433,6,0,B|249:92|205:74|216:161,1,152.999991039276,4|0,3:2|3:2,0:0:0:0:
343,217,203282,1,2,0:0:0:0:
421,182,203565,2,0,P|432:218|435:262,1,81.5999997033692,2|2,0:0|0:3,0:0:0:0:
256,192,204768,12,2,206961,0:0:0:0:
313,240,213188,5,2,0:0:0:0:
313,240,213471,1,2,0:0:0:0:
313,240,213754,6,0,B|399:226|386:288|480:289,1,169.999995231629,4|0,3:2|0:0,0:0:0:0:
240,302,214178,1,8,0:3:0:0:
165,259,214320,2,0,P|158:217|154:174,1,84.9999976158143,2|0,0:3|0:0,0:0:0:0:
206,106,214603,1,0,3:2:0:0:
206,106,214886,5,4,3:2:0:0:
112,355,215027,1,8,0:3:0:0:
112,355,215310,1,0,3:2:0:0:
112,355,215381,1,0,3:2:0:0:
112,355,215452,1,8,0:0:0:0:
190,298,215735,5,10,0:0:0:0:
136,157,215876,1,10,0:0:0:0:
31,53,216018,6,0,P|72:43|113:31,1,84.9999976158143,4|0,3:2|0:0,0:0:0:0:
214,108,216301,2,0,P|220:143|227:203,1,84.9999976158143,0|0,0:0|0:0,0:0:0:0:
14,244,216584,2,0,P|51:175|160:166,1,169.999995231629,2|2,0:3|0:0,0:0:0:0:
163,261,217008,1,0,0:0:0:0:
434,210,217150,5,0,3:2:0:0:
314,145,217291,1,0,1:2:0:0:
288,250,217433,1,2,0:0:0:0:
430,98,217574,1,0,1:2:0:0:
237,82,217716,6,0,P|229:123|225:166,1,84.9999976158143,8|0,0:0|0:0,0:0:0:0:
378,305,217999,2,0,P|340:286|301:271,1,84.9999976158143,0|2,3:2|0:0,0:0:0:0:
5,315,218282,6,0,B|95:311|72:259|179:262,1,169.999995231629,4|0,3:2|0:0,0:0:0:0:
320,117,218707,2,0,P|362:124|406:141,1,84.9999976158143,2|2,0:0|0:3,0:0:0:0:
377,261,218990,1,0,0:0:0:0:
259,282,219131,2,0,P|244:242|237:195,1,84.9999976158143,2|0,0:0|0:0,0:0:0:0:
377,261,219414,6,0,L|435:357,1,84.9999976158143,2|0,3:2|1:0,0:0:0:0:
138,374,219697,2,0,L|155:291,1,84.9999976158143,0|0,0:0|1:2,0:0:0:0:
261,169,219980,6,0,L|274:286,1,84.9999976158143,8|0,0:0|0:0,0:0:0:0:
80,139,220263,2,0,L|33:210,1,84.9999976158143,2|0,3:2|0:0,0:0:0:0:
164,34,220546,6,0,B|259:22|231:73|325:73,1,169.999995231629,2|0,3:2|0:0,0:0:0:0:
450,181,220971,1,0,0:0:0:0:
493,104,221112,2,0,P|470:59|436:35,1,84.9999976158143,2|0,0:3|0:0,0:0:0:0:
223,137,221395,2,0,L|206:247,1,84.9999976158143,2|0,0:0|0:0,0:0:0:0:
388,349,221678,5,8,0:3:0:0:
316,240,221820,1,4,0:3:0:0:
313,219,221890,1,4,0:3:0:0:
310,197,221961,1,0,3:2:0:0:
361,113,222103,1,0,3:2:0:0:
361,113,222174,1,0,3:2:0:0:
361,113,222244,5,8,0:0:0:0:
252,307,222386,1,0,3:0:0:0:
435,287,222527,5,10,0:0:0:0:
200,98,222669,1,10,0:0:0:0:
452,46,222810,6,0,P|456:88|456:130,1,84.9999976158143,4|0,3:2|0:0,0:0:0:0:
334,204,223093,2,0,L|237:185,1,84.9999976158143,0|2,0:0|0:0,0:0:0:0:
75,309,223376,2,0,B|161:310|143:256|242:272,1,169.999995231629,2|2,0:3|0:0,0:0:0:0:
305,324,223801,1,0,0:0:0:0:
435,287,223942,6,0,L|422:199,1,84.9999976158143,2|0,3:2|1:2,0:0:0:0:
372,31,224225,1,0,0:0:0:0:
222,71,224367,1,0,1:2:0:0:
305,107,224508,2,0,L|296:191,1,84.9999976158143,8|0,0:0|0:0,0:0:0:0:
79,169,224791,2,0,P|130:140|184:134,1,84.9999976158143,2|0,3:2|0:0,0:0:0:0:
362,337,225074,6,0,P|282:323|234:240,1,169.999995231629,2|0,3:2|0:0,0:0:0:0:
378,143,225499,1,0,0:0:0:0:
442,209,225640,2,0,P|437:248|435:293,1,84.9999976158143,2|0,0:3|0:0,0:0:0:0:
289,159,225924,2,0,P|295:116|295:74,1,84.9999976158143,2|0,0:0|0:0,0:0:0:0:
235,252,226207,1,0,3:2:0:0:
158,204,226348,6,0,L|72:223,1,84.9999976158143,0|0,1:2|0:0,0:0:0:0:
30,75,226631,1,0,1:2:0:0:
138,48,226773,2,0,L|197:112,1,84.9999976158143,8|0,0:0|0:0,0:0:0:0:
5,157,227056,2,0,L|31:73,1,84.9999976158143,0|0,3:2|0:0,0:0:0:0:
104,138,227339,6,0,L|116:321,1,169.999995231629,4|0,3:2|0:0,0:0:0:0:
325,364,227763,1,0,0:0:0:0:
391,319,227905,2,0,B|399:276|399:276|384:226,1,84.9999976158143,2|0,0:3|0:0,0:0:0:0:
197,139,228188,2,0,B|189:182|189:182|204:232,1,84.9999976158143,2|0,0:0|0:0,0:0:0:0:
280,261,228471,5,0,3:2:0:0:
431,166,228612,1,0,1:2:0:0:
487,238,228895,5,0,1:2:0:0:
279,130,229037,2,0,L|269:34,1,84.9999976158143,8|0,0:0|0:0,0:0:0:0:
106,277,229320,2,0,L|181:236,1,84.9999976158143,2|0,3:2|0:0,0:0:0:0:
411,317,229603,6,0,P|365:247|285:225,1,169.999995231629,2|0,3:2|0:0,0:0:0:0:
243,299,230027,1,0,0:0:0:0:
70,158,230169,1,2,0:3:0:0:
70,157,230452,2,0,P|106:137|148:129,1,84.9999976158143,0|0,0:0|0:0,0:0:0:0:
246,43,230735,2,0,P|265:80|275:121,1,84.9999976158143,2|0,3:2|0:0,0:0:0:0:
411,204,231018,2,0,P|387:239|357:269,1,84.9999976158143,0|0,0:0|1:2,0:0:0:0:
194,310,231230,1,0,1:2:0:0:
174,300,231301,6,0,P|152:262|143:217,1,84.9999976158143,8|0,0:0|1:0,0:0:0:0:
365,53,231584,1,0,1:0:0:0:
317,193,231725,1,2,1:2:0:0:
430,384,231867,6,0,P|382:314|260:300,1,203.999994277954,4|2,3:1|0:0,0:0:0:0:
177,337,232433,2,0,L|162:246,1,84.9999976158143,4|0,0:2|0:0,0:0:0:0:
261,104,232716,2,0,L|254:191,1,84.9999976158143,0|0,0:0|0:0,0:0:0:0:
83,211,232999,6,0,P|128:180|176:170,1,84.9999976158143,2|0,3:2|1:2,0:0:0:0:
290,287,233282,1,0,0:0:0:0:
342,146,233424,1,0,1:2:0:0:
454,260,233565,2,0,L|363:243,1,84.9999976158143,8|0,0:0|0:0,0:0:0:0:
442,26,233848,2,0,L|358:41,1,84.9999976158143,2|0,3:2|0:0,0:0:0:0:
342,146,234131,6,0,B|279:150|279:150|239:173|239:173|178:176,1,169.999995231629,2|0,3:2|0:0,0:0:0:0:
209,350,234556,1,0,0:0:0:0:
288,315,234697,2,0,P|304:263|302:223,1,84.9999976158143,2|0,0:3|0:0,0:0:0:0:
173,95,234980,2,0,P|132:105|95:132,1,84.9999976158143,2|0,0:0|0:0,0:0:0:0:
15,244,235263,5,0,3:2:0:0:
74,310,235405,2,0,P|122:264|232:268,1,169.999995231629,0|0,1:2|1:2,0:0:0:0:
401,272,235829,2,0,P|396:225|372:164,1,84.9999976158143,8|0,0:0|0:0,0:0:0:0:
342,345,236112,1,0,3:2:0:0:
485,290,236254,1,2,0:0:0:0:
406,102,236395,6,0,L|322:117,1,84.9999976158143,4|0,3:2|0:0,0:0:0:0:
485,290,236678,2,0,L|512:209,1,84.9999976158143,0|2,0:0|0:0,0:0:0:0:
290,257,236961,2,0,L|345:321,1,84.9999976158143,2|0,0:3|0:0,0:0:0:0:
396,218,237244,1,2,0:0:0:0:
254,345,237386,1,0,0:0:0:0:
113,243,237527,6,0,P|170:182|253:177,1,169.999995231629,2|0,3:2|0:0,0:0:0:0:
418,116,237952,1,0,1:2:0:0:
381,40,238093,2,0,P|342:21|301:14,1,84.9999976158143,8|0,0:0|0:0,0:0:0:0:
153,74,238376,2,0,L|169:174,1,84.9999976158143,0|0,3:2|0:0,0:0:0:0:
271,273,238659,6,0,B|360:283|343:228|438:242,2,169.999995231629,2|0|2,3:2|0:0|0:3,0:0:0:0:
154,348,239367,1,0,0:0:0:0:
86,301,239508,2,0,L|98:211,1,84.9999976158143,2|0,0:0|0:0,0:0:0:0:
239,58,239791,5,8,0:3:0:0:
254,193,239933,1,4,0:3:0:0:
254,193,240004,1,4,0:3:0:0:
254,193,240074,1,0,3:2:0:0:
263,291,240216,1,0,3:2:0:0:
263,291,240287,1,0,3:2:0:0:
263,291,240357,5,8,0:0:0:0:
338,151,240499,1,0,3:0:0:0:
146,112,240640,5,10,0:0:0:0:
357,264,240782,1,10,0:0:0:0:
40,326,240924,6,0,P|46:278|187:204,1,203.999994277954,4|2,3:1|0:0,0:0:0:0:
243,138,241490,2,0,P|248:180|260:220,1,84.9999976158143,4|0,0:2|0:0,0:0:0:0:
440,240,241773,2,0,P|452:199|457:157,1,84.9999976158143,2|0,0:0|0:0,0:0:0:0:
270,17,242056,5,2,3:2:0:0:
420,44,242197,1,0,1:2:0:0:
347,102,242339,2,0,L|340:186,1,84.9999976158143,0|0,0:0|1:2,0:0:0:0:
194,128,242622,2,0,L|204:214,1,84.9999976158143,8|0,0:0|0:0,0:0:0:0:
50,96,242905,2,0,L|36:203,1,84.9999976158143,2|0,3:2|0:0,0:0:0:0:
176,292,243188,6,0,B|83:287|102:343|6:346,1,169.999995231629,2|0,3:3|0:0,0:0:0:0:
303,220,243612,1,0,0:0:0:0:
374,266,243754,6,0,P|435:230|460:115,1,187.000000461578,4|2,0:2|0:0,0:0:0:0:
159,166,244178,1,0,0:0:0:0:
88,213,244320,6,0,P|34:149|35:59,1,169.999995231629,4|0,3:2|0:0,0:0:0:0:
269,123,244744,1,0,1:2:0:0:
361,140,244886,6,0,P|386:104|398:65,1,76.4999955196382,10|0,0:0|0:0,0:0:0:0:
121,4,245169,2,0,P|119:46|125:84,1,76.4999955196382,0|0,3:2|0:0,0:0:0:0:
218,301,245452,6,0,B|200:218|249:227|232:128,1,152.999991039276,4|0,3:2|0:0,0:0:0:0:
349,102,245876,1,0,0:0:0:0:
386,247,246018,2,0,L|289:232,1,76.4999955196382,2|0,0:3|0:0,0:0:0:0:
136,181,246301,2,0,P|128:222|126:269,1,76.4999955196382,2|0,0:0|0:0,0:0:0:0:
177,373,246584,6,0,P|245:321|338:330,1,152.999991039276,2|0,3:2|0:0,0:0:0:0:
380,367,247008,1,2,1:2:0:0:
241,158,247150,1,8,0:0:0:0:
241,158,247433,2,0,L|334:144,1,76.4999955196382,2|0,3:2|0:0,0:0:0:0:
164,199,247716,6,0,P|126:157|119:60,1,152.999991039276,2|0,3:2|0:0,0:0:0:0:
294,8,248140,1,0,0:0:0:0:
345,76,248282,2,0,P|334:113|316:147,1,76.4999955196382,2|0,0:3|0:0,0:0:0:0:
244,247,248565,2,0,P|281:240|319:239,1,76.4999955196382,2|0,0:0|0:0,0:0:0:0:
460,277,248848,6,0,P|444:222|398:173,1,118.999993030548,2|0,3:2|0:0,0:0:0:0:
164,199,249273,1,0,1:2:0:0:
164,199,249343,1,0,1:2:0:0:
164,198,249414,2,0,P|149:228|142:270,1,67.9999980926514,8|0,0:0|1:0,0:0:0:0:
362,378,249697,2,0,P|371:327|371:303,1,67.9999980926514,0|0,1:0|1:2,0:0:0:0:
267,162,249980,5,2,0:0:0:0:
243,292,250263,1,0,0:0:0:0:
371,310,250546,1,2,0:0:0:0:
371,310,251112,5,2,0:0:0:0:
232,269,251537,1,2,0:0:0:0:
249,187,251678,1,0,0:0:0:0:
81,158,251961,1,2,0:0:0:0:
66,56,252244,5,2,0:0:0:0:
66,56,252810,1,0,0:0:0:0:
66,56,253376,5,0,0:0:0:0:
205,78,253659,1,2,0:0:0:0:
430,109,253942,5,2,0:0:0:0:
278,136,254225,1,2,0:0:0:0:
57,235,254508,5,0,0:0:0:0:
157,221,255074,1,2,0:0:0:0:
290,337,255640,1,2,0:0:0:0:
389,348,256207,1,2,0:0:0:0:
389,348,256773,5,2,0:0:0:0:
273,328,257056,1,0,0:0:0:0:
260,242,257339,1,0,0:0:0:0:
157,221,257622,1,2,0:0:0:0:
157,221,258188,5,0,0:0:0:0:
277,208,258471,1,0,0:0:0:0:
309,58,258754,1,2,0:0:0:0:
406,74,259037,5,2,0:0:0:0:
420,197,259603,5,2,0:0:0:0:
430,292,260228,5,2,0:0:0:0:
439,368,260925,5,2,0:0:0:0:
439,368,262195,6,0,L|442:349,2,15.9375001609326,2|0|0,0:0|0:0|0:0,0:0:0:0:
256,192,262336,12,0,268987,0:0:0:0:
