osu file format v14

[General]
AudioFilename: Soai Calendula.mp3
AudioLeadIn: 0
PreviewTime: 56767
Countdown: 0
SampleSet: Soft
StackLeniency: 0.7
Mode: 0
LetterboxInBreaks: 0
WidescreenStoryboard: 0

[Editor]
DistanceSpacing: 1.4
BeatDivisor: 4
GridSize: 4
TimelineZoom: 2.4

[Metadata]
Title:Souai Calendula (TV Size)
TitleUnicode:奏愛カレンデュラ (TV Size)
Artist:Ceui
ArtistUnicode:Ceui
Creator:Sandrew
Version:Hard
Source:八犬伝-東方八犬異聞-
Tags:hakkenden touhouhakkenibun tv size ed ending 小高光太郎 odaka kotaro abhor Lobelia Pata-Mon
BeatmapID:1400568
BeatmapSetID:661578

[Difficulty]
HPDrainRate:5
CircleSize:3.7
OverallDifficulty:6
ApproachRate:7
SliderMultiplier:1.4
SliderTickRate:1

[Events]
//Background and Video events
0,0,"bg.jpg",0,0
Video,285,"ED.avi"
//Break Periods
//Storyboard Layer 0 (Background)
//Storyboard Layer 1 (Fail)
//Storyboard Layer 2 (Pass)
//Storyboard Layer 3 (Foreground)
//Storyboard Sound Samples

[TimingPoints]
126,447.761194029851,4,2,1,40,1,0
126,-125,4,2,1,40,0,0
7290,-125,4,2,1,50,0,0
14454,-100,4,2,1,60,0,0
26991,-125,4,2,1,50,0,0
41320,-125,4,2,1,60,0,0
48484,-100,4,2,1,60,0,0
57439,-100,4,2,1,70,0,1
73334,-125,4,2,1,50,0,0
75349,-125,4,2,1,40,0,0
77140,-125,4,2,1,70,0,0
82290,-125,4,2,1,40,0,0
84304,-166.666666666667,4,2,1,30,0,0
85199,-166.666666666667,4,2,1,20,0,0
86095,-166.666666666667,4,2,1,10,0,0
86990,-166.666666666667,4,2,1,5,0,0

[Colours]
Combo1 : 219,219,0
Combo2 : 0,174,174
Combo3 : 173,90,90
Combo4 : 165,226,156

[HitObjects]
112,64,126,6,0,P|80:64|52:76,2,56,2|2|2,0:0|0:0|0:0,0:0:0:0:
188,52,797,1,2,0:0:0:0:
188,52,1245,2,0,L|188:116,1,56,2|2,0:0|0:0,0:0:0:0:
188,188,1693,1,2,0:0:0:0:
188,188,2140,6,0,P|220:188|248:176,1,56,2|2,0:0|0:0,0:0:0:0:
316,152,2588,1,2,0:0:0:0:
316,152,3036,1,2,0:0:0:0:
312,232,3260,1,2,0:0:0:0:
380,196,3484,1,2,0:0:0:0:
384,274,3708,6,0,P|387:351|415:379,2,112,2|2|2,0:0|0:0|0:0,0:0:0:0:
473,124,5051,1,2,0:0:0:0:
335,48,5499,6,0,B|296:46|296:46|280:62|280:62|218:59,1,112,2|2,0:0|0:0,0:0:0:0:
151,55,6170,1,2,0:0:0:0:
62,184,6618,2,0,P|53:213|57:248,2,56,2|2|2,0:0|0:0|0:0,0:0:0:0:
130,222,7290,6,0,B|190:208|189:234|265:212,1,112,4|0,0:1|0:0,0:0:0:0:
311,255,7961,2,0,P|311:282|303:309,1,56,2|0,0:0|0:0,0:0:0:0:
234,273,8409,2,0,P|233:245|241:218,1,56,2|0,0:0|0:0,0:0:0:0:
311,255,8857,2,0,B|371:241|370:267|422:250,2,112,2|0|0,0:0|0:0|0:0,0:0:0:0:
420,308,10200,6,0,L|423:233,1,56,0|0,0:0|0:0,0:0:0:0:
423,173,10648,1,0,0:0:0:0:
328,48,11096,6,0,L|253:45,1,56,0|0,0:0|0:0,0:0:0:0:
193,45,11543,1,2,0:0:0:0:
191,201,11991,6,0,L|135:198,1,56,0|0,0:0|0:0,0:0:0:0:
104,270,12439,2,0,L|216:276,1,112,2|0,0:0|0:0,0:0:0:0:
283,316,13111,1,0,0:0:0:0:
362,327,13334,2,0,P|405:281|415:231,1,112,2|0,0:0|0:0,0:0:0:0:
469,177,14006,1,0,0:0:0:0:
413,126,14230,1,0,0:0:0:0:
401,35,14454,6,0,B|365:34|341:62|341:62|254:62,1,140,4|0,0:0|0:0,0:0:0:0:
184,96,15126,2,0,P|179:129|187:171,1,70,4|0,0:0|0:0,0:0:0:0:
270,130,15573,2,0,P|275:97|267:55,1,70,8|0,0:0|0:0,0:0:0:0:
184,96,16021,2,0,B|148:95|124:123|124:123|37:123,2,140,4|8|8,0:0|0:0|0:0,0:0:0:0:
40,54,17364,6,0,P|48:86|52:122,1,70,8|8,0:0|0:0,0:0:0:0:
4,200,17812,1,8,0:0:0:0:
4,200,18036,2,0,P|7:234|16:268,1,70,4|0,0:0|0:0,0:0:0:0:
80,332,18484,1,8,0:0:0:0:
80,332,18708,2,0,P|108:320|152:316,1,70,4|0,0:0|0:0,0:0:0:0:
233,345,19155,2,0,P|238:307|224:264,1,70,0|0,0:0|0:0,0:0:0:0:
273,195,19603,1,0,0:0:0:0:
347,259,19827,6,0,P|352:296|373:341,1,70,8|0,0:0|0:0,0:0:0:0:
363,326,20163,1,0,0:0:0:0:
363,326,20275,1,0,0:0:0:0:
354,146,20723,2,0,P|358:105|352:71,2,70,8|0|0,0:0|0:0|0:0,0:0:0:0:
465,44,21618,6,0,P|476:112|466:182,1,140,8|8,0:0|0:0,0:0:0:0:
340,333,22514,1,8,0:0:0:0:
340,333,22737,2,0,L|400:332,2,35,0|0|8,0:0|0:0|0:0,0:0:0:0:
263,271,23185,1,0,0:0:0:0:
263,271,23297,1,8,0:0:0:0:
263,271,23409,6,0,B|250:239|250:239|252:203,1,70,4|0,0:0|0:0,0:0:0:0:
251,153,23745,2,0,B|220:133|220:133|187:128,1,70,8|0,0:0|0:0,0:0:0:0:
138,122,24081,1,8,0:0:0:0:
61,60,24305,2,0,P|44:93|44:146,1,70,8|0,0:0|0:0,0:0:0:0:
117,187,24752,2,0,P|134:154|134:101,1,70,8|0,0:0|0:0,0:0:0:0:
207,51,25200,6,0,L|304:47,1,70,8|0,0:0|0:0,0:0:0:0:
325,41,25536,2,0,L|422:39,1,70,8|0,0:0|0:0,0:0:0:0:
444,52,25872,2,0,B|441:130|441:130|472:153|472:153|469:262,1,210,8|0,0:0|0:0,0:0:0:0:
470,247,26991,6,0,P|453:273|416:285,1,56,4|0,0:0|0:0,0:0:0:0:
357,310,27439,1,2,0:0:0:0:
357,310,27663,2,0,B|301:326|300:301|229:318,2,112,2|2|2,0:0|0:0|0:0,0:0:0:0:
373,233,28782,6,0,P|370:200|378:166,1,56,8|0,0:0|0:0,0:0:0:0:
433,126,29230,1,2,0:0:0:0:
433,126,29454,2,0,B|447:72|419:72|431:11,1,112,2|2,0:0|0:0,0:0:0:0:
373,177,30349,1,2,0:0:0:0:
373,177,30573,6,0,L|293:178,1,56,8|2,0:0|0:0,0:0:0:0:
264,236,31021,1,2,0:0:0:0:
264,236,31245,2,0,P|279:286|262:345,1,112,2|0,0:0|0:0,0:0:0:0:
187,361,31917,2,0,P|132:368|68:358,1,112,2|2,0:0|0:0,0:0:0:0:
21,304,32588,6,0,P|4:332|0:365,1,56,2|2,0:0|0:0,0:0:0:0:
76,360,33036,1,2,0:0:0:0:
96,282,33260,2,0,P|113:254|117:221,1,56,2|2,0:0|0:0,0:0:0:0:
38,223,33708,1,2,0:0:0:0:
53,146,33931,1,0,0:0:0:0:
53,146,34043,1,0,0:0:0:0:
53,146,34155,6,0,P|55:114|73:83,1,56,4|0,0:0|0:0,0:0:0:0:
130,48,34603,1,2,0:0:0:0:
130,48,34827,2,0,B|188:31|189:59|259:41,2,112,8|8|8,0:0|0:0|0:0,0:0:0:0:
145,124,35946,6,0,B|188:111|189:132|241:118,2,84,8|8|8,0:0|0:0|0:0,0:0:0:0:
283,196,37066,2,0,P|270:249|277:319,1,112,8|8,0:0|0:0,0:0:0:0:
344,339,37737,5,8,0:0:0:0:
344,339,37961,2,0,P|404:349|467:330,1,112,8|10,0:0|0:0,0:0:0:0:
273,305,38857,1,10,0:0:0:0:
280,226,39081,1,10,0:0:0:0:
356,261,39305,1,2,0:0:0:0:
356,261,39528,6,0,P|364:232|356:185,1,56,8|8,0:0|0:0,0:0:0:0:
441,202,39976,2,0,P|433:173|441:126,1,56,8|8,0:0|0:0,0:0:0:0:
316,45,40648,2,0,P|346:46|376:32,2,56,2|2|2,0:0|0:0|0:0,0:0:0:0:
237,49,41320,6,0,P|185:43|105:53,1,112,4|2,0:1|0:0,0:0:0:0:
73,106,41991,2,0,P|61:158|70:220,2,112,2|2|8,0:0|0:0|0:0,0:0:0:0:
149,125,43111,2,0,B|276:124,1,112,4|0,0:1|0:0,0:0:0:0:
284,199,43782,2,0,B|172:200,1,112,2|0,0:0|0:0,0:0:0:0:
155,276,44454,2,0,P|144:301|146:353,1,56,0|0,0:0|0:0,0:0:0:0:
219,320,44902,6,0,P|274:331|333:318,1,112,4|2,0:1|0:0,0:0:0:0:
391,273,45573,2,0,P|402:218|389:159,1,112,2|2,0:0|0:0,0:0:0:0:
374,349,46469,1,2,0:0:0:0:
374,349,46693,6,0,P|405:349|432:339,1,56,4|0,0:1|0:0,0:0:0:0:
391,273,47140,1,2,0:0:0:0:
391,273,47364,2,0,B|349:266|307:281|271:269,1,112,0|0,0:0|0:0,0:0:0:0:
200,271,48036,1,2,0:0:0:0:
147,329,48260,1,2,0:0:0:0:
147,329,48484,6,0,P|106:332|58:327,1,70,4|0,0:0|0:0,0:0:0:0:
32,320,48820,1,0,0:0:0:0:
32,320,48931,1,2,3:0:0:0:
72,240,49155,2,0,P|64:164|80:92,1,140,0|0,0:0|0:0,0:0:0:0:
148,48,49827,1,2,3:0:0:0:
168,136,50051,2,0,P|160:168|164:224,2,70,0|2|0,0:0|3:0|0:0,0:0:0:0:
232,72,50723,5,2,3:0:0:0:
321,72,50946,2,0,B|393:53|393:78|465:64,1,140,0|0,0:0|0:0,0:0:0:0:
426,150,51618,2,0,B|392:156|392:144|356:153,1,70,2|0,3:0|0:0,0:0:0:0:
304,224,52066,6,0,P|280:256|276:292,1,70,2|2,3:0|3:0,0:0:0:0:
340,348,52514,2,0,P|364:316|368:280,1,70,2|2,3:0|3:0,0:0:0:0:
275,284,52961,2,0,L|191:284,1,70,2|2,3:0|3:0,0:0:0:0:
368,287,53409,2,0,L|456:288,1,70,2|2,3:0|3:0,0:0:0:0:
468,252,53745,1,0,0:0:0:0:
468,252,53857,6,0,P|480:176|464:104,1,140,6|2,3:0|3:0,0:0:0:0:
472,24,54528,1,2,3:0:0:0:
384,52,54752,2,0,B|321:74|246:48|246:48|177:74|99:52,1,280,2|4,3:0|0:0,0:0:0:0:
64,127,56767,5,0,0:0:0:0:
110,49,56991,1,2,0:0:0:0:
18,49,57215,1,2,0:0:0:0:
64,127,57439,6,0,P|54:197|67:276,1,140,4|2,0:0|3:0,0:0:0:0:
144,321,58111,2,0,P|157:281|159:243,1,70,4|0,0:0|0:0,0:0:0:0:
63,265,58558,2,0,P|50:305|48:343,1,70,4|2,0:0|3:0,0:0:0:0:
145,321,59006,2,0,P|213:335|290:319,1,140,4|2,0:0|3:0,0:0:0:0:
375,294,59678,5,2,3:0:0:0:
457,346,59902,1,0,0:0:0:0:
457,346,60014,1,0,0:0:0:0:
457,346,60126,1,2,3:0:0:0:
458,247,60349,2,0,L|458:164,1,70,2|2,3:0|3:0,0:0:0:0:
375,294,60797,1,4,0:0:0:0:
457,107,61245,6,0,L|458:177,1,70,2|2,3:0|3:0,0:0:0:0:
391,46,61693,1,4,0:0:0:0:
375,294,62140,2,0,L|375:211,1,70,2|2,3:0|3:0,0:0:0:0:
292,341,62588,1,4,0:0:0:0:
391,46,63036,5,2,3:0:0:0:
324,118,63260,1,2,3:0:0:0:
458,177,63484,1,4,0:0:0:0:
458,177,63596,1,0,0:0:0:0:
458,177,63708,2,0,P|460:216|457:254,1,70,2|0,3:0|0:0,0:0:0:0:
393,320,64155,2,0,P|356:313|327:275,1,70,2|0,3:0|0:0,0:0:0:0:
306,256,64491,1,2,3:0:0:0:
306,256,64603,6,0,P|325:187|321:111,1,140,4|2,0:0|3:0,0:0:0:0:
255,47,65275,2,0,P|232:71|223:114,1,70,4|0,0:0|0:0,0:0:0:0:
322,119,65723,2,0,P|345:95|354:52,1,70,4|2,0:0|3:0,0:0:0:0:
255,47,66170,2,0,P|181:39|93:53,1,140,4|2,0:0|3:0,0:0:0:0:
51,121,66842,5,2,3:0:0:0:
147,136,67066,1,0,0:0:0:0:
147,136,67178,1,0,0:0:0:0:
147,136,67290,2,0,P|186:134|228:136,1,70,2|0,3:0|0:0,0:0:0:0:
283,211,67737,1,2,3:0:0:0:
178,297,67961,2,0,P|241:266|283:211,1,140,4|2,0:0|3:0,0:0:0:0:
322,119,68633,5,2,3:0:0:0:
448,166,68857,2,0,P|390:127|321:118,1,140,4|2,0:0|3:0,0:0:0:0:
429,253,69528,1,2,3:0:0:0:
372,333,69752,1,4,0:0:0:0:
372,333,69864,1,0,0:0:0:0:
372,333,69976,6,0,P|410:347|457:349,2,70,0|2|2,0:0|3:0|3:0,0:0:0:0:
259,198,70648,2,0,P|214:145|149:119,1,140,4|2,0:0|3:0,0:0:0:0:
52,105,71320,1,2,3:0:0:0:
82,197,71543,1,0,0:0:0:0:
82,197,71655,1,0,0:0:0:0:
82,197,71767,6,0,L|74:290,1,70,4|2,0:0|3:0,0:0:0:0:
171,379,72215,1,2,3:0:0:0:
186,232,72439,1,4,0:0:0:0:
186,232,72887,5,2,3:0:0:0:
171,379,73111,1,2,3:0:0:0:
260,302,73334,2,0,B|337:329|335:277|474:277|484:316|475:347|410:358|391:314,1,280,4|0,0:0|0:0,0:0:0:0:
338,202,74902,6,0,P|307:208|262:205,1,56,0|0,0:0|0:0,0:0:0:0:
260,302,75349,2,0,P|232:300|204:305,1,56,2|0,0:0|0:0,0:0:0:0:
111,337,75797,1,2,0:0:0:0:
204,305,76021,1,2,0:0:0:0:
169,158,76469,2,0,B|111:176|52:156,1,112,0|0,0:0|0:0,0:0:0:0:
59,159,77140,6,0,L|56:80,1,56,2|0,0:0|0:0,0:0:0:0:
153,55,77587,1,2,0:0:0:0:
153,55,77812,2,0,B|211:37|270:57,1,112,2|2,0:0|0:0,0:0:0:0:
399,133,78707,2,0,B|443:174|455:235,2,112,2|2|2,0:0|0:0|0:0,0:0:0:0:
263,54,80050,1,2,0:0:0:0:
251,131,80274,1,2,0:0:0:0:
325,106,80498,1,2,0:0:0:0:
315,183,80722,6,0,P|321:238|309:302,1,112,2|2,0:0|0:0,0:0:0:0:
377,336,81393,1,2,0:0:0:0:
242,254,81841,1,2,0:0:0:0:
377,336,82290,5,2,0:0:0:0:
256,192,82401,12,0,87886,0:0:0:0:
