osu file format v14

[General]
AudioFilename: audio.mp3
AudioLeadIn: 0
PreviewTime: 56643
Countdown: 0
SampleSet: Normal
StackLeniency: 0.7
Mode: 1
LetterboxInBreaks: 0
WidescreenStoryboard: 1

[Editor]
DistanceSpacing: 2
BeatDivisor: 4
GridSize: 32
TimelineZoom: 1.5

[Metadata]
Title:Souai Calendula (TV Size)
TitleUnicode:奏愛カレンデュラ (TV Size)
Artist:Ceui
ArtistUnicode:Ceui
Creator:Mafumafu
Version:Nao's Futsuu
Source:八犬伝-東方八犬異聞-
Tags:hakkenden touhouhakkenibun yaoi ed ending 小高光太郎 odaka kotaro Nao Tomori Naotoshi Prophecy Regraz anime japanese 第二期 Season 2 two Eight Dogs of The East
BeatmapID:1738318
BeatmapSetID:783850

[Difficulty]
HPDrainRate:7
CircleSize:5
OverallDifficulty:3
ApproachRate:5
SliderMultiplier:1.4
SliderTickRate:1

[Events]
//Background and Video events
0,0,"bg.jpg",0,40
//Break Periods
//Storyboard Layer 0 (Background)
//Storyboard Layer 1 (Fail)
//Storyboard Layer 2 (Pass)
//Storyboard Layer 3 (Foreground)
//Storyboard Layer 4 (Overlay)
//Storyboard Sound Samples

[TimingPoints]
226,447.761194029851,4,1,0,55,1,0
14554,-100,4,1,0,70,0,0
19927,447.761194029851,4,1,0,70,1,0
27091,-100,4,1,0,65,0,0
41420,-100,4,1,0,55,0,0
48584,-100,4,1,0,60,0,0
54852,-100,4,1,0,70,0,0
55076,-100,4,1,0,70,0,0
55300,-100,4,1,0,75,0,0
55524,-100,4,1,0,80,0,0
57538,-100,4,1,0,85,0,1
75001,-100,4,1,0,65,0,0
77240,-100,4,1,0,60,0,0
82614,-100,4,1,0,55,0,0
83061,-100,4,1,0,50,0,0
83509,-100,4,1,0,45,0,0
83957,-100,4,1,0,40,0,0
84405,-100,4,1,0,35,0,0
84852,-100,4,1,0,30,0,0
85300,-100,4,1,0,25,0,0
87091,-100,4,1,0,20,0,0

[HitObjects]
256,192,225,5,8,0:0:0:0:
256,192,896,1,8,0:0:0:0:
256,192,1792,1,0,0:0:0:0:
256,192,2687,5,0,0:0:0:0:
256,192,3807,1,8,0:0:0:0:
256,192,4254,1,0,0:0:0:0:
256,192,4702,1,0,0:0:0:0:
256,192,5150,1,0,0:0:0:0:
256,192,5598,1,8,0:0:0:0:
256,192,6269,1,0,0:0:0:0:
256,192,7389,1,8,0:0:0:0:
264,169,8060,1,0,0:0:0:0:
264,169,8508,1,8,0:0:0:0:
256,192,8956,1,0,0:0:0:0:
256,192,10971,1,0,0:0:0:0:
256,192,11642,1,8,0:0:0:0:
256,192,12090,1,8,0:0:0:0:
256,192,12538,1,0,0:0:0:0:
256,192,12986,1,8,0:0:0:0:
256,192,13433,1,0,0:0:0:0:
256,192,14105,1,8,0:0:0:0:
256,192,14553,1,12,0:0:0:0:
256,192,15225,1,4,0:0:0:0:
256,192,16120,1,12,0:0:0:0:
256,192,17016,1,8,0:0:0:0:
256,192,17463,1,8,0:0:0:0:
256,192,17687,1,0,0:0:0:0:
256,192,18135,1,12,0:0:0:0:
256,192,18807,1,4,0:0:0:0:
256,192,19702,1,0,0:0:0:0:
256,192,19926,1,8,0:0:0:0:
256,192,20374,1,8,0:0:0:0:
256,192,20822,1,0,0:0:0:0:
256,192,21269,1,8,0:0:0:0:
256,192,21717,1,0,0:0:0:0:
256,192,22613,1,8,0:0:0:0:
256,192,23060,1,8,0:0:0:0:
256,192,23284,1,0,0:0:0:0:
256,192,23508,1,8,0:0:0:0:
256,192,24180,1,0,0:0:0:0:
256,192,24851,1,0,0:0:0:0:
256,192,25299,1,8,0:0:0:0:
256,192,25971,1,8,0:0:0:0:
256,192,27090,1,12,0:0:0:0:
256,192,28881,1,0,0:0:0:0:
256,192,30672,1,8,0:0:0:0:
256,192,31344,1,0,0:0:0:0:
256,192,31792,1,8,0:0:0:0:
256,192,32016,1,0,0:0:0:0:
256,192,32463,1,0,0:0:0:0:
256,192,34030,1,0,0:0:0:0:
256,192,34254,1,12,0:0:0:0:
256,192,34926,1,0,0:0:0:0:
256,192,35374,1,8,0:0:0:0:
256,192,35822,1,0,0:0:0:0:
256,192,36045,1,0,0:0:0:0:
256,192,36717,1,8,0:0:0:0:
256,192,37165,1,0,0:0:0:0:
256,192,37613,1,8,0:0:0:0:
256,192,37836,1,8,0:0:0:0:
256,192,38060,1,0,0:0:0:0:
256,192,38508,1,8,0:0:0:0:
256,192,38956,1,0,0:0:0:0:
256,192,39404,1,8,0:0:0:0:
256,192,39627,1,0,0:0:0:0:
256,192,39851,1,8,0:0:0:0:
256,192,40299,1,0,0:0:0:0:
256,192,41419,1,8,0:0:0:0:
256,192,42090,1,8,0:0:0:0:
256,192,42538,1,0,0:0:0:0:
256,192,42986,1,8,0:0:0:0:
256,192,43210,1,8,0:0:0:0:
256,192,43881,1,0,0:0:0:0:
256,192,45001,1,8,0:0:0:0:
256,192,45448,1,8,0:0:0:0:
256,192,45672,1,8,0:0:0:0:
256,192,46120,1,0,0:0:0:0:
256,192,46568,1,8,0:0:0:0:
256,192,47016,1,0,0:0:0:0:
256,192,47239,1,0,0:0:0:0:
256,192,47463,1,8,0:0:0:0:
256,192,48359,1,0,0:0:0:0:
256,192,48583,1,12,0:0:0:0:
256,192,49030,1,8,0:0:0:0:
256,192,49254,1,0,0:0:0:0:
256,192,49702,1,0,0:0:0:0:
256,192,49926,1,8,0:0:0:0:
256,192,50150,1,0,0:0:0:0:
256,192,50822,1,8,0:0:0:0:
256,192,51045,1,8,0:0:0:0:
256,192,51717,1,8,0:0:0:0:
256,192,51941,1,8,0:0:0:0:
256,192,52165,1,4,0:0:0:0:
256,192,52836,1,8,0:0:0:0:
256,192,53060,1,8,0:0:0:0:
256,192,53731,1,0,0:0:0:0:
256,192,53956,1,12,0:0:0:0:
256,192,54627,1,4,0:0:0:0:
256,192,55075,1,0,0:0:0:0:
256,192,55299,1,8,0:0:0:0:
256,192,55523,1,8,0:0:0:0:
256,192,55747,1,4,0:0:0:0:
256,192,57538,5,12,0:0:0:0:
256,192,57986,1,8,0:0:0:0:
256,192,58210,1,0,0:0:0:0:
256,192,58657,1,8,0:0:0:0:
256,192,59105,1,4,0:0:0:0:
256,192,60448,1,8,0:0:0:0:
256,192,60672,1,0,0:0:0:0:
256,192,60896,1,12,0:0:0:0:
256,192,61344,1,0,0:0:0:0:
256,192,61568,1,8,0:0:0:0:
256,192,61792,1,4,0:0:0:0:
256,192,62239,1,0,0:0:0:0:
256,192,62687,1,12,0:0:0:0:
256,192,63135,1,8,0:0:0:0:
256,192,63359,1,0,0:0:0:0:
256,192,63583,1,4,0:0:0:0:
256,192,64030,1,0,0:0:0:0:
256,192,64254,1,0,0:0:0:0:
256,224,64478,1,0,0:0:0:0:
256,192,64702,1,12,0:0:0:0:
256,192,65150,1,8,0:0:0:0:
256,192,65374,1,0,0:0:0:0:
256,192,65822,1,8,0:0:0:0:
256,192,66269,1,4,0:0:0:0:
256,192,67389,1,8,0:0:0:0:
256,192,67613,1,0,0:0:0:0:
256,192,67836,1,0,0:0:0:0:
256,192,68060,1,12,0:0:0:0:
256,192,68508,1,8,0:0:0:0:
256,192,68732,1,8,0:0:0:0:
256,192,68956,1,4,0:0:0:0:
256,192,69851,1,4,0:0:0:0:
256,192,70299,1,8,0:0:0:0:
256,192,70523,1,8,0:0:0:0:
256,192,70747,1,4,0:0:0:0:
256,192,71642,1,0,0:0:0:0:
256,192,71866,1,12,0:0:0:0:
256,192,72314,1,8,0:0:0:0:
256,192,72538,1,4,0:0:0:0:
256,192,72986,1,4,0:0:0:0:
256,192,73433,1,12,0:0:0:0:
256,192,75448,1,8,0:0:0:0:
256,192,76120,1,0,0:0:0:0:
256,192,77239,1,8,0:0:0:0:
256,192,77911,1,0,0:0:0:0:
256,192,78807,1,0,0:0:0:0:
256,192,79702,1,8,0:0:0:0:
256,192,80822,1,8,0:0:0:0:
256,192,81493,1,0,0:0:0:0:
256,192,81941,1,0,0:0:0:0:
256,192,82389,1,8,0:0:0:0:
256,192,82613,12,8,87090,0:0:0:0:
