osu file format v14

[General]
AudioFilename: audio.mp3
AudioLeadIn: 0
PreviewTime: 69361
Countdown: 0
SampleSet: Soft
StackLeniency: 0.7
Mode: 0
LetterboxInBreaks: 0
EpilepsyWarning: 1
WidescreenStoryboard: 1

[Editor]
Bookmarks: 28028,49361,70695,94695,105361,116028,137361,158695,180028,190695,201361,214695,225361,236028,257361,278695,300028,310693
DistanceSpacing: 1.6
BeatDivisor: 8
GridSize: 16
TimelineZoom: 1.9

[Metadata]
Title:Shinai naru Sekai e
TitleUnicode:親愛なる世界へ
Artist:Ceui
ArtistUnicode:Ceui
Creator:GlaZe
Version:Tarnished Wings
Source:穢翼のユースティア
Tags:japanese Aiyoku no Eustia august To the dear world eroge visual novel video game jeezyh impurepug
BeatmapID:2249134
BeatmapSetID:1069927

[Difficulty]
HPDrainRate:5
CircleSize:4.2
OverallDifficulty:8
ApproachRate:9
SliderMultiplier:1.8
SliderTickRate:1

[Events]
//Background and Video events
0,0,"BG.jpg",0,0
//Break Periods
//Storyboard Layer 0 (Background)
//Storyboard Layer 1 (Fail)
//Storyboard Layer 2 (Pass)
//Storyboard Layer 3 (Foreground)
//Storyboard Layer 4 (Overlay)
//Storyboard Sound Samples

[TimingPoints]
1370,666.666666666667,4,2,2,60,1,0
1370,-83.3333333333333,4,2,2,60,0,0
1703,-83.3333333333333,4,2,1,40,0,0
3370,-100,4,2,1,30,0,0
4036,-83.3333333333333,4,2,1,40,0,0
17370,-66.6666666666667,4,2,1,50,0,0
18036,-83.3333333333333,4,2,1,40,0,0
19036,-133.333333333333,4,2,1,40,0,0
20036,-83.3333333333333,4,2,1,40,0,0
22703,-71.4285714285714,4,2,1,40,0,0
23370,-80,4,2,1,30,0,0
24036,-90.9090909090909,4,2,1,20,0,0
24703,-105.263157894737,4,2,1,15,0,0
25370,-105.263157894737,4,2,1,40,0,0
27703,-105.263157894737,4,2,1,20,0,0
28036,-100,4,2,1,35,0,0
68036,-66.6666666666667,4,2,1,40,0,0
68703,-55.5555555555556,4,2,1,45,0,0
69370,-40,4,2,1,40,0,0
69870,-66.6666666666667,4,2,1,40,0,0
70370,-62.5,4,2,1,40,0,0
70703,-50,4,2,1,70,0,1
72953,-50,4,2,1,5,0,1
73036,-50,4,2,1,70,0,1
73370,-66.6666666666667,4,2,1,70,0,1
75703,-125,4,2,1,70,0,1
76036,-55.5555555555556,4,2,1,70,0,1
78703,-66.6666666666667,4,2,1,70,0,1
81036,-111.111111111111,4,2,1,70,0,1
81370,-55.5555555555556,4,2,1,70,0,1
83620,-55.5555555555556,4,2,1,5,0,1
83703,-55.5555555555556,4,2,1,70,0,1
84036,-66.6666666666667,4,2,1,70,0,1
86703,-62.5,4,2,1,70,0,1
88286,-62.5,4,2,1,5,0,1
88370,-62.5,4,2,1,70,0,1
89870,-62.5,4,2,1,50,0,0
93036,-50,4,2,1,40,0,0
93370,-62.5,4,2,1,40,0,0
94703,-90.9090909090909,4,2,1,40,0,0
113370,-133.333333333333,4,2,1,25,0,0
115370,-142.857142857143,4,2,1,15,0,0
116036,-100,4,2,1,40,0,0
156036,-66.6666666666667,4,2,1,40,0,0
156703,-55.5555555555556,4,2,1,40,0,0
157370,-40,4,2,1,40,0,0
157870,-66.6666666666667,4,2,1,40,0,0
158370,-62.5,4,2,1,40,0,0
158703,-50,4,2,1,70,0,1
160953,-50,4,2,1,5,0,1
161036,-50,4,2,1,70,0,1
161370,-64.5161290322581,4,2,1,70,0,1
164036,-54.054054054054,4,2,1,70,0,1
166703,-64.5161290322581,4,2,1,70,0,1
169370,-54.054054054054,4,2,1,70,0,1
171620,-54.054054054054,4,2,1,5,0,1
171703,-54.054054054054,4,2,1,70,0,1
172036,-64.5161290322581,4,2,1,70,0,1
174703,-60.6060606060606,4,2,1,70,0,1
176286,-60.6060606060606,4,2,1,5,0,1
176370,-60.6060606060606,4,2,1,70,0,1
177870,-62.5,4,2,1,55,0,0
180036,-58.8235294117647,4,2,1,50,0,0
181036,-62.5,4,2,1,50,0,0
182370,-66.6666666666667,4,2,1,50,0,0
201370,-60.6060606060606,4,2,1,48,0,0
202703,-58.8235294117647,4,2,1,51,0,0
204036,-57.1428571428571,4,2,1,54,0,0
205370,-55.5555555555556,4,2,1,57,0,0
206703,-57.1428571428571,4,2,1,54,0,0
207203,-58.8235294117647,4,2,1,51,0,0
207703,-60.6060606060606,4,2,1,48,0,0
209370,-58.8235294117647,4,2,1,50,0,0
209870,-57.1428571428571,4,2,1,52,0,0
210703,-55.5555555555556,4,2,1,54,0,0
212036,-55.5555555555556,4,2,1,58,0,0
213369,-55.5555555555556,4,2,1,60,0,0
214702,-200,4,2,1,25,0,0
222535,-200,4,2,1,5,0,0
222702,-200,4,2,1,25,0,0
225369,-142.857142857143,4,2,1,30,0,0
227201,-142.857142857143,4,2,1,5,0,0
227369,-142.857142857143,4,2,1,30,0,0
227702,-142.857142857143,4,2,1,5,0,0
228035,-142.857142857143,4,2,1,30,0,0
230369,-100,4,2,1,30,0,0
232369,-100,4,2,2,15,0,0
233369,-142.857142857143,4,2,1,30,0,0
236035,-100,4,2,1,40,0,0
236368,-100,4,2,1,15,0,0
236702,-100,4,2,1,35,0,0
237035,-100,4,2,1,25,0,0
237202,-100,4,2,1,30,0,0
237369,-100,4,2,1,33,0,0
237702,-100,4,2,1,25,0,0
238035,-100,4,2,1,30,0,0
238368,-100,4,2,1,15,0,0
238702,-100,4,2,1,33,0,0
239035,-100,4,2,1,15,0,0
239202,-100,4,2,1,35,0,0
239702,-100,4,2,1,25,0,0
240035,-133.333333333333,4,2,1,30,0,0
241369,-100,4,2,1,40,0,0
241702,-100,4,2,1,15,0,0
242035,-100,4,2,1,35,0,0
242368,-100,4,2,1,25,0,0
242536,-100,4,2,1,30,0,0
242703,-100,4,2,1,33,0,0
243035,-100,4,2,1,25,0,0
243202,-100,4,2,1,30,0,0
243702,-100,4,2,1,15,0,0
244035,-111.111111111111,4,2,1,40,0,0
246702,-100,4,2,1,40,0,0
247369,-100,4,2,1,35,0,0
247702,-100,4,2,1,25,0,0
247869,-100,4,2,1,30,0,0
248035,-100,4,2,1,33,0,0
248368,-100,4,2,1,25,0,0
248702,-100,4,2,1,30,0,0
249035,-100,4,2,1,15,0,0
249369,-100,4,2,1,33,0,0
249702,-100,4,2,1,15,0,0
249869,-100,4,2,1,33,0,0
250369,-100,4,2,1,15,0,0
250702,-133.333333333333,4,2,1,25,0,0
251368,-133.333333333333,4,2,1,15,0,0
251702,-133.333333333333,4,2,1,20,0,0
252035,-100,4,2,1,30,0,0
252368,-100,4,2,1,15,0,0
252701,-100,4,2,1,20,0,0
253869,-100,4,2,1,28,0,0
254035,-100,4,2,1,26,0,0
254702,-100,4,2,1,30,0,0
255869,-100,4,2,1,5,0,0
256035,-100,4,2,1,40,0,0
256535,-62.5,4,2,1,40,0,0
257035,-62.5,4,2,1,40,0,0
257370,-47.6190476190476,4,2,1,70,0,1
258285,-47.6190476190476,4,2,1,5,0,1
258369,-47.6190476190476,4,2,1,70,0,1
259619,-47.6190476190476,4,2,1,5,0,1
259702,-47.6190476190476,4,2,1,70,0,1
260035,-62.5,4,2,1,70,0,1
262701,-52.6315789473684,4,2,1,70,0,1
263619,-52.6315789473684,4,2,1,5,0,1
263702,-52.6315789473684,4,2,1,70,0,1
265368,-62.5,4,2,1,70,0,1
268035,-52.6315789473684,4,2,1,70,0,1
268952,-52.6315789473684,4,2,1,5,0,1
269035,-52.6315789473684,4,2,1,70,0,1
270285,-52.6315789473684,4,2,1,5,0,1
270369,-52.6315789473684,4,2,1,70,0,1
270701,-62.5,4,2,1,70,0,1
273368,-58.8235294117647,4,2,1,70,0,1
274952,-58.8235294117647,4,2,1,5,0,1
275035,-58.8235294117647,4,2,1,70,0,1
276703,-60.6060606060606,4,2,1,58,0,0
278702,-66.6666666666667,4,2,2,70,0,0
279035,-66.6666666666667,4,2,1,70,0,0
280035,-71.4285714285714,4,2,1,54,0,0
281369,-76.9230769230769,4,2,1,52,0,0
284035,-83.3333333333333,4,2,1,40,0,0
294702,-66.6666666666667,4,2,1,45,0,0
295369,-83.3333333333333,4,2,1,40,0,0
300035,-133.333333333333,4,2,1,35,0,0
300369,-133.333333333333,4,2,1,25,0,0
302702,-133.333333333333,4,2,1,35,0,0
303035,-133.333333333333,4,2,1,25,0,0
305369,-133.333333333333,4,2,2,35,0,0
310702,-60.6060606060606,4,2,1,5,0,0

[Colours]
Combo1 : 255,210,170
Combo2 : 218,163,222
Combo3 : 255,128,128

[HitObjects]
103,53,1370,6,0,P|163:56|201:9,1,107.999996704102,4|0,0:0|0:0,0:0:0:0:
0,65,1870,1,0,1:0:0:0:
0,65,2036,2,0,P|23:123|39:184,1,107.999996704102,2|0,0:0|0:0,0:0:0:0:
149,319,2704,2,0,P|203:310|252:288,1,107.999996704102,2|0,0:0|0:0,0:0:0:0:
51,351,3370,2,0,P|31:340|10:331,2,45
312,242,4037,5,2,0:0:0:0:
229,282,4204,2,0,P|209:332|194:383,1,107.999996704102,2|0,0:0|0:0,0:0:0:0:
143,239,4870,1,2,0:0:0:0:
143,239,5037,1,0,1:0:0:0:
285,367,5370,2,0,P|393:350|378:261,1,215.999993408203,2|0,0:0|1:0,0:0:0:0:
382,265,6370,1,0,0:0:0:0:
512,123,6704,6,0,P|486:170|473:222,1,107.999996704102,2|0,0:1|0:0,0:0:0:0:
343,107,7204,2,0,P|395:94|443:69,1,107.999996704102
512,0,7704,1,2,0:0:0:0:
512,0,8704,5,2,0:0:0:0:
443,68,8870,1,0,0:0:0:0:
476,172,9036,1,0,0:0:0:0:
476,172,9370,6,0,P|423:152|335:143,1,107.999996704102,2|0,0:0|0:0,0:0:0:0:
283,66,9870,2,0,P|232:85|179:94,1,107.999996704102,0|2,1:0|0:0,0:0:0:0:
103,27,10370,1,0,1:0:0:0:
14,55,10537,1,2,0:0:0:0:
179,93,10704,5,2,0:1:0:0:
179,93,11204,1,2,0:0:0:0:
100,183,11370,2,0,P|117:234|128:286,1,107.999996704102,0|0,1:0|0:0,0:0:0:0:
297,379,12036,5,8,0:0:0:0:
297,379,12369,1,2,0:0:0:0:
319,290,12536,1,0,1:0:0:0:
402,248,12704,2,0,P|455:259|509:265,1,107.999996704102,2|0,0:0|0:0,0:0:0:0:
316,185,13370,2,0,P|262:190|209:202,1,107.999996704102,2|2,0:0|0:0,0:0:0:0:
394,101,14036,2,0,P|403:75|415:51,2,53.9999983520508
213,44,14704,6,0,P|266:38|318:22,1,107.999996704102,2|0,0:0|0:0,0:0:0:0:
98,27,15203,2,0,P|127:71|147:121,1,107.999996704102,2|0,0:0|1:0,0:0:0:0:
75,186,15704,1,2,0:0:0:0:
75,186,16036,6,0,P|45:230|25:280,1,107.999996704102,2|0,0:0|0:0,0:0:0:0:
84,360,16536,1,0,1:0:0:0:
234,278,16703,1,2,0:0:0:0:
181,358,16870,1,0,0:0:0:0:
84,360,17036,1,0,0:0:0:0:
234,278,17370,6,0,P|297:254|361:272,1,135.000005149842,2|2,0:1|0:0,0:0:0:0:
511,168,17870,1,0,1:0:0:0:
511,168,18036,2,0,P|457:160|408:138,1,107.999996704102,2|2,0:0|1:2,0:0:0:0:
409,139,19036,6,0,P|422:169|433:201,2,67.5000025749208,0|2|0,0:0|0:0|0:0,0:0:0:0:
210,104,20036,6,0,P|219:43|238:-11,1,107.999996704102,8|0,0:1|0:0,0:0:0:0:
409,139,20536,2,0,P|356:146|305:162,1,107.999996704102,2|0,0:0|0:0,0:0:0:0:
200,242,21036,1,0,0:0:0:0:
200,242,21370,2,0,P|149:226|96:219,1,107.999996704102,2|0,0:0|0:0,0:0:0:0:
8,266,21870,1,2,0:0:0:0:
21,152,22036,6,0,L|10:112,3,26.9999991760254,4|0|0|0,0:0|0:0|0:0|0:0,0:0:0:0:
69,73,22370,1,2,0:0:0:0:
70,59,22453,1,2,0:0:0:0:
73,46,22536,1,2,0:0:0:0:
75,34,22619,1,2,0:0:0:0:
80,25,22703,6,0,P|137:28|204:47,1,125.999996154785
70,37,23370,2,0,P|126:25|195:26,1,112.5
60,51,24036,2,0,P|108:26|173:10,1,99.0000030212403
49,68,24703,2,0,P|83:37|132:9,1,85.4999977169037
256,192,25370,5,2,0:1:0:0:
256,192,25536,12,0,27703,0:0:0:0:
512,343,28036,6,0,P|473:328|424:323,1,90,0|0,3:0|0:0,0:0:0:0:
337,342,28536,1,0,3:0:0:0:
337,342,28703,2,0,P|329:366|324:384,1,45,0|0,1:0|0:0,0:0:0:0:
201,282,29036,2,0,P|245:277|287:261,1,90,8|0,0:0|0:0,0:0:0:0:
102,285,29703,1,0,3:0:0:0:
123,373,29870,1,0,3:0:0:0:
17,269,30036,2,0,P|23:224|39:179,1,90,8|0,0:0|3:0,0:0:0:0:
122,51,30703,6,0,L|114:6,1,45,0|0,3:0|0:0,0:0:0:0:
201,93,31036,2,0,L|189:136,1,45,0|0,0:0|3:0,0:0:0:0:
295,16,31370,1,0,1:0:0:0:
295,16,31703,2,0,P|340:10|425:12,1,90,8|0,0:0|0:0,0:0:0:0:
255,96,32370,5,0,3:0:0:0:
255,96,32536,1,0,3:0:0:0:
155,87,32703,2,0,P|146:43|134:0,1,90,8|0,0:0|3:0,0:0:0:0:
52,148,33370,2,0,P|39:191|30:235,1,90,0|0,3:0|0:0,0:0:0:0:
160,321,34036,6,0,P|122:302|96:291,1,45,0|0,1:0|0:0,0:0:0:0:
302,366,34370,2,0,P|258:379|214:385,1,90,8|0,0:0|0:0,0:0:0:0:
450,307,35036,1,0,3:0:0:0:
403,384,35203,1,0,3:0:0:0:
383,250,35370,2,0,P|377:205|366:161,1,90,8|0,0:0|3:0,0:0:0:0:
293,43,36036,6,0,P|336:53|381:59,1,90,0|0,3:0|0:0,0:0:0:0:
246,120,36536,1,0,3:0:0:0:
246,120,36703,1,0,1:0:0:0:
127,0,37036,6,0,P|144:41|157:84,1,90,8|0,0:0|0:0,0:0:0:0:
133,231,37703,1,0,3:0:0:0:
207,370,38036,2,0,P|220:326|237:285,1,90,8|0,0:0|3:0,0:0:0:0:
411,316,38703,6,0,P|371:334|328:348,1,90,0|0,3:0|0:0,0:0:0:0:
243,292,39203,1,0,3:0:0:0:
243,292,39370,2,0,P|222:283|202:272,1,45,0|0,1:0|0:0,0:0:0:0:
67,302,39704,2,0,P|46:341|31:384,1,90,8|0,0:0|0:0,0:0:0:0:
115,233,40370,5,0,3:0:0:0:
147,316,40536,1,0,3:0:0:0:
44,192,40703,2,0,P|53:148|69:105,1,90,8|0,0:0|3:0,0:0:0:0:
116,29,41203,1,0,3:0:0:0:
283,42,41370,6,0,P|239:51|196:66,1,90,2|0,3:2|0:0,0:0:0:0:
370,95,41870,1,0,3:0:0:0:
370,95,42036,2,0,P|391:100|414:104,1,45,0|0,1:0|0:0,0:0:0:0:
512,241,42370,2,0,P|505:196|495:152,1,90,8|0,0:0|0:0,0:0:0:0:
458,313,43036,5,0,3:0:0:0:
512,241,43203,1,0,3:0:0:0:
371,331,43370,2,0,P|329:318|285:308,1,90,8|0,0:0|3:0,0:0:0:0:
114,293,44036,6,0,P|157:283|200:269,1,90,2|0,3:2|0:0,0:0:0:0:
253,195,44536,1,0,3:0:0:0:
285,308,44703,1,0,1:0:0:0:
427,264,45036,2,0,P|384:250|340:240,1,90,8|0,0:0|0:0,0:0:0:0:
165,234,45703,5,0,3:0:0:0:
165,234,45870,1,0,3:0:0:0:
255,272,46036,2,0,P|269:314|278:358,1,90,8|0,0:0|3:0,0:0:0:0:
313,200,46703,6,0,P|335:209|356:215,1,45,0|0,3:0|3:0,0:0:0:0:
197,176,47036,2,0,P|220:169|239:162,1,45,0|0,3:0|0:0,0:0:0:0:
119,116,47370,1,2,3:2:0:0:
119,116,47703,2,0,P|128:72|141:29,1,90,8|0,0:0|0:0,0:0:0:0:
29,128,48370,5,0,3:0:0:0:
78,202,48536,1,0,3:0:0:0:
42,103,48703,1,0,3:0:0:0:
73,232,48870,1,0,3:0:0:0:
12,340,49036,1,0,3:0:0:0:
16,355,49370,6,0,P|58:341|103:333,1,90,2|0,3:1|0:0,0:0:0:0:
208,347,49870,1,0,3:0:0:0:
208,346,50036,2,0,P|220:364|230:384,1,45,0|0,1:0|0:0,0:0:0:0:
184,234,50370,2,0,P|188:189|204:147,2,90,8|0|0,0:0|0:0|3:0,0:0:0:0:
251,293,51203,1,0,3:0:0:0:
333,256,51370,1,8,0:0:0:0:
512,315,51703,1,0,3:0:0:0:
512,315,52036,6,0,P|489:305|450:299,1,45,0|0,3:0|0:0,0:0:0:0:
392,362,52370,2,0,P|371:371|349:376,1,45,0|0,0:0|3:0,0:0:0:0:
240,364,52703,1,0,1:0:0:0:
309,223,53036,1,8,0:0:0:0:
469,300,53370,2,0,P|491:339|504:382,2,90,0|0|8,0:0|3:0|0:0,0:0:0:0:
344,221,54370,1,0,3:0:0:0:
344,221,54703,6,0,P|356:177|379:138,1,90,0|0,3:0|0:0,0:0:0:0:
463,110,55203,1,0,3:0:0:0:
411,0,55370,1,0,1:0:0:0:
242,56,55703,2,0,P|284:62|329:79,1,90,8|0,0:0|0:0,0:0:0:0:
178,135,56370,5,0,3:0:0:0:
140,53,56536,1,0,3:0:0:0:
112,199,56703,2,0,P|71:219|28:230,1,90,8|0,0:0|3:0,0:0:0:0:
291,252,57370,6,0,P|250:231|207:220,1,90,0|0,3:0|0:0,0:0:0:0:
112,199,57870,1,0,3:0:0:0:
112,199,58036,1,0,1:0:0:0:
47,84,58370,2,0,P|35:38|8:-15,2,90,8|0|0,0:0|0:0|3:0,0:0:0:0:
0,214,59370,1,8,0:0:0:0:
85,370,59703,6,0,P|88:347|96:326,1,45,0|0,3:0|0:0,0:0:0:0:
272,252,60036,2,0,P|235:277|192:288,1,90,0|0,3:0|0:0,0:0:0:0:
102,217,60536,2,0,P|65:191|21:181,1,90,0|0,3:0|0:0,0:0:0:0:
198,203,61036,1,8,0:0:0:0:
29,269,61370,5,0,0:0:0:0:
29,269,61703,1,0,3:0:0:0:
0,175,61870,1,0,3:0:0:0:
92,36,62036,2,0,P|76:78|66:122,1,90,8|0,0:0|3:0,0:0:0:0:
284,77,62703,6,0,P|240:67|197:51,1,90,0|0,3:0|0:0,0:0:0:0:
123,0,63203,1,0,3:0:0:0:
100,102,63370,1,0,1:0:0:0:
99,101,63703,2,0,P|141:85|185:75,1,90,8|0,0:0|0:0,0:0:0:0:
344,132,64370,5,0,3:0:0:0:
422,69,64536,1,0,3:0:0:0:
441,169,64703,2,0,L|449:213,1,45,8|0,0:0|0:0,0:0:0:0:
362,251,65036,2,0,L|354:296,1,45,0|0,3:0|3:0,0:0:0:0:
456,354,65370,6,0,P|474:360|505:375,2,45,0|0|0,3:0|3:0|3:0,0:0:0:0:
354,295,65870,2,0,P|314:309|266:312,1,90,0|0,3:0|0:0,0:0:0:0:
209,384,66370,2,0,P|168:370|120:367,1,90,8|0,0:0|0:0,0:0:0:0:
0,384,67036,5,0,3:0:0:0:
0,384,67203,1,0,3:0:0:0:
68,267,67370,2,0,L|60:316,1,45,8|0,0:0|0:0,0:0:0:0:
13,190,67703,5,2,3:2:0:0:
68,267,67870,1,0,3:0:0:0:
68,121,68036,2,0,P|41:108|-15:101,1,67.5000025749208,4|0,0:0|0:0,0:0:0:0:
99,26,68370,2,0,P|130:13|163:7,1,67.5000025749208
277,168,68703,6,0,P|310:190|350:201,1,80.9999975280763,8|0,0:1|0:0,0:0:0:0:
272,0,69037,2,0,P|252:35|245:74,1,80.9999975280763,2|0,0:0|0:0,0:0:0:0:
338,302,69370,6,0,P|402:296|430:150,1,225,8|0,0:0|0:0,0:0:0:0:
262,253,69870,2,0,B|233:315|264:389,1,135.000005149842,2|0,3:2|0:0,0:0:0:0:
253,235,70370,2,0,P|222:250|192:275,1,72,2|0,3:1|0:0,0:0:0:0:
0,43,70703,6,0,P|83:95|181:98,1,180,4|0,3:1|0:0,0:0:0:0:
330,6,71203,1,2,0:0:0:0:
375,166,71370,2,0,P|337:262|316:357,1,180,8|0,1:2|0:0,0:0:0:0:
180,171,71870,1,0,0:0:0:0:
378,146,72036,6,0,P|339:179|264:177,1,90,2|0,0:1|0:0,0:0:0:0:
426,74,72370,2,0,P|475:86|521:102,1,90,0|0,3:0|0:0,0:0:0:0:
253,120,72703,2,0,P|224:185|255:249,1,135,8|0,1:2|0:0,0:0:0:0:
312,286,73036,1,0,3:0:0:0:
312,286,73203,1,2,0:0:0:0:
147,246,73370,6,0,B|65:239|26:291,1,135.000005149842,8|0,0:1|0:0,0:0:0:0:
246,240,73870,1,0,3:0:0:0:
331,354,74036,2,0,P|371:347|415:328,1,67.5000025749208,2|0,1:2|0:0,0:0:0:0:
316,193,74370,2,0,P|330:227|336:256,1,67.5000025749208,8|0,0:0|0:0,0:0:0:0:
233,159,74703,1,2,0:3:0:0:
239,71,74870,1,2,0:0:0:0:
314,26,75036,1,2,3:3:0:0:
397,54,75203,1,2,0:0:0:0:
240,91,75370,6,0,P|207:84|178:66,1,67.5000025749208,10|0,1:2|0:0,0:0:0:0:
345,69,75703,2,0,P|371:64|396:53,1,54,0|0,3:0|0:0,0:0:0:0:
463,0,76036,6,0,P|421:60|402:170,1,161.999995056153,4|0,3:2|0:0,0:0:0:0:
512,250,76536,1,2,0:0:0:0:
308,376,76703,2,0,P|379:341|402:267,1,161.999995056153,10|0,1:2|0:0,0:0:0:0:
198,313,77203,1,0,0:0:0:0:
204,146,77370,6,0,P|231:174|247:211,1,80.9999975280763,2|0,3:2|0:0,0:0:0:0:
198,313,77703,1,0,3:0:0:0:
247,212,77870,1,0,3:0:0:0:
379,384,78036,2,0,P|420:372|451:349,1,80.9999975280763,8|0,1:2|0:0,0:0:0:0:
238,321,78370,2,0,P|203:302|164:293,1,80.9999975280763,0|0,3:0|0:0,0:0:0:0:
350,204,78703,6,0,P|372:142|342:83,1,135.000005149842,8|0,0:1|0:0,0:0:0:0:
230,36,79203,1,0,3:0:0:0:
102,131,79370,2,0,P|66:121|39:103,1,67.5000025749208,2|0,1:2|0:0,0:0:0:0:
230,36,79703,2,0,P|203:57|187:86,1,67.5000025749208,10|0,0:0|0:0,0:0:0:0:
320,81,80036,5,2,0:3:0:0:
409,88,80203,1,2,0:0:0:0:
468,22,80370,1,2,3:3:0:0:
409,88,80536,1,0,3:3:0:0:
373,172,80703,6,0,P|362:203|356:237,1,67.5000025749208,8|0,1:2|0:0,0:0:0:0:
451,113,81036,2,0,P|441:84|424:58,1,60.7499981460572,0|0,3:0|0:0,0:0:0:0:
358,0,81370,6,0,P|433:32|524:37,1,161.999995056153,4|0,3:2|0:0,0:0:0:0:
390,130,81870,1,2,0:0:0:0:
205,0,82037,2,0,P|263:63|264:191,1,161.999995056153,10|0,1:2|0:0,0:0:0:0:
133,306,82536,1,0,0:0:0:0:
298,282,82703,6,0,P|252:241|162:244,1,80.9999975280763,2|0,0:1|0:0,0:0:0:0:
388,363,83036,2,0,P|428:360|466:348,1,80.9999975280763,0|0,3:0|0:0,0:0:0:0:
466,97,83370,2,0,P|494:155|514:225,1,121.499996292114,8|0,1:2|0:0,0:0:0:0:
504,284,83703,1,0,3:0:0:0:
504,284,83870,1,2,0:0:0:0:
331,296,84036,6,0,B|249:305|221:364,1,135.000005149842,8|0,0:1|0:0,0:0:0:0:
413,268,84536,1,0,3:0:0:0:
368,149,84703,2,0,P|347:175|335:207,1,67.5000025749208,2|0,1:2|0:0,0:0:0:0:
502,74,85036,2,0,P|470:84|436:84,1,67.5000025749208,8|0,0:0|0:0,0:0:0:0:
228,1,85370,1,2,0:3:0:0:
316,5,85537,1,2,0:0:0:0:
362,79,85703,1,2,3:3:0:0:
344,165,85870,1,2,0:0:0:0:
316,5,86037,6,0,P|376:-16|444:4,1,135.000005149842,10|0,1:2|3:0,0:0:0:0:
30,13,86703,6,0,P|135:35|156:142,1,216,4|0,3:2|3:0,0:0:0:0:
0,134,87370,2,0,P|30:112|69:105,1,72,2|0,1:2|0:0,0:0:0:0:
190,192,87703,2,0,P|181:156|155:125,1,72,8|0,0:0|0:0,0:0:0:0:
217,300,88036,6,0,P|271:307|321:290,1,108,8|0,0:1|0:0,0:0:0:0:
375,239,88370,1,0,3:0:0:0:
375,239,88536,1,0,3:0:0:0:
217,300,88703,6,0,P|194:327|181:360,1,72,8|0,1:2|0:0,0:0:0:0:
308,147,89036,2,0,P|299:112|278:84,1,72,0|0,3:0|0:0,0:0:0:0:
217,300,89370,5,0,3:0:0:0:
0,210,89536,2,0,P|62:175|133:162,1,144,0|0,3:0|3:0,0:0:0:0:
244,69,90370,6,0,P|241:31|230:-1,1,72,8|0,0:0|0:0,0:0:0:0:
209,194,90703,2,0,P|242:173|273:162,1,72,0|0,1:0|1:0,0:0:0:0:
378,186,91036,5,2,0:3:0:0:
378,186,91203,1,2,0:0:0:0:
512,125,91370,1,2,3:3:0:0:
423,96,91536,1,0,3:0:0:0:
474,219,91703,2,0,P|495:251|507:294,1,72,2|0,0:3|0:0,0:0:0:0:
310,295,92036,6,0,P|345:285|376:267,2,72,0|0|0,3:0|3:2|3:2,0:0:0:0:
126,217,92536,2,0,P|191:243|218:314,1,144,0|0,3:0|1:0,0:0:0:0:
144,129,93036,2,0,P|122:169|111:213,1,90,4|0,0:0|0:0,0:0:0:0:
118,316,93370,5,2,3:0:0:0:
218,307,93536,1,2,0:0:0:0:
101,338,93703,2,0,P|70:319|36:308,1,72,2|0,3:0|0:0,0:0:0:0:
218,307,94036,5,8,0:0:0:0:
302,347,94203,1,2,3:0:0:0:
402,332,94370,1,2,0:0:0:0:
303,373,94536,1,2,3:0:0:0:
402,332,94703,6,0,P|427:333|453:341,1,49.5000015106202,2|0,3:1|3:0,0:0:0:0:
359,267,95036,2,0,P|369:241|384:220,1,49.5000015106202,0|0,0:0|3:0,0:0:0:0:
288,292,95370,2,0,P|269:271|257:246,1,49.5000015106202,0|0,3:0|0:0,0:0:0:0:
402,332,95703,2,0,P|429:329|453:322,1,49.5000015106202,8|0,0:0|3:0,0:0:0:0:
490,242,96036,2,0,L|493:215,2,24.7500007553101,0|0|2,3:0|3:0|0:3,0:0:0:0:
454,327,96370,1,0,3:0:0:0:
454,327,96536,1,0,3:0:0:0:
386,259,96703,2,0,P|361:260|337:268,1,49.5000015106202,8|0,0:0|0:0,0:0:0:0:
454,327,97036,2,0,P|477:335|501:338,1,49.5000015106202,0|0,3:0|0:0,0:0:0:0:
469,216,97370,5,2,3:1:0:0:
469,216,97703,2,0,L|480:167,1,49.5000015106202,0|0,0:0|3:0,0:0:0:0:
404,117,98036,2,0,L|390:69,1,49.5000015106202,0|0,3:0|0:0,0:0:0:0:
480,167,98370,2,0,L|469:216,1,49.5000015106202,8|0,0:0|0:0,0:0:0:0:
482,87,98703,2,0,L|507:89,2,24.7500007553101,0|0|2,3:0|3:0|0:3,0:0:0:0:
484,171,99036,1,0,3:0:0:0:
484,171,99203,1,0,3:0:0:0:
404,117,99370,2,0,P|379:118|355:126,1,49.5000015106202,8|0,0:0|0:0,0:0:0:0:
249,47,99703,2,0,P|273:55|298:56,1,49.5000015106202,0|0,3:0|0:0,0:0:0:0:
234,186,100036,5,2,3:1:0:0:
234,186,100370,2,0,P|208:191|183:188,1,49.5000015106202,0|0,3:0|3:0,0:0:0:0:
132,116,100703,2,0,P|139:91|154:71,1,49.5000015106202,0|0,0:0|3:0,0:0:0:0:
269,103,101036,2,0,P|259:80|242:61,1,49.5000015106202,8|0,0:0|3:0,0:0:0:0:
154,72,101370,2,0,L|117:79,2,24.7500007553101,0|0|2,3:0|3:0|0:3,0:0:0:0:
247,66,101703,1,0,3:0:0:0:
247,66,101870,1,0,3:0:0:0:
303,4,102036,2,0,P|316:25|323:49,1,49.5000015106202,8|0,0:0|0:0,0:0:0:0:
234,186,102370,2,0,P|220:164|213:140,1,49.5000015106202,0|0,3:0|0:0,0:0:0:0:
198,263,102703,6,0,P|185:268|165:285,2,24.7500007553101,2|0|2,3:1|3:0|3:0,0:0:0:0:
123,214,103036,2,0,P|103:240|98:269,1,49.5000015106202,0|0,0:0|3:0,0:0:0:0:
21,245,103370,2,0,P|22:278|36:307,1,49.5000015106202,0|0,3:0|0:0,0:0:0:0:
139,365,103703,2,0,P|120:348|97:340,1,49.5000015106202,8|0,0:0|3:0,0:0:0:0:
28,294,104036,2,0,L|3:296,2,24.7500007553101,0|0|2,3:0|3:0|0:3,0:0:0:0:
98,341,104370,5,0,3:0:0:0:
98,341,104537,1,0,3:0:0:0:
82,223,104703,1,8,0:0:0:0:
82,223,104870,1,0,0:0:0:0:
28,294,105036,1,0,3:0:0:0:
215,305,105370,6,0,P|240:305|264:299,1,49.5000015106202,2|0,3:1|3:0,0:0:0:0:
338,376,105703,2,0,P|356:361|371:340,1,49.5000015106202,0|0,0:0|3:0,0:0:0:0:
478,361,106036,2,0,P|481:336|479:312,1,49.5000015106202,0|0,3:0|0:0,0:0:0:0:
406,203,106370,2,0,P|401:227|405:252,1,49.5000015106202,8|0,0:0|0:0,0:0:0:0:
492,158,106703,5,0,3:0:0:0:
492,158,106787,1,0,3:0:0:0:
492,158,106870,1,2,3:0:0:0:
410,206,107037,1,0,3:0:0:0:
410,206,107203,1,0,3:0:0:0:
479,297,107370,2,0,P|485:320|487:345,1,49.5000015106202,8|0,0:0|0:0,0:0:0:0:
410,206,107703,2,0,P|410:181|418:156,1,49.5000015106202,0|0,3:0|0:0,0:0:0:0:
446,23,108036,5,2,3:1:0:0:
446,23,108203,1,0,3:0:0:0:
512,95,108370,1,0,0:0:0:0:
512,95,108536,1,0,3:0:0:0:
446,23,108703,2,0,P|421:25|392:30,1,49.5000015106202,0|0,3:0|0:0,0:0:0:0:
317,89,109036,2,0,P|292:87|263:82,1,49.5000015106202,8|0,0:0|0:0,0:0:0:0:
197,12,109370,5,0,3:0:0:0:
197,12,109454,1,0,3:0:0:0:
197,12,109537,1,2,3:0:0:0:
270,86,109703,1,0,3:0:0:0:
270,86,109870,1,0,3:0:0:0:
361,32,110037,2,0,P|383:39|404:52,1,49.5000015106202,8|0,0:0|0:0,0:0:0:0:
353,124,110370,2,0,P|365:144|373:168,1,49.5000015106202,0|0,3:0|0:0,0:0:0:0:
321,285,110703,5,2,3:1:0:0:
321,285,110870,1,0,3:0:0:0:
230,245,111036,1,0,0:0:0:0:
230,245,111203,1,0,3:0:0:0:
152,313,111370,2,0,L|143:361,1,49.5000015106202,0|0,3:0|0:0,0:0:0:0:
134,206,111703,2,0,L|123:158,1,49.5000015106202,8|0,0:0|0:0,0:0:0:0:
62,84,112037,5,0,3:0:0:0:
62,84,112121,1,0,3:0:0:0:
62,84,112204,1,2,3:0:0:0:
126,160,112370,1,0,3:0:0:0:
126,160,112536,1,0,3:0:0:0:
257,58,112703,1,0,3:0:0:0:
213,211,112870,1,0,3:0:0:0:
160,62,113036,2,0,P|121:34|99:26,1,49.5000015106202
294,151,113370,6,0,B|335:162|372:137|385:69|385:69|399:3|459:-24|518:21|522:89|468:129|412:105|389:67,1,405.000015449525
84,384,116036,6,0,P|92:340|113:299,1,90,0|0,3:0|0:0,0:0:0:0:
207,303,116536,1,0,3:0:0:0:
207,303,116703,2,0,P|229:293|249:289,1,45,0|0,1:0|0:0,0:0:0:0:
88,226,117036,2,0,P|42:227|0:237,1,90,8|0,0:0|0:0,0:0:0:0:
179,219,117703,1,0,3:0:0:0:
148,135,117870,1,0,3:0:0:0:
270,221,118036,2,0,P|314:215|356:200,1,90,8|0,0:0|3:0,0:0:0:0:
512,119,118703,6,0,P|510:141|504:163,1,45,0|0,3:0|0:0,0:0:0:0:
408,80,119036,2,0,P|420:98|430:118,1,45,0|0,0:0|3:0,0:0:0:0:
319,77,119370,1,0,1:0:0:0:
318,76,119703,2,0,P|274:66|231:50,1,90,8|0,0:0|0:0,0:0:0:0:
35,115,120370,5,0,3:0:0:0:
35,115,120536,1,0,3:0:0:0:
73,27,120703,2,0,P|115:11|159:1,1,90,8|0,0:0|3:0,0:0:0:0:
288,111,121370,2,0,P|269:70|246:31,1,90,0|0,3:0|3:0,0:0:0:0:
408,155,122036,6,0,P|388:144|367:134,1,45,0|0,1:0|0:0,0:0:0:0:
209,208,122370,2,0,P|253:201|296:189,1,90,8|0,0:0|0:0,0:0:0:0:
161,356,123036,1,0,3:0:0:0:
218,290,123203,1,0,3:0:0:0:
77,332,123370,2,0,P|66:288|60:243,1,90,8|0,0:0|3:0,0:0:0:0:
254,342,124036,6,0,P|210:331|166:326,1,90,0|0,3:0|0:0,0:0:0:0:
311,269,124536,1,0,3:0:0:0:
311,269,124703,1,0,1:0:0:0:
207,122,125036,6,0,P|224:163|237:206,1,90,8|0,0:0|0:0,0:0:0:0:
121,100,125703,1,0,3:0:0:0:
293,53,126036,2,0,P|249:40|205:31,1,90,8|0,0:0|3:0,0:0:0:0:
469,59,126703,6,0,P|426:72|385:91,1,90,0|0,3:0|0:0,0:0:0:0:
391,215,127203,1,0,3:0:0:0:
391,215,127370,2,0,P|396:192|405:171,1,45,0|0,1:0|0:0,0:0:0:0:
348,297,127704,2,0,P|369:336|384:379,1,90,8|0,0:0|0:0,0:0:0:0:
302,221,128370,5,0,3:0:0:0:
265,308,128536,1,0,3:0:0:0:
142,252,128703,2,0,P|99:236|55:227,1,90,8|0,0:0|3:0,0:0:0:0:
0,305,129203,1,0,3:0:0:0:
32,140,129370,6,0,P|46:182|55:226,1,90,2|0,3:2|0:0,0:0:0:0:
137,68,129870,1,0,3:0:0:0:
137,68,130036,2,0,P|131:89|127:112,1,45,0|0,1:0|0:0,0:0:0:0:
320,32,130370,2,0,P|277:43|231:48,1,90,8|0,0:0|0:0,0:0:0:0:
395,109,131036,5,0,3:0:0:0:
431,21,131203,1,0,3:0:0:0:
485,159,131370,2,0,P|501:210|511:266,1,90,8|0,0:0|3:0,0:0:0:0:
395,384,132036,6,0,P|404:340|418:297,1,90,2|0,3:2|0:0,0:0:0:0:
284,305,132536,1,0,3:0:0:0:
284,305,132703,2,0,P|308:294|338:289,1,45,0|0,1:0|0:0,0:0:0:0:
228,381,133036,2,0,P|182:375|138:366,1,90,8|0,0:0|0:0,0:0:0:0:
11,199,133703,5,0,3:0:0:0:
112,234,133870,1,0,3:0:0:0:
9,384,134036,2,0,P|16:339|31:297,1,90,8|0,0:0|3:0,0:0:0:0:
96,74,134703,6,0,P|108:109|116:147,1,45,0|0,3:0|0:0,0:0:0:0:
229,121,135036,2,0,P|208:130|189:141,1,45,0|0,0:0|3:0,0:0:0:0:
26,165,135370,2,0,P|46:174|65:185,1,45,0|0,1:0|0:0,0:0:0:0:
132,29,135703,2,0,P|118:72|109:116,1,90,8|0,0:0|0:0,0:0:0:0:
140,300,136370,6,0,B|127:276|106:250,1,45,2|0,0:0|0:0,0:0:0:0:
56,369,136703,1,0,3:0:0:0:
140,300,136870,1,0,3:0:0:0:
287,352,137036,1,0,3:0:0:0:
287,352,137370,6,0,P|327:332|371:324,1,90,2|0,3:1|0:0,0:0:0:0:
316,238,137870,1,0,3:0:0:0:
387,170,138036,2,0,P|399:188|409:208,1,45,0|0,1:0|0:0,0:0:0:0:
312,103,138370,2,0,P|316:58|332:16,2,90,8|0|0,0:0|0:0|3:0,0:0:0:0:
387,170,139203,1,0,3:0:0:0:
477,146,139370,1,8,0:0:0:0:
312,103,139703,5,0,3:0:0:0:
312,103,139870,1,0,3:0:0:0:
144,84,140036,2,0,P|188:75|229:58,1,90,0|0,3:0|0:0,0:0:0:0:
92,162,140536,1,0,3:0:0:0:
22,96,140703,2,0,P|10:114|0:134,1,45,0|0,1:0|0:0,0:0:0:0:
61,258,141036,1,8,0:0:0:0:
238,274,141370,6,0,P|198:253|154:242,1,90,0|0,3:0|3:0,0:0:0:0:
61,258,141870,1,0,3:0:0:0:
125,158,142036,1,8,0:0:0:0:
238,274,142370,1,0,3:0:0:0:
238,274,142703,6,0,P|277:253|321:242,1,90,0|0,3:0|0:0,0:0:0:0:
415,253,143203,1,0,3:0:0:0:
512,181,143370,1,0,1:0:0:0:
512,384,143703,2,0,P|502:340|483:299,1,90,8|0,0:0|0:0,0:0:0:0:
337,167,144370,5,0,3:0:0:0:
347,73,144536,1,0,3:0:0:0:
429,195,144703,2,0,P|470:215|513:226,1,90,8|0,0:0|3:0,0:0:0:0:
374,108,145370,6,0,P|333:128|290:139,1,90,0|0,3:0|0:0,0:0:0:0:
211,85,145870,1,0,3:0:0:0:
275,15,146036,2,0,P|287:33|297:53,1,45,0|0,1:0|0:0,0:0:0:0:
260,223,146370,2,0,P|272:177|299:124,2,90,8|0|0,0:0|0:0|3:0,0:0:0:0:
342,352,147370,1,8,0:0:0:0:
213,324,147703,6,0,P|234:316|256:313,1,45,0|0,3:0|0:0,0:0:0:0:
87,362,148036,2,0,P|42:357|3:338,1,90,0|0,3:0|0:0,0:0:0:0:
120,182,148536,2,0,P|93:217|75:258,1,90,0|0,3:0|0:0,0:0:0:0:
201,361,149036,1,8,0:0:0:0:
79,262,149370,5,0,0:0:0:0:
79,262,149703,1,0,3:0:0:0:
98,354,149870,1,0,3:0:0:0:
253,314,150036,2,0,P|210:299|166:292,1,90,8|0,0:0|3:0,0:0:0:0:
425,341,150703,6,0,P|382:356|338:363,1,90,0|0,3:0|0:0,0:0:0:0:
253,314,151203,1,0,3:0:0:0:
313,240,151369,2,0,P|326:258|335:278,1,45,0|0,1:0|0:0,0:0:0:0:
140,258,151703,2,0,P|182:241|225:232,1,90,8|0,0:0|0:0,0:0:0:0:
334,36,152370,5,0,3:0:0:0:
256,89,152536,1,0,3:0:0:0:
173,42,152703,2,0,P|151:44|129:50,1,45,8|0,0:0|0:0,0:0:0:0:
53,105,153036,2,0,P|29:103|9:97,1,45,0|0,3:0|3:0,0:0:0:0:
151,185,153370,6,0,P|146:162|138:142,2,45,0|0|0,3:0|3:0|3:0,0:0:0:0:
93,299,153870,2,0,P|48:291|9:272,1,90,0|0,3:0|0:0,0:0:0:0:
150,372,154370,2,0,P|190:353|234:345,1,90,8|0,0:0|0:0,0:0:0:0:
405,384,155036,5,0,3:0:0:0:
405,384,155203,1,0,3:0:0:0:
345,278,155370,2,0,L|334:329,1,45,8|0,0:0|0:0,0:0:0:0:
424,209,155703,5,2,3:2:0:0:
345,278,155870,1,0,3:0:0:0:
367,129,156036,2,0,P|395:118|451:117,1,67.5000025749208,4|0,0:0|0:0,0:0:0:0:
302,203,156370,2,0,P|268:197|237:183,1,67.5000025749208
77,50,156703,6,0,P|36:48|-1:62,1,80.9999975280763,8|0,0:1|0:0,0:0:0:0:
237,183,157037,2,0,P|230:143|210:108,1,80.9999975280763,2|0,0:0|0:0,0:0:0:0:
239,309,157370,6,0,P|338:273|339:167,1,225,8|0,0:0|0:0,0:0:0:0:
120,260,157870,2,0,B|166:310|160:389,1,135.000005149842,2|0,3:2|0:0,0:0:0:0:
102,244,158370,2,0,P|67:239|31:224,1,72,2|0,3:1|0:0,0:0:0:0:
394,200,158703,6,0,P|305:209|230:258,1,180,4|0,3:1|0:0,0:0:0:0:
123,384,159203,1,2,0:0:0:0:
3,180,159370,2,0,P|24:92|58:9,1,180,10|0,1:2|0:0,0:0:0:0:
273,122,159870,1,0,0:0:0:0:
108,223,160036,6,0,P|139:191|182:178,1,90,2|0,0:1|0:0,0:0:0:0:
86,365,160370,2,0,P|40:357|-9:337,1,90,0|0,3:0|0:0,0:0:0:0:
182,179,160703,2,0,P|208:112|174:49,1,135,8|0,1:2|0:0,0:0:0:0:
119,14,161036,1,0,3:0:0:0:
119,14,161203,1,2,0:0:0:0:
309,12,161370,6,0,B|264:65|183:57,1,139.500001064301,8|0,0:1|0:0,0:0:0:0:
390,156,161870,1,0,3:0:0:0:
425,9,162036,2,0,P|402:36|390:69,1,69.7500005321503,2|0,1:2|0:0,0:0:0:0:
252,133,162370,2,0,P|283:116|318:112,1,69.7500005321503,8|0,0:0|0:0,0:0:0:0:
179,205,162703,5,2,0:3:0:0:
117,142,162870,1,2,0:0:0:0:
135,56,163036,1,2,3:3:0:0:
217,24,163203,1,2,0:0:0:0:
77,148,163370,1,2,3:3:0:0:
35,129,163536,1,2,1:2:0:0:
11,90,163703,1,0,3:0:0:0:
0,361,164036,6,0,P|48:295|128:279,1,166.499999364853,4|0,3:2|0:0,0:0:0:0:
240,384,164536,1,2,0:0:0:0:
364,193,164703,2,0,P|286:206|240:281,1,166.499999364853,10|0,1:2|0:0,0:0:0:0:
451,193,165203,1,0,0:0:0:0:
432,31,165370,6,0,P|404:60|388:101,1,83.2499996824265,2|0,3:2|0:0,0:0:0:0:
451,193,165703,1,0,3:0:0:0:
388,99,165870,1,0,3:0:0:0:
327,324,166036,2,0,P|345:286|375:257,1,83.2499996824265,8|0,1:2|0:0,0:0:0:0:
238,375,166370,2,0,P|196:364|162:339,1,83.2499996824265,0|0,3:0|0:0,0:0:0:0:
22,167,166703,6,0,P|81:203|93:272,1,139.500001064301,8|0,0:1|0:0,0:0:0:0:
29,375,167203,1,0,3:0:0:0:
159,290,167370,2,0,P|130:275|92:268,1,69.7500005321503,2|0,1:2|0:0,0:0:0:0:
325,201,167703,2,0,P|295:217|261:224,1,69.7500005321503,10|0,0:0|0:0,0:0:0:0:
102,154,168036,5,2,0:3:0:0:
179,112,168203,1,2,0:0:0:0:
260,144,168370,1,2,3:3:0:0:
179,112,168536,1,0,3:3:0:0:
70,181,168703,1,2,3:3:0:0:
19,171,168870,1,2,1:2:0:0:
0,123,169036,1,0,3:0:0:0:
437,47,169370,6,0,P|359:74|332:153,1,166.499999364853,4|0,3:2|0:0,0:0:0:0:
442,253,169870,1,2,0:0:0:0:
218,293,170037,2,0,P|297:310|339:393,1,166.499999364853,10|0,1:2|0:0,0:0:0:0:
183,201,170537,1,0,0:0:0:0:
198,31,170703,6,0,P|223:64|234:105,1,83.2499996824265,2|0,0:1|0:0,0:0:0:0:
82,247,171036,2,0,P|40:236|7:210,1,83.2499996824265,0|0,3:0|0:0,0:0:0:0:
264,374,171370,2,0,P|280:304|237:246,1,124.87499952364,8|0,1:2|0:0,0:0:0:0:
193,218,171703,1,0,3:0:0:0:
193,218,171870,1,2,0:0:0:0:
355,320,172036,6,0,B|436:328|481:275,1,139.500001064301,8|0,0:1|0:0,0:0:0:0:
257,261,172537,1,0,3:0:0:0:
362,149,172703,2,0,P|377:179|386:212,1,69.7500005321503,2|0,1:2|0:0,0:0:0:0:
205,154,173036,2,0,P|236:169|269:178,1,69.7500005321503,8|0,0:0|0:0,0:0:0:0:
140,85,173370,5,2,0:3:0:0:
55,103,173537,1,2,0:0:0:0:
13,179,173703,1,2,3:3:0:0:
60,256,173870,1,2,0:0:0:0:
63,66,174036,1,2,3:3:0:0:
47,24,174204,1,2,1:2:0:0:
5,0,174370,1,0,3:0:0:0:
1,341,174703,6,0,P|108:324|140:220,1,222.75000212431,4|0,3:2|3:0,0:0:0:0:
210,114,175370,2,0,P|237:140|257:172,1,74.2500007081032,2|0,1:2|0:0,0:0:0:0:
72,249,175703,2,0,P|108:242|141:225,1,74.2500007081032,8|0,0:0|0:0,0:0:0:0:
341,316,176036,6,0,P|291:288|234:288,1,111.375001062155,8|0,0:1|0:0,0:0:0:0:
172,323,176370,1,0,3:0:0:0:
172,323,176536,1,0,3:0:0:0:
241,175,176703,6,0,P|232:139|213:107,1,74.2500007081032,8|0,1:2|0:0,0:0:0:0:
89,314,177036,2,0,P|92:349|107:383,1,74.2500007081032,0|0,3:0|0:0,0:0:0:0:
370,258,177370,6,0,P|299:279|226:283,1,148.500001416206,0|0,3:0|0:0,0:0:0:0:
157,218,177870,1,0,0:0:0:0:
197,87,178036,2,0,P|215:118|222:152,1,72,2|0,1:2|0:0,0:0:0:0:
29,181,178370,2,0,P|59:162|94:154,1,72,0|2,3:0|0:3,0:0:0:0:
242,243,178703,6,0,P|309:268|380:277,1,144,8|0,0:0|0:0,0:0:0:0:
469,247,179203,1,0,1:0:0:0:
508,161,179370,2,0,L|496:90,2,72,2|0|0,0:0|1:0|0:0,0:0:0:0:
0,249,180036,6,0,P|55:198|129:200,1,153.000002918243,4|0,3:2|0:0,0:0:0:0:
252,338,180536,2,0,P|326:340|382:289,1,153.000002918243,2|0,0:0|0:0,0:0:0:0:
396,115,181036,2,0,P|376:144|367:178,1,72,0|0,3:0|0:0,0:0:0:0:
385,292,181370,1,8,0:0:0:0:
385,292,181703,5,0,0:0:0:0:
482,278,181870,1,0,3:2:0:0:
499,144,182036,5,2,0:0:0:0:
404,152,182203,1,0,1:0:0:0:
334,87,182370,2,0,P|335:53|346:21,1,67.5000025749208,0|0,3:0|0:0,0:0:0:0:
148,180,182703,6,0,P|200:218|265:206,1,135.000005149842,2|0,3:2|0:0,0:0:0:0:
334,87,183203,1,2,3:0:0:0:
445,162,183370,2,0,P|459:192|464:225,1,67.5000025749208,0|0,1:0|0:0,0:0:0:0:
334,87,183703,2,0,P|338:53|353:23,1,67.5000025749208,2|0,0:3|0:0,0:0:0:0:
121,70,184036,6,0,P|181:99|247:109,1,135.000005149842,2|0,3:1|0:0,0:0:0:0:
410,75,184536,2,0,P|439:57|470:47,1,67.5000025749208,2|2,3:0|0:0,0:0:0:0:
381,167,184870,1,0,0:0:0:0:
248,109,185036,2,0,P|218:92|186:83,1,67.5000025749208,2|0,1:3|0:0,0:0:0:0:
0,243,185370,6,0,P|66:238|116:195,1,135.000005149842,4|0,3:2|0:0,0:0:0:0:
232,378,185870,2,0,P|165:373|115:330,1,135.000005149842,0|0,1:0|0:0,0:0:0:0:
32,143,186370,2,0,P|38:109|55:80,1,67.5000025749208,0|0,3:0|0:0,0:0:0:0:
133,214,186703,1,8,1:2:0:0:
133,214,187036,5,0,0:0:0:0:
137,309,187203,1,0,3:0:0:0:
213,368,187370,2,0,P|243:354|276:345,1,67.5000025749208,2|0,0:0|1:0,0:0:0:0:
136,309,187703,2,0,P|103:303|73:287,1,67.5000025749208,0|0,3:0|0:0,0:0:0:0:
58,49,188036,6,0,P|32:111|20:177,1,135.000005149842,2|0,3:2|0:0,0:0:0:0:
73,287,188536,1,2,0:3:0:0:
224,224,188703,2,0,P|194:207|161:198,1,67.5000025749208,0|0,1:0|3:0,0:0:0:0:
431,136,189036,6,0,P|400:151|367:158,1,67.5000025749208,2|0,0:3|0:0,0:0:0:0:
264,5,189370,2,0,P|249:35|241:68,1,67.5000025749208,0|2,3:0|0:0,0:0:0:0:
271,156,189703,1,0,1:0:0:0:
367,157,189870,1,0,3:0:0:0:
242,68,190036,2,0,P|210:57|176:54,1,67.5000025749208,2|0,0:3|0:0,0:0:0:0:
30,152,190370,2,0,P|63:149|96:139,1,67.5000025749208,0|0,1:0|0:0,0:0:0:0:
242,68,190703,5,4,3:2:0:0:
332,68,190870,1,0,0:0:0:0:
242,224,191036,1,0,0:0:0:0:
195,144,191203,1,0,0:0:0:0:
377,144,191370,5,0,1:0:0:0:
457,189,191536,1,2,0:0:0:0:
410,274,191703,1,0,3:0:0:0:
332,224,191870,1,2,0:3:0:0:
207,340,192036,5,8,3:2:0:0:
287,367,192203,1,2,0:0:0:0:
343,308,192370,1,0,0:0:0:0:
331,225,192536,1,2,0:0:0:0:
207,340,192703,5,2,0:3:0:0:
220,323,192870,1,0,0:0:0:0:
238,313,193036,1,0,1:1:0:0:
258,306,193203,1,0,0:0:0:0:
110,352,193370,5,2,3:1:0:0:
37,327,193537,1,0,0:0:0:0:
39,247,193704,1,0,0:0:0:0:
115,222,193871,1,0,0:0:0:0:
191,121,194037,5,0,1:0:0:0:
70,97,194204,1,2,0:0:0:0:
115,222,194370,1,0,3:3:0:0:
191,121,194537,1,2,0:3:0:0:
145,0,194703,5,8,3:2:0:0:
70,97,194870,1,2,0:0:0:0:
191,121,195036,1,0,0:3:0:0:
265,29,195203,1,2,0:0:0:0:
330,131,195370,5,2,3:3:0:0:
455,135,195536,1,0,0:0:0:0:
265,29,195703,1,2,1:2:0:0:
279,242,195870,1,2,0:3:0:0:
279,242,196036,6,0,P|250:303|234:368,1,135.000005149842,4|0,3:2|0:3,0:0:0:0:
150,299,196536,1,0,0:0:0:0:
180,129,196703,2,0,P|194:157|204:189,1,67.5000025749208,8|0,0:0|0:0,0:0:0:0:
150,299,197036,1,0,0:0:0:0:
204,191,197203,1,0,0:0:0:0:
456,243,197370,6,0,P|393:270|327:284,1,135.000005149842,2|0,0:1|0:0,0:0:0:0:
204,191,197870,1,0,3:0:0:0:
19,238,198036,2,0,P|53:245|83:258,1,67.5000025749208,8|0,0:0|0:0,0:0:0:0:
199,358,198370,1,2,0:0:0:0:
328,283,198536,1,0,1:0:0:0:
243,63,198703,6,0,P|214:124|203:191,1,135.000005149842,8|0,0:1|0:0,0:0:0:0:
328,283,199203,1,0,3:0:0:0:
135,379,199370,2,0,P|165:364|198:358,1,67.5000025749208,8|0,0:0|0:0,0:0:0:0:
392,302,199703,2,0,P|358:295|327:282,1,67.5000025749208,0|0,3:0|0:0,0:0:0:0:
493,230,200036,1,2,0:0:0:0:
476,2,200203,6,0,P|499:63|512:130,1,135.000005149842,0|0,1:0|3:0,0:0:0:0:
378,233,200703,1,2,0:3:0:0:
415,143,200870,1,2,0:0:0:0:
512,131,201036,1,0,0:0:0:0:
206,384,201370,6,0,P|198:310|173:241,1,148.500001416206,4|0,3:1|0:0,0:0:0:0:
0,283,201870,2,0,P|23:349|93:354,1,148.500001416206,2|0,3:2|0:0,0:0:0:0:
240,268,202370,2,0,P|207:249|172:240,1,74.2500007081032,2|0,0:0|0:0,0:0:0:0:
437,375,202703,6,0,P|364:373|323:312,1,153.000002918243,8|0,0:0|0:0,0:0:0:0:
512,230,203203,2,0,P|476:297|454:370,1,153.000002918243,2|0,1:2|0:0,0:0:0:0:
358,172,203703,2,0,P|383:219|399:270,1,76.5000014591217,2|0,3:2|0:0,0:0:0:0:
512,10,204036,6,0,P|460:66|383:72,1,157.500001502037,8|0,3:1|0:3,0:0:0:0:
155,0,204536,2,0,P|232:6|284:63,1,157.500001502037,2|0,3:2|0:3,0:0:0:0:
148,183,205036,2,0,P|159:145|180:112,1,78.7500007510185,2|0,0:1|0:0,0:0:0:0:
324,384,205370,6,0,P|295:308|237:252,1,161.999995056153,8|0,3:2|0:3,0:0:0:0:
512,157,205870,2,0,P|450:209|416:282,1,161.999995056153,2|0,1:2|0:3,0:0:0:0:
238,252,206370,2,0,P|270:277|297:319,1,80.9999975280763
0,258,206703,6,0,P|77:249|140:204,1,157.500001502037,4|0,3:2|0:0,0:0:0:0:
329,179,207203,2,0,P|286:115|213:129,1,153.000002918243,2|0,3:2|0:0,0:0:0:0:
330,266,207703,2,0,P|366:261|400:245,1,74.2500007081032,2|0,0:0|0:0,0:0:0:0:
512,115,208036,6,0,P|501:79|485:46,2,74.2500007081032,8|2|2,3:2|0:0|0:0,0:0:0:0:
426,175,208536,2,0,P|410:208|400:243,2,74.2500007081032,8|2|2,3:2|0:0|0:0,0:0:0:0:
335,56,209036,2,0,P|369:70|405:78,1,74.2500007081032,8|2,3:2|0:0,0:0:0:0:
135,154,209370,6,0,P|185:98|260:91,1,153.000002918243,8|0,3:1|0:0,0:0:0:0:
0,63,209871,2,0,P|42:130|63:206,1,157.500001502037,2|0,3:2|0:0,0:0:0:0:
234,265,210371,2,0,P|199:245|156:235,1,78.7500007510185,2|0,0:0|0:0,0:0:0:0:
470,340,210704,6,0,P|395:370|307:385,1,161.999995056153,8|0,3:2|0:0,0:0:0:0:
483,204,211202,2,0,P|397:223|384:320,1,161.999995056153,2|0,1:2|0:0,0:0:0:0:
512,78,211703,2,0,P|508:37|495:-1,1,80.9999975280763,2|0,1:2|0:0,0:0:0:0:
270,315,212036,6,0,B|300:230|254:151|146:119|117:183|58:160|58:160|110:194|89:240|163:269,1,485.999985168458,2|0,3:1|0:0,0:0:0:0:
325,163,213203,5,2,0:0:0:0:
325,163,213287,1,2,0:0:0:0:
325,163,213370,2,0,B|294:78|340:-1|448:-33|477:31|537:8|537:8|484:42|505:88|431:117,1,485.999985168458,8|0,0:1|0:0,0:0:0:0:
431,116,214703,6,0,L|439:206,1,90,2|0,0:0|1:0,0:0:0:0:
438,205,215703,1,2,0:0:0:0:
358,118,216036,2,0,L|266:107,1,90,2|2,0:1|0:0,0:0:0:0:
397,49,217036,1,2,0:0:0:0:
436,118,217369,6,0,L|425:253,1,135,2|0,0:0|0:0,0:0:0:0:
318,245,218703,2,0,P|378:283|427:248,1,135,2|0,0:0|0:0,0:0:0:0:
348,156,220036,6,0,L|255:168,1,90,2|0,0:0|1:0,0:0:0:0:
205,238,221036,1,2,0:0:0:0:
259,168,221370,2,0,L|253:123,1,45,2|0,0:1|0:0,0:0:0:0:
339,206,222036,2,0,P|371:213|402:228,1,67.5,2|0,0:0|0:0,0:0:0:0:
339,206,222703,6,0,P|405:193|466:164,1,135,2|2,0:0|0:0,0:0:0:0:
414,50,224036,1,2,0:1:0:0:
392,50,224370,1,2,0:0:0:0:
379,67,224703,1,2,1:2:0:0:
383,89,225036,1,2,0:0:0:0:
502,81,225370,6,0,P|485:135|475:204,1,125.999996154785,10|0,1:2|1:0,0:0:0:0:
512,303,226370,1,2,0:0:0:0:
440,375,226703,2,0,P|394:370|348:356,1,94.499997116089,2|0,0:0|0:0,0:0:0:0:
262,337,227370,2,0,P|293:327|324:324,1,62.9999980773926,2|0,0:1|0:0,0:0:0:0:
146,272,228036,6,0,P|158:302|164:332,1,62.9999980773926,2|0,0:0|1:0,0:0:0:0:
40,224,228703,2,0,P|28:254|22:284,1,62.9999980773926,2|0,0:0|1:0,0:0:0:0:
140,147,229370,1,2,0:1:0:0:
140,147,230036,5,0,1:0:0:0:
55,199,230370,2,0,L|9:187,1,45,2|0,0:0|0:0,0:0:0:0:
130,315,230703,5,8,0:0:0:0:
256,192,230786,12,4,232370,0:0:0:0:
341,298,233370,6,0,L|328:233,1,62.9999980773926,0|0,1:0|0:0,0:0:0:0:
375,323,233870,1,0,1:0:0:0:
375,323,234036,2,0,L|362:384,1,62.9999980773926,0|0,1:0|0:0,0:0:0:0:
328,236,234703,5,2,0:0:0:0:
452,384,235203,1,2,0:0:0:0:
512,277,235703,1,2,0:0:0:0:
375,331,236036,6,0,P|335:316|269:313,1,90,2|0,0:1|0:0,0:0:0:0:
131,293,236703,2,0,P|181:286|222:266,1,90,2|0,0:0|0:0,0:0:0:0:
154,208,237203,1,2,0:0:0:0:
154,208,237370,1,2,0:0:0:0:
199,360,237703,1,2,0:0:0:0:
0,335,238036,2,0,P|42:316|86:311,1,90,2|0,0:0|0:0,0:0:0:0:
199,360,238703,6,0,P|240:379|284:384,1,90,2|0,0:0|0:0,0:0:0:0:
396,298,239203,2,0,P|339:299|366:350,1,135,2|0,0:0|0:0,0:0:0:0:
364,349,240036,2,0,B|416:375|442:324|502:345,1,135.000005149842,2|0,0:0|0:0,0:0:0:0:
495,342,241036,1,2,0:0:0:0:
399,263,241370,6,0,P|407:218|426:178,1,90,2|0,0:1|0:0,0:0:0:0:
318,28,242036,2,0,P|337:68|345:112,1,90,2|0,0:0|0:0,0:0:0:0:
307,191,242537,1,2,0:0:0:0:
307,191,242704,1,2,0:0:0:0:
437,122,243036,1,2,0:0:0:0:
345,112,243203,2,0,P|284:81|219:64,1,135,2|0,0:0|0:0,0:0:0:0:
459,37,244036,6,0,B|525:131|461:198|394:206|387:203|381:198|242:280|351:409|463:444|562:317|501:238,1,566.999982696534,0|0,0:1|0:0,0:0:0:0:
437,280,246703,5,2,0:1:0:0:
391,147,247370,1,2,0:0:0:0:
437,280,247703,1,2,0:0:0:0:
454,199,247870,1,2,0:0:0:0:
391,147,248036,2,0,P|348:131|304:127,1,90,2|0,0:0|0:0,0:0:0:0:
141,267,248703,2,0,P|185:262|227:247,1,90,2|0,0:0|0:0,0:0:0:0:
332,42,249370,6,0,P|314:83|305:127,1,90,2|0,0:0|0:0,0:0:0:0:
205,77,249870,2,0,P|266:78|282:141,1,135,2|0,0:0|0:0,0:0:0:0:
283,141,250703,2,0,B|231:167|205:116|145:137,1,135.000005149842,2|0,0:0|0:0,0:0:0:0:
151,134,251703,1,2,0:0:0:0:
38,87,252036,6,0,P|44:40|60:-3,2,90,2|0|0,3:1|0:0|0:0,0:0:0:0:
124,186,253036,1,2,0:0:0:0:
0,313,253370,2,0,P|44:307|88:296,1,90,2|0,0:0|0:0,0:0:0:0:
189,384,253870,1,2,0:0:0:0:
189,384,254036,2,0,P|196:351|235:296,1,90,2|0,0:0|0:0,0:0:0:0:
411,349,254703,5,2,0:0:0:0:
256,192,254786,12,0,255870,0:0:0:0:
157,221,256036,6,0,P|114:208|81:177,1,90,8|0,3:2|0:0,0:0:0:0:
228,384,256536,2,0,B|227:300|273:250,1,144,2|0,3:2|0:0,0:0:0:0:
431,267,257036,2,0,P|396:272|363:286,1,72,2|0,3:1|0:0,0:0:0:0:
314,0,257370,6,0,P|374:77|387:174,1,188.999994232178,4|0,3:1|0:0,0:0:0:0:
468,13,257870,1,2,0:0:0:0:
227,76,258036,2,0,P|157:65|95:31,1,141.749995674133,10|0,1:2|0:0,0:0:0:0:
75,12,258370,1,0,0:0:0:0:
235,174,258536,1,2,0:0:0:0:
108,324,258703,6,0,P|115:277|139:237,1,94.499997116089,2|0,0:1|0:0,0:0:0:0:
354,289,259037,2,0,P|312:309|265:310,1,94.499997116089,0|0,3:0|0:0,0:0:0:0:
512,294,259370,2,0,P|513:224|471:169,1,141.749995674133,8|0,1:2|0:0,0:0:0:0:
383,145,259703,1,0,3:0:0:0:
383,145,259870,1,2,0:0:0:0:
193,167,260037,6,0,B|248:222|326:213,1,144,8|0,0:1|0:0,0:0:0:0:
483,56,260537,1,0,3:0:0:0:
314,67,260703,2,0,P|293:96|281:130,1,72,2|0,1:2|0:0,0:0:0:0:
136,30,261037,2,0,P|166:13|202:6,1,72,8|0,0:0|0:0,0:0:0:0:
85,129,261370,5,2,0:3:0:0:
30,39,261537,1,2,0:0:0:0:
192,113,261703,1,2,0:0:0:0:
52,227,261870,1,2,0:3:0:0:
85,129,262037,1,2,3:3:0:0:
158,202,262203,1,2,1:2:0:0:
0,151,262370,1,0,3:0:0:0:
225,139,262536,1,0,1:0:0:0:
225,139,262620,1,0,1:0:0:0:
225,139,262703,6,0,P|267:208|270:299,1,170.999995433807,4|0,3:2|0:0,0:0:0:0:
143,384,263203,1,2,0:0:0:0:
387,326,263370,2,0,P|332:293|269:295,1,128.249996575356,10|0,1:2|0:0,0:0:0:0:
246,309,263703,1,0,0:0:0:0:
50,206,263870,1,0,0:0:0:0:
176,68,264037,6,0,P|195:105|201:147,1,85.4999977169037,2|0,3:2|0:0,0:0:0:0:
137,276,264370,1,0,3:0:0:0:
201,148,264536,1,0,3:0:0:0:
443,148,264703,2,0,P|408:123|367:113,1,85.4999977169037,8|0,1:2|0:0,0:0:0:0:
131,68,265037,2,0,P|169:49|212:45,1,85.4999977169037,0|0,3:0|0:0,0:0:0:0:
88,271,265370,6,0,P|74:201|35:141,1,144,8|0,0:1|0:0,0:0:0:0:
84,10,265870,1,0,3:0:0:0:
235,80,266036,2,0,P|203:95|167:99,1,72,2|0,1:2|0:0,0:0:0:0:
373,1,266370,2,0,P|348:25|331:57,1,72,10|0,0:0|0:0,0:0:0:0:
500,129,266703,5,2,0:3:0:0:
418,69,266870,1,2,0:0:0:0:
297,183,267036,1,2,3:3:0:0:
479,265,267203,1,0,3:3:0:0:
411,161,267370,1,2,3:3:0:0:
353,269,267537,1,2,1:2:0:0:
325,89,267703,1,0,3:0:0:0:
163,320,267870,1,0,1:0:0:0:
163,320,267953,1,0,1:0:0:0:
163,320,268037,6,0,P|216:256|306:246,1,170.999995433807,4|0,3:2|0:0,0:0:0:0:
451,293,268537,1,2,0:0:0:0:
480,46,268704,2,0,P|428:82|407:145,1,128.249996575356,10|0,1:2|0:0,0:0:0:0:
418,172,269036,1,0,0:0:0:0:
287,349,269204,1,0,0:0:0:0:
168,150,269370,6,0,P|204:129|251:124,1,85.4999977169037,2|0,0:1|0:0,0:0:0:0:
417,286,269703,2,0,P|374:283|336:264,1,85.4999977169037,0|0,3:0|0:0,0:0:0:0:
294,8,270036,2,0,P|258:61|247:127,1,128.249996575356,8|0,1:2|0:0,0:0:0:0:
257,220,270370,1,0,3:0:0:0:
257,220,270537,1,2,0:0:0:0:
410,361,270703,6,0,B|365:308|279:315,1,144,8|0,0:1|0:0,0:0:0:0:
72,384,271204,1,0,3:0:0:0:
132,213,271370,2,0,P|149:247|156:284,1,72,2|0,1:2|0:0,0:0:0:0:
61,89,271703,2,0,P|41:120|29:157,1,72,8|0,0:0|0:0,0:0:0:0:
191,72,272036,5,2,0:3:0:0:
121,0,272203,1,2,0:0:0:0:
177,174,272370,1,2,3:3:0:0:
346,111,272536,1,0,3:3:0:0:
247,95,272703,1,2,3:3:0:0:
283,192,272870,1,2,1:2:0:0:
404,0,273036,1,0,3:0:0:0:
390,210,273203,1,0,1:0:0:0:
390,210,273286,1,0,1:0:0:0:
390,210,273370,6,0,P|283:199|252:82,1,229.500004377365,4|0,3:2|3:0,0:0:0:0:
56,20,274037,2,0,P|91:4|128:0,1,76.5000014591217,2|0,1:2|0:0,0:0:0:0:
27,212,274370,2,0,P|6:180|0:142,1,76.5000014591217,8|0,0:0|0:0,0:0:0:0:
224,296,274703,6,0,P|171:273|114:271,1,114.750002188683,8|0,0:1|0:0,0:0:0:0:
37,319,275037,1,0,3:0:0:0:
37,319,275203,1,0,3:0:0:0:
121,98,275370,6,0,P|138:130|142:168,1,76.5000014591217,8|0,1:2|0:0,0:0:0:0:
374,206,275703,2,0,P|383:169|405:138,1,76.5000014591217,0|0,3:0|0:0,0:0:0:0:
312,334,276037,5,2,0:0:0:0:
406,139,276203,2,0,P|391:63|351:0,1,153.000002918243,0|0,3:0|3:0,0:0:0:0:
512,130,276703,2,0,P|478:196|467:269,1,148.500001416206,0|0,3:0|0:0,0:0:0:0:
512,384,277203,1,2,0:3:0:0:
388,287,277370,5,8,0:0:0:0:
283,260,277537,1,0,3:0:0:0:
184,299,277703,1,2,0:3:0:0:
415,189,277870,5,8,0:0:0:0:
294,232,278037,1,0,3:0:0:0:
187,153,278203,1,2,0:3:0:0:
0,272,278370,5,0,3:0:0:0:
118,254,278536,1,0,1:0:0:0:
187,153,278703,6,0,P|186:92|122:20,1,135.000005149842,4|0,3:2|0:0,0:0:0:0:
139,277,279203,1,0,1:0:0:0:
139,277,279369,2,0,P|201:254|268:238,1,135.000005149842,2|0,0:0|0:0,0:0:0:0:
422,376,280036,2,0,P|356:361|292:337,1,125.999996154785,2|0,0:0|0:0,0:0:0:0:
512,293,280703,1,0,0:0:0:0:
444,311,280870,1,0,0:0:0:0:
422,376,281036,1,0,0:0:0:0:
291,88,281370,5,2,3:2:0:0:
382,111,281536,2,0,P|408:163|430:231,1,116.999994644165,2|0,0:0|0:0,0:0:0:0:
451,51,282203,5,2,0:0:0:0:
382,111,282370,1,0,1:0:0:0:
291,88,282536,1,2,0:0:0:0:
252,3,282703,2,0,P|137:8|134:107,1,233.999989288331,2|2,3:2|0:0,0:0:0:0:
132,105,283703,1,0,1:0:0:0:
99,265,284036,6,0,P|58:236|0:226,1,107.999996704102,2|0,3:1|0:0,0:0:0:0:
190,299,284536,2,0,P|150:338|128:386,1,107.999996704102
272,256,285036,2,0,B|338:234|386:261|386:261|434:286|503:265,1,215.999993408203,2|0,0:0|1:0,0:0:0:0:
482,271,286036,5,2,0:0:0:0:
435,198,286203,1,0,1:0:0:0:
466,117,286370,1,0,0:0:0:0:
318,71,286703,6,0,P|371:61|421:42,1,107.999996704102,2|0,3:2|0:0,0:0:0:0:
394,222,287203,2,0,P|355:184|310:154,1,107.999996704102,2|0,0:0|1:0,0:0:0:0:
235,110,287703,1,2,0:0:0:0:
151,133,287870,1,0,0:0:0:0:
1,56,288037,5,10,3:2:0:0:
1,56,288537,1,0,1:0:0:0:
41,137,288703,2,0,P|59:187|69:240,1,107.999996704102,2|0,0:0|0:0,0:0:0:0:
183,14,289369,5,8,0:2:0:0:
183,14,289702,1,0,0:0:0:0:
125,83,289869,1,0,0:0:0:0:
155,164,290037,2,0,P|204:184|262:189,1,107.999996704102,2|0,0:0|0:0,0:0:0:0:
74,335,290703,2,0,P|124:314|178:310,1,107.999996704102,2|0,0:0|0:0,0:0:0:0:
363,384,291370,1,2,0:0:0:0:
290,377,291536,1,0,1:0:0:0:
258,314,291703,1,0,0:0:0:0:
512,293,292036,6,0,P|459:299|407:315,1,107.999996704102,0|0,1:0|0:0,0:0:0:0:
425,120,292536,2,0,P|450:166|462:223,1,107.999996704102,0|2,1:0|0:0,0:0:0:0:
498,58,293036,1,2,0:0:0:0:
425,120,293203,1,0,1:0:0:0:
330,94,293370,6,0,P|278:79|224:79,1,107.999996704102,2|0,0:0|0:0,0:0:0:0:
159,146,293870,1,0,1:0:0:0:
0,88,294037,1,2,0:0:0:0:
64,170,294204,1,2,0:0:0:0:
104,68,294370,1,0,1:0:0:0:
109,293,294704,6,0,P|98:226|62:169,1,135.000005149842,2|0,0:1|0:0,0:0:0:0:
18,321,295204,1,0,0:0:0:0:
98,380,295370,2,0,P|147:357|200:349,1,107.999996704102,2|2,0:0|0:0,0:0:0:0:
153,208,296370,5,2,0:0:0:0:
130,294,296536,1,0,1:0:0:0:
200,349,296703,1,0,0:0:0:0:
193,30,297370,6,0,P|214:81|216:134,1,107.999996704102,2|0,0:0|0:0,0:0:0:0:
397,88,297870,2,0,P|342:86|293:65,1,107.999996704102,2|0,0:0|0:0,0:0:0:0:
196,34,298370,1,0,1:0:0:0:
196,34,298703,2,0,P|141:36|92:57,1,107.999996704102,2|0,0:0|1:0,0:0:0:0:
217,127,299203,1,2,0:0:0:0:
217,127,299370,2,0,P|238:176|250:229,1,107.999996704102,2|0,0:0|0:0,0:0:0:0:
197,351,300036,5,2,0:1:0:0:
197,351,300370,2,0,B|258:332|302:355|302:355|350:376|405:357,1,202.500007724762,2|0,0:0|0:0,0:0:0:0:
481,322,301703,1,2,0:0:0:0:
426,245,302036,2,0,L|433:143,1,101.250003862381,2|0,0:0|0:0,0:0:0:0:
439,71,302703,5,2,0:1:0:0:
439,71,303036,2,0,B|398:79|359:64|359:64|336:76|336:76|304:53|236:66,1,202.500007724762,2|0,0:0|0:0,0:0:0:0:
31,14,304370,2,0,P|66:6|105:6,1,67.5000025749208,2|0,0:0|0:0,0:0:0:0:
110,252,305036,5,2,1:2:0:0:
93,169,305203,1,0,3:2:0:0:
77,87,305370,1,4,0:2:0:0:
256,192,305453,12,0,310703,0:0:0:0:
