osu file format v14

[General]
AudioFilename: audio.mp3
AudioLeadIn: 0
PreviewTime: 125562
Countdown: 0
SampleSet: Soft
StackLeniency: 0.4
Mode: 0
LetterboxInBreaks: 0
WidescreenStoryboard: 1

[Editor]
Bookmarks: 11760,153333,159401,192434,197828,203221,208614,250075
DistanceSpacing: 1.3
BeatDivisor: 4
GridSize: 32
TimelineZoom: 1.400001

[Metadata]
Title:Sabaku no Santa Maria
TitleUnicode:砂漠のサンタマリア
Artist:Ceui
ArtistUnicode:Ceui
Creator:gazimal
Version:Satellite's Hard
Source:
Tags:ガブリエル・コード -エデンへ導く光の楽譜 japanese j-pop gabriel code eden e michibiku hikari no gakufu shizuku- shikibe mayu kazato asa satellite pop of the desert
BeatmapID:3204972
BeatmapSetID:1569478

[Difficulty]
HPDrainRate:5
CircleSize:3.8
OverallDifficulty:6
ApproachRate:8
SliderMultiplier:1.4
SliderTickRate:1

[Events]
//Background and Video events
0,0,"BG.png",0,0
//Break Periods
2,153533,158651
2,192634,197078
2,203421,207864
//Storyboard Layer 0 (Background)
//Storyboard Layer 1 (Fail)
//Storyboard Layer 2 (Pass)
//Storyboard Layer 3 (Foreground)
//Storyboard Layer 4 (Overlay)
//Storyboard Sound Samples

[TimingPoints]
-374,337.078651685393,4,2,1,100,1,0
11760,-133.333333333333,4,2,2,60,0,0
12013,-133.333333333333,4,2,2,5,0,0
12097,-133.333333333333,4,2,2,60,0,0
12687,-133.333333333333,4,2,2,5,0,0
12772,-133.333333333333,4,2,2,60,0,0
13024,-133.333333333333,4,2,2,5,0,0
13109,-133.333333333333,4,2,2,60,0,0
14710,-133.333333333333,4,2,2,5,0,0
14794,-133.333333333333,4,2,2,60,0,0
15047,-133.333333333333,4,2,2,5,0,0
15131,-133.333333333333,4,2,2,60,0,0
15384,-133.333333333333,4,2,2,5,0,0
15468,-133.333333333333,4,2,2,60,0,0
15805,-133.333333333333,4,2,1,60,0,0
15890,-133.333333333333,4,2,1,5,0,0
15974,-133.333333333333,4,2,2,60,0,0
16479,-133.333333333333,4,2,1,60,0,0
16817,-133.333333333333,4,2,2,60,0,0
17406,-133.333333333333,4,2,2,5,0,0
17491,-133.333333333333,4,2,2,60,0,0
17996,-133.333333333333,4,2,3,60,0,0
18418,-100,4,2,4,5,0,0
18502,-133.333333333333,4,2,2,60,0,0
19176,-133.333333333333,4,2,1,60,0,0
19513,-133.333333333333,4,2,3,60,0,0
19850,-133.333333333333,4,2,2,60,0,0
20103,-133.333333333333,4,2,2,5,0,0
20187,-133.333333333333,4,2,2,60,0,0
20440,-133.333333333333,4,2,2,5,0,0
20524,-133.333333333333,4,2,2,60,0,0
20777,-133.333333333333,4,2,2,5,0,0
20861,-133.333333333333,4,2,3,60,0,0
21367,-133.333333333333,4,2,2,60,0,0
21536,-133.333333333333,4,2,4,60,0,0
22041,-133.333333333333,4,2,1,60,0,0
22547,-100,4,2,1,60,0,0
22715,-100,4,2,3,60,0,0
22884,-100,4,2,1,60,0,0
23052,-100,4,2,3,60,0,0
23221,-100,4,2,1,60,0,0
23390,-100,4,2,3,60,0,0
23559,-100,4,2,1,60,0,0
23727,-100,4,2,3,60,0,0
23896,-100,4,2,1,60,0,0
24064,-100,4,2,3,60,0,0
24233,-100,4,2,1,60,0,0
24401,-100,4,2,3,60,0,0
24570,-100,4,2,1,60,0,0
24738,-100,4,2,3,60,0,0
24907,-100,4,2,1,60,0,0
25412,-100,4,2,3,60,0,0
25581,-100,4,2,1,60,0,0
26002,-100,4,2,1,5,0,0
26086,-100,4,2,1,60,0,0
26676,-100,4,2,1,5,0,0
26760,-100,4,2,1,60,0,0
27350,-100,4,2,1,5,0,0
27434,-100,4,2,1,60,0,0
28109,-100,4,2,5,60,0,0
28277,-100,4,2,1,60,0,0
28446,-100,4,2,5,60,0,0
28530,-100,4,2,3,60,0,0
28614,-100,4,2,1,60,0,0
28783,-100,4,2,5,60,0,0
28867,-100,4,2,3,60,0,0
28951,-100,4,2,1,60,0,0
29120,-100,4,2,5,60,0,0
29204,-100,4,2,3,60,0,0
29288,-100,4,2,1,60,0,0
29457,-100,4,2,5,60,0,0
29541,-100,4,2,3,60,0,0
29625,-100,4,2,1,60,0,0
29794,-100,4,2,5,60,0,0
29878,-100,4,2,3,60,0,0
29962,-100,4,2,1,60,0,0
30805,-100,4,2,5,60,0,0
30889,-100,4,2,3,60,0,0
30973,-100,4,2,1,60,0,0
31395,-100,4,2,1,5,0,0
31479,-100,4,2,1,60,0,0
32069,-100,4,2,1,5,0,0
32154,-100,4,2,1,60,0,0
32743,-100,4,2,1,5,0,0
32828,-100,4,2,1,60,0,0
33333,-100,4,2,4,60,0,0
34260,-100,4,2,4,5,0,0
34345,-100,4,2,4,60,0,0
34766,-100,4,2,4,5,0,0
34851,-100,4,2,4,60,0,0
36199,-100,4,2,3,60,0,0
37547,-100,4,2,4,60,0,0
38642,-100,4,2,4,5,0,0
38727,-100,4,2,4,60,0,0
39654,-100,4,2,4,5,0,0
39738,-100,4,2,4,60,0,0
40159,-100,4,2,4,5,0,0
40243,-100,4,2,4,60,0,0
41170,-100,4,2,3,60,0,0
43783,-100,4,2,4,60,0,0
44036,-100,4,2,4,5,0,0
44120,-100,4,2,4,60,0,0
46142,-100,4,2,1,60,0,0
46227,-100,4,2,3,60,0,0
46311,-100,4,2,1,60,0,0
46395,-100,4,2,3,60,0,0
46479,-100,4,2,1,60,0,0
46564,-100,4,2,3,60,0,0
46648,-100,4,2,1,60,0,0
46732,-100,4,2,3,60,0,0
46817,-100,4,2,4,60,0,0
48249,-100,4,2,4,5,0,0
48333,-100,4,2,4,60,0,0
49176,-100,4,2,3,60,0,0
49513,-100,4,2,4,60,0,0
50440,-100,4,2,4,5,0,0
50524,-100,4,2,4,60,0,0
50946,-100,4,2,4,5,0,0
51030,-100,4,2,4,60,0,0
51788,-100,4,2,4,5,0,0
51873,-100,4,2,4,60,0,0
52378,-100,4,2,3,60,0,0
53221,-100,4,2,4,60,0,0
54317,-100,4,2,4,5,0,0
54401,-100,4,2,4,60,0,0
54822,-100,4,2,4,5,0,0
54906,-100,4,2,4,60,0,0
55159,-100,4,2,4,5,0,0
55243,-100,4,2,4,60,0,0
55496,-100,4,2,4,5,0,0
55581,-100,4,2,4,60,0,0
57519,-100,4,2,4,5,0,0
57603,-100,4,2,4,70,0,0
59204,-100,4,2,4,5,0,0
59288,-100,4,2,4,70,0,0
59878,-100,4,2,4,5,0,0
59963,-100,4,2,4,70,0,0
60131,-100,4,2,3,70,0,0
60300,-100,4,2,4,60,0,0
60552,-100,4,2,4,5,0,0
60637,-100,4,2,4,60,0,0
63249,-100,4,2,4,5,0,0
63333,-100,4,2,4,60,0,0
63755,-100,4,2,4,5,0,0
63839,-100,4,2,4,60,0,0
64260,-100,4,2,4,5,0,0
64345,-100,4,2,4,60,0,0
64766,-100,4,2,4,5,0,0
64850,-100,4,2,4,60,0,0
65272,-100,4,2,4,5,0,0
65356,-100,4,2,4,60,0,0
67041,-100,4,2,3,60,0,0
67378,-100,4,2,4,60,0,0
68390,-90.9090909090909,4,2,4,80,0,0
68642,-90.9090909090909,4,2,4,5,0,0
68727,-90.9090909090909,4,2,4,80,0,0
69317,-90.9090909090909,4,2,4,5,0,0
69401,-90.9090909090909,4,2,4,80,0,0
69654,-100,4,2,4,5,0,0
69738,-90.9090909090909,4,2,4,80,0,0
70665,-100,4,2,4,5,0,0
70749,-90.9090909090909,4,2,4,80,0,0
70918,-90.9090909090909,4,2,3,80,0,0
71086,-90.9090909090909,4,2,4,80,0,0
71339,-90.9090909090909,4,2,4,5,0,0
71423,-90.9090909090909,4,2,4,80,0,0
71676,-90.9090909090909,4,2,4,5,0,0
71760,-90.9090909090909,4,2,4,80,0,0
72013,-90.9090909090909,4,2,4,5,0,0
72097,-90.9090909090909,4,2,4,80,0,0
74036,-90.9090909090909,4,2,4,5,0,0
74121,-90.9090909090909,4,2,4,80,0,0
74710,-90.9090909090909,4,2,4,5,0,0
74794,-90.9090909090909,4,2,4,80,0,0
75047,-100,4,2,4,5,0,0
75131,-90.9090909090909,4,2,4,80,0,0
76058,-90.9090909090909,4,2,4,5,0,0
76142,-90.9090909090909,4,2,4,80,0,0
76311,-90.9090909090909,4,2,3,80,0,0
76479,-90.9090909090909,4,2,4,80,0,0
76732,-90.9090909090909,4,2,4,5,0,0
76817,-90.9090909090909,4,2,4,80,0,0
77069,-100,4,2,4,5,0,0
77154,-90.9090909090909,4,2,4,80,0,0
77406,-90.9090909090909,4,2,4,5,0,0
77491,-90.9090909090909,4,2,4,80,0,0
79429,-90.9090909090909,4,2,4,5,0,0
79514,-90.9090909090909,4,2,4,80,0,0
80103,-90.9090909090909,4,2,4,5,0,0
80187,-90.9090909090909,4,2,4,80,0,0
80440,-100,4,2,4,5,0,0
80524,-90.9090909090909,4,2,4,80,0,0
81451,-90.9090909090909,4,2,4,5,0,0
81536,-90.9090909090909,4,2,4,80,0,0
81704,-90.9090909090909,4,2,3,80,0,0
81873,-90.9090909090909,4,2,4,80,0,0
82125,-90.9090909090909,4,2,4,5,0,0
82210,-90.9090909090909,4,2,4,80,0,0
82463,-100,4,2,4,5,0,0
82547,-90.9090909090909,4,2,4,80,0,0
82800,-90.9090909090909,4,2,4,5,0,0
82884,-90.9090909090909,4,2,4,80,0,0
84822,-90.9090909090909,4,2,4,5,0,0
84907,-90.9090909090909,4,2,4,80,0,0
85496,-90.9090909090909,4,2,4,5,0,0
85581,-90.9090909090909,4,2,4,80,0,0
85833,-100,4,2,4,5,0,0
85918,-90.9090909090909,4,2,4,80,0,0
86845,-90.9090909090909,4,2,4,5,0,0
86929,-90.9090909090909,4,2,4,80,0,0
87097,-90.9090909090909,4,2,3,80,0,0
87266,-90.9090909090909,4,2,4,80,0,0
87519,-90.9090909090909,4,2,4,5,0,0
87603,-90.9090909090909,4,2,4,80,0,0
87856,-100,4,2,4,5,0,0
87940,-90.9090909090909,4,2,4,80,0,0
88193,-90.9090909090909,4,2,4,5,0,0
88277,-90.9090909090909,4,2,4,80,0,0
88699,-90.9090909090909,4,2,4,5,0,0
88783,-90.9090909090909,4,2,4,80,0,0
89541,-90.9090909090909,4,2,4,5,0,0
89625,-90.9090909090909,4,2,4,80,0,0
91311,-90.9090909090909,4,2,4,70,0,0
91985,-90.9090909090909,4,2,1,70,0,0
92828,-90.9090909090909,4,2,4,70,0,0
94682,-90.9090909090909,4,2,1,70,0,0
95440,-100,4,2,4,5,0,0
95524,-90.9090909090909,4,2,4,70,0,0
97378,-90.9090909090909,4,2,1,70,0,0
98137,-100,4,2,4,5,0,0
98221,-90.9090909090909,4,2,4,70,0,0
100075,-90.9090909090909,4,2,1,70,0,0
100833,-100,4,2,4,5,0,0
100918,-90.9090909090909,4,2,4,70,0,0
102097,-100,4,2,4,60,0,0
104625,-100,4,2,3,60,0,0
105468,-100,4,2,4,60,0,0
105721,-100,4,2,4,5,0,0
105805,-100,4,2,3,60,0,0
106142,-100,4,2,4,60,0,0
106227,-100,4,2,4,5,0,0
106311,-100,4,2,3,60,0,0
106479,-100,4,2,4,60,0,0
106985,-100,4,2,3,60,0,0
107406,-100,4,2,4,5,0,0
107491,-100,4,2,4,60,0,0
108418,-100,4,2,4,5,0,0
108502,-100,4,2,3,60,0,0
112884,-100,4,2,4,60,0,0
113137,-100,4,2,4,5,0,0
113221,-100,4,2,4,60,0,0
114822,-100,4,2,3,60,0,0
114906,-100,4,2,4,60,0,0
115496,-100,4,2,4,5,0,0
115581,-100,4,2,4,70,0,0
117182,-100,4,2,4,5,0,0
117266,-100,4,2,4,70,0,0
117856,-100,4,2,4,5,0,0
117940,-100,4,2,4,70,0,0
118109,-100,4,2,3,70,0,0
118278,-100,4,2,4,60,0,0
118530,-100,4,2,4,5,0,0
118614,-100,4,2,4,60,0,0
121227,-100,4,2,4,5,0,0
121311,-100,4,2,4,60,0,0
121732,-100,4,2,4,5,0,0
121817,-100,4,2,4,60,0,0
122575,-100,4,2,4,5,0,0
122659,-100,4,2,4,60,0,0
123081,-100,4,2,4,5,0,0
123165,-100,4,2,4,60,0,0
125019,-100,4,2,3,60,0,0
125356,-100,4,2,4,60,0,0
126367,-90.9090909090909,4,2,4,80,0,0
126620,-90.9090909090909,4,2,4,5,0,0
126705,-90.9090909090909,4,2,4,80,0,0
127294,-90.9090909090909,4,2,4,5,0,0
127378,-90.9090909090909,4,2,4,80,0,0
127631,-100,4,2,4,5,0,0
127715,-90.9090909090909,4,2,4,80,0,0
128642,-100,4,2,4,5,0,0
128727,-90.9090909090909,4,2,4,80,0,0
128895,-90.9090909090909,4,2,3,80,0,0
129063,-90.9090909090909,4,2,4,80,0,0
129317,-90.9090909090909,4,2,4,5,0,0
129401,-90.9090909090909,4,2,4,80,0,0
129654,-90.9090909090909,4,2,4,5,0,0
129738,-90.9090909090909,4,2,4,80,0,0
129991,-90.9090909090909,4,2,4,5,0,0
130075,-90.9090909090909,4,2,4,80,0,0
132013,-90.9090909090909,4,2,4,5,0,0
132098,-90.9090909090909,4,2,4,80,0,0
132687,-90.9090909090909,4,2,4,5,0,0
132772,-90.9090909090909,4,2,4,80,0,0
133024,-100,4,2,4,5,0,0
133109,-90.9090909090909,4,2,4,80,0,0
134036,-90.9090909090909,4,2,4,5,0,0
134120,-90.9090909090909,4,2,4,80,0,0
134288,-90.9090909090909,4,2,3,80,0,0
134456,-90.9090909090909,4,2,4,80,0,0
134710,-90.9090909090909,4,2,4,5,0,0
134794,-90.9090909090909,4,2,4,80,0,0
135047,-100,4,2,4,5,0,0
135131,-90.9090909090909,4,2,4,80,0,0
135384,-90.9090909090909,4,2,4,5,0,0
135468,-90.9090909090909,4,2,4,80,0,0
137406,-90.9090909090909,4,2,4,5,0,0
137491,-90.9090909090909,4,2,4,80,0,0
138081,-90.9090909090909,4,2,4,5,0,0
138165,-90.9090909090909,4,2,4,80,0,0
138418,-100,4,2,4,5,0,0
138502,-90.9090909090909,4,2,4,80,0,0
139429,-90.9090909090909,4,2,4,5,0,0
139513,-90.9090909090909,4,2,4,80,0,0
139681,-90.9090909090909,4,2,3,80,0,0
139850,-90.9090909090909,4,2,4,80,0,0
140103,-90.9090909090909,4,2,4,5,0,0
140187,-90.9090909090909,4,2,4,80,0,0
140440,-100,4,2,4,5,0,0
140524,-90.9090909090909,4,2,4,80,0,0
140777,-90.9090909090909,4,2,4,5,0,0
140861,-90.9090909090909,4,2,4,80,0,0
142800,-90.9090909090909,4,2,4,5,0,0
142885,-90.9090909090909,4,2,4,80,0,0
143474,-100,4,2,4,5,0,0
143558,-90.9090909090909,4,2,4,80,0,0
143811,-90.9090909090909,4,2,4,5,0,0
143895,-90.9090909090909,4,2,4,80,0,0
144822,-90.9090909090909,4,2,4,5,0,0
144906,-90.9090909090909,4,2,4,80,0,0
145074,-90.9090909090909,4,2,3,80,0,0
145243,-90.9090909090909,4,2,4,80,0,0
145496,-90.9090909090909,4,2,4,5,0,0
145581,-90.9090909090909,4,2,4,80,0,0
145833,-100,4,2,4,5,0,0
145918,-90.9090909090909,4,2,4,80,0,0
146170,-90.9090909090909,4,2,4,5,0,0
146255,-90.9090909090909,4,2,4,80,0,0
146676,-90.9090909090909,4,2,4,5,0,0
146760,-90.9090909090909,4,2,4,80,0,0
147013,-90.9090909090909,4,2,4,5,0,0
147097,-90.9090909090909,4,2,4,80,0,0
148867,-90.9090909090909,4,2,4,5,0,0
148951,-90.9090909090909,4,2,4,80,0,0
149204,-90.9090909090909,4,2,4,5,0,0
149288,-90.9090909090909,4,2,2,80,0,0
149373,-90.9090909090909,4,2,2,60,0,0
149457,-90.9090909090909,4,2,1,60,0,0
150637,-90.9090909090909,4,2,2,60,0,0
150805,-90.9090909090909,4,2,1,60,0,0
151985,-90.9090909090909,4,2,2,60,0,0
153418,-90.9090909090909,4,2,3,60,0,0
153670,-90.9090909090909,4,2,1,60,0,0
154513,-90.9090909090909,4,2,3,60,0,0
154682,-90.9090909090909,4,2,2,60,0,0
154850,-90.9090909090909,4,2,1,60,0,0
156030,-90.9090909090909,4,2,2,60,0,0
156114,-90.9090909090909,4,2,4,60,0,0
156704,-90.9090909090909,4,2,1,60,0,0
157378,-90.9090909090909,4,2,2,60,0,0
157547,-90.9090909090909,4,2,4,60,0,0
157884,-90.9090909090909,4,2,1,60,0,0
159401,-90.9090909090909,4,2,5,70,0,0
160075,-90.9090909090909,4,2,2,75,0,0
160243,-90.9090909090909,4,2,1,75,0,0
160749,-90.9090909090909,4,2,2,75,0,0
160918,-90.9090909090909,4,2,1,75,0,0
161423,-90.9090909090909,4,2,2,75,0,0
161592,-90.9090909090909,4,2,1,75,0,0
162097,-90.9090909090909,4,2,2,75,0,0
162266,-90.9090909090909,4,2,1,75,0,0
162772,-90.9090909090909,4,2,2,75,0,0
162940,-90.9090909090909,4,2,1,75,0,0
163446,-90.9090909090909,4,2,2,75,0,0
163614,-90.9090909090909,4,2,1,75,0,0
164120,-90.9090909090909,4,2,2,75,0,0
164288,-90.9090909090909,4,2,1,75,0,0
164794,-90.9090909090909,4,2,2,75,0,0
164963,-90.9090909090909,4,2,1,75,0,0
165468,-90.9090909090909,4,2,2,75,0,0
165637,-90.9090909090909,4,2,1,75,0,0
166142,-90.9090909090909,4,2,2,75,0,0
166311,-90.9090909090909,4,2,1,75,0,0
166817,-90.9090909090909,4,2,2,75,0,0
166986,-90.9090909090909,4,2,1,75,0,0
167491,-90.9090909090909,4,2,2,75,0,0
167660,-90.9090909090909,4,2,1,75,0,0
168165,-90.9090909090909,4,2,2,75,0,0
168334,-90.9090909090909,4,2,1,75,0,0
168839,-90.9090909090909,4,2,2,75,0,0
169008,-90.9090909090909,4,2,1,75,0,0
169513,-90.9090909090909,4,2,2,70,0,0
169682,-90.9090909090909,4,2,1,70,0,0
170187,-90.9090909090909,4,2,2,70,0,0
170356,-90.9090909090909,4,2,1,70,0,0
170861,-90.9090909090909,4,2,2,80,0,0
171114,-90.9090909090909,4,2,2,5,0,0
171199,-90.9090909090909,4,2,1,80,0,0
171451,-90.9090909090909,4,2,1,5,0,0
171536,-90.9090909090909,4,2,1,80,0,0
171788,-90.9090909090909,4,2,1,5,0,0
171873,-90.9090909090909,4,2,1,80,0,0
172125,-90.9090909090909,4,2,1,5,0,0
172210,-90.9090909090909,4,2,2,80,0,0
172548,-90.9090909090909,4,2,1,80,0,0
173558,-90.9090909090909,4,2,2,80,0,0
173642,-90.9090909090909,4,2,2,5,0,0
173727,-90.9090909090909,4,2,2,80,0,0
173896,-90.9090909090909,4,2,1,80,0,0
173979,-90.9090909090909,4,2,1,5,0,0
174064,-90.9090909090909,4,2,1,80,0,0
174317,-90.9090909090909,4,2,1,5,0,0
174402,-90.9090909090909,4,2,1,80,0,0
174654,-90.9090909090909,4,2,1,5,0,0
174739,-90.9090909090909,4,2,1,80,0,0
174906,-90.9090909090909,4,2,2,80,0,0
174991,-90.9090909090909,4,2,2,5,0,0
175076,-90.9090909090909,4,2,2,80,0,0
175159,-90.9090909090909,4,2,2,5,0,0
175244,-90.9090909090909,4,2,1,80,0,0
175328,-90.9090909090909,4,2,1,5,0,0
175413,-90.9090909090909,4,2,1,80,0,0
175496,-90.9090909090909,4,2,1,5,0,0
175581,-90.9090909090909,4,2,1,80,0,0
175665,-90.9090909090909,4,2,1,5,0,0
175750,-90.9090909090909,4,2,1,80,0,0
175833,-90.9090909090909,4,2,1,5,0,0
175918,-90.9090909090909,4,2,1,80,0,0
176002,-90.9090909090909,4,2,1,5,0,0
176087,-90.9090909090909,4,2,1,80,0,0
176170,-90.9090909090909,4,2,1,5,0,0
176255,-90.9090909090909,4,2,2,80,0,0
176508,-90.9090909090909,4,2,2,5,0,0
176593,-90.9090909090909,4,2,1,80,0,0
176845,-90.9090909090909,4,2,1,5,0,0
176929,-90.9090909090909,4,2,1,80,0,0
177182,-90.9090909090909,4,2,1,5,0,0
177266,-90.9090909090909,4,2,1,80,0,0
177519,-90.9090909090909,4,2,1,5,0,0
177603,-90.9090909090909,4,2,2,80,0,0
177941,-90.9090909090909,4,2,1,80,0,0
178951,-90.9090909090909,4,2,2,80,0,0
179036,-90.9090909090909,4,2,2,5,0,0
179120,-90.9090909090909,4,2,2,80,0,0
179289,-90.9090909090909,4,2,1,80,0,0
179373,-90.9090909090909,4,2,1,5,0,0
179457,-90.9090909090909,4,2,1,80,0,0
179710,-90.9090909090909,4,2,1,5,0,0
179794,-90.9090909090909,4,2,1,80,0,0
180047,-90.9090909090909,4,2,1,5,0,0
180131,-90.9090909090909,4,2,1,80,0,0
180300,-90.9090909090909,4,2,2,80,0,0
180384,-90.9090909090909,4,2,2,5,0,0
180468,-90.9090909090909,4,2,2,80,0,0
180552,-90.9090909090909,4,2,2,5,0,0
180638,-90.9090909090909,4,2,1,80,0,0
180721,-90.9090909090909,4,2,1,5,0,0
180805,-90.9090909090909,4,2,1,80,0,0
180890,-90.9090909090909,4,2,1,5,0,0
180974,-90.9090909090909,4,2,1,80,0,0
181227,-90.9090909090909,4,2,1,5,0,0
181311,-90.9090909090909,4,2,1,80,0,0
181395,-90.9090909090909,4,2,1,5,0,0
181479,-90.9090909090909,4,2,1,80,0,0
181564,-90.9090909090909,4,2,1,5,0,0
181648,-90.9090909090909,4,2,2,80,0,0
181901,-90.9090909090909,4,2,2,5,0,0
181986,-90.9090909090909,4,2,1,80,0,0
182238,-90.9090909090909,4,2,1,5,0,0
182322,-90.9090909090909,4,2,1,80,0,0
182575,-90.9090909090909,4,2,2,5,0,0
182659,-90.9090909090909,4,2,1,80,0,0
182912,-90.9090909090909,4,2,1,5,0,0
182996,-90.9090909090909,4,2,2,80,0,0
183249,-90.9090909090909,4,2,1,5,0,0
183334,-90.9090909090909,4,2,1,80,0,0
183923,-90.9090909090909,4,2,1,5,0,0
184008,-90.9090909090909,4,2,1,80,0,0
184345,-90.9090909090909,4,2,2,80,0,0
184429,-90.9090909090909,4,2,2,5,0,0
184513,-90.9090909090909,4,2,2,80,0,0
184683,-90.9090909090909,4,2,1,80,0,0
184766,-90.9090909090909,4,2,1,5,0,0
184850,-90.9090909090909,4,2,1,80,0,0
185103,-90.9090909090909,4,2,1,5,0,0
185187,-90.9090909090909,4,2,1,80,0,0
185440,-90.9090909090909,4,2,1,5,0,0
185524,-90.9090909090909,4,2,1,80,0,0
185693,-90.9090909090909,4,2,2,80,0,0
185777,-90.9090909090909,4,2,2,5,0,0
185861,-90.9090909090909,4,2,2,80,0,0
185946,-90.9090909090909,4,2,2,5,0,0
186031,-90.9090909090909,4,2,1,80,0,0
186114,-90.9090909090909,4,2,1,5,0,0
186198,-90.9090909090909,4,2,1,80,0,0
186283,-90.9090909090909,4,2,1,5,0,0
186367,-90.9090909090909,4,2,1,80,0,0
186451,-90.9090909090909,4,2,1,5,0,0
186535,-90.9090909090909,4,2,1,80,0,0
186620,-90.9090909090909,4,2,1,5,0,0
186704,-90.9090909090909,4,2,1,80,0,0
186788,-90.9090909090909,4,2,1,5,0,0
186872,-90.9090909090909,4,2,1,80,0,0
186957,-90.9090909090909,4,2,1,5,0,0
187041,-90.9090909090909,4,2,2,80,0,0
187294,-90.9090909090909,4,2,1,5,0,0
187379,-90.9090909090909,4,2,1,80,0,0
187631,-90.9090909090909,4,2,1,5,0,0
187715,-90.9090909090909,4,2,1,80,0,0
187968,-90.9090909090909,4,2,1,5,0,0
188052,-90.9090909090909,4,2,1,80,0,0
188305,-90.9090909090909,4,2,1,5,0,0
188390,-90.9090909090909,4,2,2,80,0,0
188642,-90.9090909090909,4,2,1,5,0,0
188728,-90.9090909090909,4,2,1,80,0,0
189317,-90.9090909090909,4,2,1,5,0,0
189401,-90.9090909090909,4,2,1,80,0,0
189738,-90.9090909090909,4,2,2,80,0,0
189822,-90.9090909090909,4,2,2,5,0,0
189906,-90.9090909090909,4,2,2,80,0,0
190076,-90.9090909090909,4,2,1,80,0,0
190159,-90.9090909090909,4,2,1,5,0,0
190243,-90.9090909090909,4,2,1,80,0,0
190496,-90.9090909090909,4,2,1,5,0,0
190580,-90.9090909090909,4,2,1,80,0,0
190833,-90.9090909090909,4,2,1,5,0,0
190917,-90.9090909090909,4,2,1,80,0,0
191086,-90.9090909090909,4,2,2,80,0,0
191255,-90.9090909090909,4,2,1,80,0,0
197828,-133.333333333333,4,2,2,70,0,0
199682,-133.333333333333,4,2,2,5,0,0
199850,-133.333333333333,4,2,2,70,0,0
200356,-133.333333333333,4,2,2,5,0,0
200524,-181.818181818181,4,2,2,70,0,0
201536,-181.818181818181,4,3,0,70,0,0
203221,-181.818181818181,4,2,4,60,0,0
203474,-181.818181818181,4,2,4,5,0,0
203558,-181.818181818181,4,2,4,60,0,0
204485,-181.818181818181,4,2,4,5,0,0
204569,-181.818181818181,4,2,4,60,0,0
205918,-181.818181818181,4,2,1,60,0,0
206170,-181.818181818181,4,2,1,5,0,0
206255,-181.818181818181,4,2,2,60,0,0
206508,-181.818181818181,4,2,2,5,0,0
206592,-181.818181818181,4,2,2,60,0,0
206845,-181.818181818181,4,2,2,5,0,0
206929,-181.818181818181,4,2,2,60,0,0
207266,-181.818181818181,4,2,1,60,0,0
207434,-181.818181818181,4,2,2,60,0,0
208614,-181.818181818181,4,2,2,75,0,0
210552,-181.818181818181,4,2,2,5,0,0
210637,-181.818181818181,4,2,2,60,0,0
211227,-181.818181818181,4,2,2,5,0,0
211311,-181.818181818181,4,2,2,60,0,0
211901,-181.818181818181,4,2,2,5,0,0
211985,-181.818181818181,4,2,2,60,0,0
212575,-181.818181818181,4,2,2,5,0,0
212659,-100,4,2,2,60,0,0
212828,-100,4,2,3,60,0,0
212996,-100,4,2,4,60,0,0
213165,-100,4,2,3,60,0,0
213333,-100,4,2,4,60,0,0
213502,-100,4,2,3,60,0,0
213586,-90.9090909090909,4,2,1,5,0,0
213670,-100,4,2,4,60,0,0
214008,-90.9090909090909,4,2,4,80,0,0
214260,-90.9090909090909,4,2,4,5,0,0
214345,-90.9090909090909,4,2,4,80,0,0
214934,-90.9090909090909,4,2,4,5,0,0
215019,-90.9090909090909,4,2,4,80,0,0
215272,-90.9090909090909,4,2,1,5,0,0
215356,-90.9090909090909,4,2,4,80,0,0
216283,-90.9090909090909,4,2,1,5,0,0
216367,-90.9090909090909,4,2,4,80,0,0
216536,-90.9090909090909,4,2,3,80,0,0
216704,-90.9090909090909,4,2,4,80,0,0
216957,-90.9090909090909,4,2,4,5,0,0
217041,-90.9090909090909,4,2,4,80,0,0
217294,-90.9090909090909,4,2,4,5,0,0
217378,-90.9090909090909,4,2,4,80,0,0
217631,-90.9090909090909,4,2,4,5,0,0
217715,-90.9090909090909,4,2,4,80,0,0
219654,-90.9090909090909,4,2,4,5,0,0
219738,-90.9090909090909,4,2,4,80,0,0
220328,-90.9090909090909,4,2,4,5,0,0
220412,-90.9090909090909,4,2,4,80,0,0
220665,-90.9090909090909,4,2,1,5,0,0
220749,-90.9090909090909,4,2,4,80,0,0
221676,-90.9090909090909,4,2,4,5,0,0
221760,-90.9090909090909,4,2,4,80,0,0
221929,-90.9090909090909,4,2,3,80,0,0
222097,-90.9090909090909,4,2,4,80,0,0
222350,-90.9090909090909,4,2,4,5,0,0
222434,-90.9090909090909,4,2,4,80,0,0
222687,-90.9090909090909,4,2,4,5,0,0
222772,-90.9090909090909,4,2,4,80,0,0
223024,-90.9090909090909,4,2,4,5,0,0
223109,-90.9090909090909,4,2,4,80,0,0
225047,-90.9090909090909,4,2,4,5,0,0
225131,-90.9090909090909,4,2,4,80,0,0
225721,-90.9090909090909,4,2,4,5,0,0
225805,-90.9090909090909,4,2,4,80,0,0
226058,-90.9090909090909,4,2,1,5,0,0
226142,-90.9090909090909,4,2,4,80,0,0
227069,-90.9090909090909,4,2,4,5,0,0
227154,-90.9090909090909,4,2,4,80,0,0
227322,-90.9090909090909,4,2,3,80,0,0
227491,-90.9090909090909,4,2,4,80,0,0
227743,-90.9090909090909,4,2,4,5,0,0
227828,-90.9090909090909,4,2,4,80,0,0
228081,-90.9090909090909,4,2,1,5,0,0
228165,-90.9090909090909,4,2,4,80,0,0
228418,-90.9090909090909,4,2,4,5,0,0
228502,-90.9090909090909,4,2,4,80,0,0
230440,-90.9090909090909,4,2,1,5,0,0
230524,-90.9090909090909,4,2,4,80,0,0
231199,-90.9090909090909,4,2,4,80,0,0
231451,-90.9090909090909,4,2,1,5,0,0
231536,-90.9090909090909,4,2,4,80,0,0
232463,-90.9090909090909,4,2,1,5,0,0
232547,-90.9090909090909,4,2,4,80,0,0
232715,-90.9090909090909,4,2,3,80,0,0
232884,-90.9090909090909,4,2,4,80,0,0
233137,-90.9090909090909,4,2,4,5,0,0
233221,-90.9090909090909,4,2,4,80,0,0
233474,-90.9090909090909,4,2,4,5,0,0
233558,-90.9090909090909,4,2,4,80,0,0
233811,-90.9090909090909,4,2,1,5,0,0
233895,-90.9090909090909,4,2,4,80,0,0
234317,-90.9090909090909,4,2,1,5,0,0
234401,-90.9090909090909,4,2,4,80,0,0
237603,-90.9090909090909,4,2,1,80,0,0
238446,-90.9090909090909,4,2,4,80,0,0
240300,-90.9090909090909,4,2,1,80,0,0
241142,-90.9090909090909,4,2,4,80,0,0
242996,-90.9090909090909,4,2,1,80,0,0
243839,-90.9090909090909,4,2,4,80,0,0
245103,-90.9090909090909,4,2,4,70,0,0
245272,-90.9090909090909,4,2,4,5,0,0
245356,-90.9090909090909,4,2,4,70,0,0
245609,-90.9090909090909,4,2,4,5,0,0
245693,-90.9090909090909,4,2,4,70,0,0
245946,-90.9090909090909,4,2,4,5,0,0
246030,-90.9090909090909,4,2,4,70,0,0
246283,-90.9090909090909,4,2,4,5,0,0
246367,-133.333333333333,4,2,2,70,0,0
246788,-133.333333333333,4,2,2,5,0,0
246873,-133.333333333333,4,2,2,50,0,0
250075,-133.333333333333,4,2,2,5,0,0

[Colours]
Combo1 : 255,49,49
Combo2 : 255,128,64
Combo3 : 192,192,192

[HitObjects]
92,384,11760,6,0,P|151:376|214:367,1,105.000004005432,2|2,3:2|0:0,0:0:0:0:
264,329,12266,1,2,0:0:0:0:
335,360,12434,1,2,0:0:0:0:
449,251,12772,2,0,P|390:244|365:241,1,78.7500030040742,2|0,0:0|0:0,0:0:0:0:
332,253,13109,6,0,P|325:202|322:185,1,52.5000020027161,2|2,0:0|0:0,0:0:0:0:
246,205,13446,2,0,P|249:179|253:152,1,52.5000020027161,2|2,0:0|0:0,0:0:0:0:
286,81,13783,1,2,0:0:0:0:
139,24,14120,2,0,P|144:53|150:84,1,52.5000020027161,2|2,0:0|0:0,0:0:0:0:
175,149,14457,5,2,0:0:0:0:
233,3,14794,1,2,0:0:0:0:
373,74,15131,2,0,P|342:70|304:64,1,52.5000020027161,2|0,0:0|0:0,0:0:0:0:
276,132,15468,1,2,0:0:0:0:
324,194,15637,6,0,P|362:159|417:175,1,105.000004005432,2|2,0:0|0:0,0:0:0:0:
459,231,16142,2,0,P|450:258|445:281,1,52.5000020027161,2|2,0:0|0:0,0:0:0:0:
439,360,16479,1,2,0:0:0:0:
289,309,16817,2,0,P|247:317|225:320,1,52.5000020027161,2|2,0:0|0:0,0:0:0:0:
173,364,17154,6,0,P|87:351|56:347,1,105.000004005432,2|2,3:2|0:0,0:0:0:0:
13,293,17659,1,2,0:0:0:0:
62,231,17828,2,0,P|99:227|127:221,1,52.5000020027161,2|2,0:0|0:0,0:0:0:0:
192,211,18165,2,0,P|220:177|202:133,1,78.7500030040742,2|0,0:0|0:0,0:0:0:0:
206,106,18502,6,0,P|199:66|195:31,1,52.5000020027161,2|2,3:2|0:0,0:0:0:0:
125,21,18839,2,0,P|118:61|114:96,1,52.5000020027161,2|2,0:0|0:0,0:0:0:0:
125,151,19176,1,2,0:0:0:0:
274,69,19513,2,0,P|312:73|335:76,1,52.5000020027161,2|2,0:0|0:0,0:0:0:0:
377,134,19850,6,0,P|403:94|391:34,2,105.000004005432,2|2|2,3:2|0:0|0:0,0:0:0:0:
266,246,20861,1,2,0:0:0:0:
201,200,21030,2,0,P|232:172|292:171,1,105.000004005432,2|2,0:0|0:0,0:0:0:0:
354,220,21536,2,0,P|361:263|363:291,1,52.5000020027161,2|2,3:2|3:2,0:0:0:0:
363,350,21873,1,2,0:0:0:0:
432,313,22041,6,0,P|451:305|475:304,5,26.2500010013581,2|2|2|2|2|2,0:2|0:2|0:2|0:2|0:2|0:2,0:0:0:0:
485,277,22547,6,0,P|490:218|493:198,1,70,6|2,3:2|0:0,0:0:0:0:
440,149,22884,2,0,P|435:90|432:70,1,70,2|2,3:2|0:0,0:0:0:0:
472,12,23221,1,2,3:2:0:0:
359,117,23558,1,2,3:2:0:0:
237,22,23895,6,0,P|232:81|229:101,1,70,2|2,3:2|0:0,0:0:0:0:
282,150,24232,2,0,P|287:209|290:229,1,70,2|2,3:2|0:0,0:0:0:0:
250,287,24569,2,0,P|292:264|349:279,1,105,2|2,3:2|0:0,0:0:0:0:
379,294,24906,2,0,L|373:341,3,35,2|2|2|2,3:2|0:0|0:0|0:0,0:0:0:0:
369,367,25243,6,0,P|327:370|212:360,1,140,2|0,3:2|3:2,0:0:0:0:
168,316,25749,2,0,P|131:331|94:326,1,70,2|0,0:0|3:2,0:0:0:0:
40,281,26086,1,2,0:0:0:0:
92,224,26255,1,2,3:2:0:0:
49,160,26423,6,0,P|43:116|36:84,1,70,6|0,0:2|3:2,0:0:0:0:
88,33,26760,1,2,0:0:0:0:
143,87,26929,1,2,3:2:0:0:
209,48,27097,2,0,P|246:59|285:61,1,70,14|0,0:0|3:2,0:0:0:0:
347,29,27434,1,8,0:0:0:0:
345,106,27603,2,0,P|382:95|452:91,1,105,8|8,3:2|0:0,0:0:0:0:
479,113,27940,6,0,P|485:148|490:183,1,70,6|2,3:2|0:2,0:0:0:0:
443,243,28277,2,0,P|436:278|432:313,1,70,2|2,3:2|0:2,0:0:0:0:
474,376,28614,1,2,3:2:0:0:
360,271,28951,1,2,3:2:0:0:
229,353,29288,6,0,P|168:346|138:343,1,70,2|2,3:2|0:2,0:0:0:0:
104,291,29625,2,0,P|69:294|34:298,1,70,2|2,3:2|0:2,0:0:0:0:
178,248,29963,1,2,3:2:0:0:
112,208,30131,2,0,L|107:157,5,35,2|2|2|2|2|2,0:0|0:0|3:2|0:0|0:0|0:0,0:0:0:0:
105,134,30637,6,0,P|174:128|274:106,1,140,2|0,3:2|3:2,0:0:0:0:
294,57,31142,2,0,P|331:64|367:72,1,70,2|0,0:0|3:2,0:0:0:0:
423,117,31479,1,10,0:0:0:0:
493,85,31648,1,2,3:2:0:0:
419,126,31817,6,0,P|412:164|405:210,1,70,6|0,3:2|0:0,0:0:0:0:
405,345,32154,1,2,0:0:0:0:
481,337,32322,1,2,0:0:0:0:
434,274,32491,2,0,P|388:271|363:265,1,70,6|0,3:2|0:0,0:0:0:0:
301,221,32828,2,0,B|267:213|234:234|234:234|192:225|168:250,1,140,2|0,0:0|0:0,0:0:0:0:
116,305,33333,6,0,P|92:272|92:241,1,70,2|2,3:2|0:0,0:0:0:0:
133,179,33670,1,2,3:2:0:0:
133,179,33839,1,2,0:0:0:0:
82,120,34008,2,0,P|75:72|71:40,1,70,2|0,3:2|0:0,0:0:0:0:
161,104,34345,1,10,3:2:0:0:
147,28,34513,6,0,P|227:22|287:19,1,140,2|2,0:0|0:0,0:0:0:0:
357,50,35019,2,0,P|411:58|435:60,1,70,2|2,3:2|0:0,0:0:0:0:
472,128,35356,1,2,3:2:0:0:
472,128,35524,1,2,0:0:0:0:
424,189,35693,2,0,P|389:192|354:198,1,70,10|2,3:2|0:0,0:0:0:0:
302,141,36030,6,0,P|278:174|278:205,1,70,2|2,3:2|0:2,0:0:0:0:
324,273,36367,1,2,3:2:0:0:
324,273,36536,1,2,0:2:0:0:
354,198,36704,2,0,P|389:192|424:189,1,70,2|2,3:2|0:2,0:0:0:0:
324,273,37041,1,10,3:2:0:0:
351,345,37210,2,0,P|385:350|420:354,1,70,10|2,0:2|3:2,0:0:0:0:
324,273,37547,5,2,0:2:0:0:
257,311,37715,1,2,3:2:0:0:
193,266,37884,1,2,0:2:0:0:
193,266,38221,1,2,0:2:0:0:
200,189,38390,2,0,P|140:182|92:179,1,105,8|0,3:2|0:0,0:0:0:0:
58,190,38727,6,0,P|49:143|44:116,1,70,2|2,3:2|0:2,0:0:0:0:
17,48,39064,1,2,3:2:0:0:
17,48,39232,1,2,0:2:0:0:
117,85,39401,2,0,P|163:81|262:74,1,140,2|10,3:2|3:2,0:0:0:0:
321,32,39906,6,0,P|336:65|328:102,1,70,2|0,0:2|3:2,0:0:0:0:
274,150,40243,1,2,0:0:0:0:
320,211,40412,2,0,P|364:193|406:194,1,70,2|2,3:2|0:0,0:0:0:0:
447,250,40749,1,2,3:2:0:0:
447,250,40918,1,2,0:0:0:0:
430,324,41086,2,0,P|386:342|344:341,1,70,10|2,3:2|0:0,0:0:0:0:
292,372,41423,6,0,P|269:320|184:312,1,140,2|10,3:2|3:2,0:0:0:0:
70,214,42097,2,0,P|135:226|208:200,1,140,2|10,3:2|3:2,0:0:0:0:
243,137,42603,2,0,P|239:75|166:86,1,140,10|10,0:0|0:2,0:0:0:0:
130,139,43109,1,10,3:2:0:0:
285,209,43446,1,2,3:2:0:0:
371,38,43783,2,0,P|374:80|380:146,1,105,4|0,3:1|0:0,0:0:0:0:
394,178,44120,6,0,P|434:184|468:186,1,70,6|2,3:2|0:2,0:0:0:0:
485,259,44457,2,0,P|445:265|411:267,1,70,2|2,3:2|0:2,0:0:0:0:
359,319,44794,2,0,P|321:298|249:352,1,140,2|10,3:2|3:2,0:0:0:0:
176,370,45300,2,0,P|141:367|106:362,1,70,2|0,0:2|3:2,0:0:0:0:
55,304,45637,5,2,0:2:0:0:
114,255,45805,2,0,P|148:252|183:247,1,70,2|2,3:2|0:2,0:0:0:0:
238,193,46142,1,2,3:2:0:0:
238,193,46311,1,2,0:2:0:0:
200,119,46479,2,0,P|195:84|193:50,1,70,2|2,3:2|0:2,0:0:0:0:
257,6,46817,5,2,3:2:0:0:
324,42,46985,1,2,0:2:0:0:
399,24,47154,2,0,P|396:58|391:93,1,70,2|2,3:2|0:2,0:0:0:0:
346,156,47491,2,0,P|376:121|468:129,1,140,2|10,3:2|0:0,0:0:0:0:
491,196,47996,6,0,P|454:201|421:188,1,70,2|0,0:0|3:2,0:0:0:0:
365,240,48333,2,0,P|330:234|297:245,1,70,2|0,0:0|3:2,0:0:0:0:
238,193,48670,2,0,P|201:198|168:185,1,70,2|0,0:0|3:2,0:0:0:0:
110,137,49008,1,2,0:0:0:0:
55,191,49176,1,2,3:2:0:0:
55,191,49513,6,0,P|64:230|69:265,1,70,2|2,3:2|0:2,0:0:0:0:
74,343,49850,1,2,3:2:0:0:
74,343,50019,1,2,0:2:0:0:
151,279,50187,2,0,P|202:288|297:300,1,140,2|8,3:2|3:2,0:0:0:0:
352,254,50693,6,0,P|368:291|365:324,1,70,2|0,0:0|3:2,0:0:0:0:
279,220,51030,1,2,0:0:0:0:
340,173,51199,1,2,3:2:0:0:
340,173,51536,2,0,P|334:126|332:99,1,70,2|2,3:2|0:0,0:0:0:0:
427,139,51873,2,0,P|423:173|419:208,1,70,10|2,3:2|0:0,0:0:0:0:
352,254,52210,5,0,3:2:0:0:
352,254,52547,2,0,P|294:261|275:268,1,70,10|10,3:2|0:0,0:0:0:0:
233,323,52884,2,0,P|182:292|98:294,1,140,2|8,3:2|3:2,0:0:0:0:
50,236,53390,6,0,P|48:195|42:162,1,70,2|0,0:2|3:2,0:0:0:0:
137,130,53727,2,0,P|131:164|130:199,1,70,2|0,0:2|3:2,0:0:0:0:
224,150,54064,2,0,P|222:115|217:80,1,70,2|0,0:2|3:2,0:0:0:0:
204,234,54401,1,2,0:2:0:0:
300,192,54569,2,0,P|346:199|423:205,1,105,2|0,0:2|0:0,0:0:0:0:
440,191,54906,6,0,P|447:144|449:122,1,70,6|0,3:2|0:0,0:0:0:0:
429,47,55243,2,0,P|389:58|305:60,1,105,2|0,3:2|0:0,0:0:0:0:
287,52,55581,1,2,3:2:0:0:
245,116,55749,2,0,P|208:106|173:106,1,70,2|8,0:0|3:2,0:0:0:0:
116,154,56086,6,0,P|97:119|102:88,1,70,2|0,0:0|3:2,0:0:0:0:
189,182,56423,2,0,P|183:239|179:264,1,70,2|0,0:0|3:2,0:0:0:0:
153,323,56760,2,0,P|116:335|73:323,2,70,2|2|2,0:0|3:2|0:0,0:0:0:0:
221,358,57266,2,0,P|274:339|335:342,1,105,12|0,3:2|0:0,0:0:0:0:
357,356,57603,5,10,3:2:0:0:
380,282,57772,1,10,0:0:0:0:
449,314,57940,1,10,3:2:0:0:
420,162,58277,5,10,3:2:0:0:
443,236,58446,1,10,0:0:0:0:
512,204,58614,1,10,3:2:0:0:
423,78,58951,5,2,3:2:0:0:
347,59,59120,2,0,P|342:104|338:144,1,70,2|12,0:0|3:2,0:0:0:0:
334,205,59457,2,0,P|292:199|262:194,1,70,2|8,0:0|3:2,0:0:0:0:
188,180,59794,1,2,0:0:0:0:
120,218,59963,2,0,P|113:179|105:135,1,70,12|10,3:2|0:0,0:0:0:0:
74,78,60300,5,4,3:2:0:0:
74,78,60637,2,0,P|114:67|155:88,1,70,2|0,3:2|0:0,0:0:0:0:
210,116,60974,2,0,P|243:124|276:113,1,70,2|2,3:2|0:2,0:0:0:0:
335,64,61311,1,10,3:2:0:0:
403,98,61479,6,0,P|408:144|412:172,1,70,2|0,0:2|3:2,0:0:0:0:
368,232,61817,2,0,P|363:266|359:301,1,70,2|8,0:2|3:2,0:0:0:0:
313,363,62154,2,0,P|343:331|434:336,2,140,2|2|2,0:2|0:2|0:2,0:0:0:0:
258,308,62996,6,0,P|203:302|183:297,1,70,2|0,3:2|0:0,0:0:0:0:
132,350,63333,1,8,3:2:0:0:
77,295,63502,2,0,P|71:246|68:212,1,70,6|0,0:0|3:2,0:0:0:0:
104,156,63839,1,2,0:0:0:0:
61,91,64008,2,0,P|96:75|136:89,1,70,10|0,3:2|0:0,0:0:0:0:
194,115,64345,5,2,3:2:0:0:
255,68,64513,2,0,P|251:31|248:-3,1,70,2|8,0:0|3:2,0:0:0:0:
326,113,64850,1,2,0:0:0:0:
407,77,65019,2,0,P|398:142|392:197,1,105,2|0,3:2|0:0,0:0:0:0:
373,214,65356,2,0,P|388:253|389:287,1,70,10|2,3:2|0:0,0:0:0:0:
352,348,65693,5,6,3:2:0:0:
290,302,65861,1,2,0:0:0:0:
223,340,66030,1,2,3:2:0:0:
149,315,66199,2,0,P|102:320|71:320,1,70,2|0,0:0|3:2,0:0:0:0:
39,234,66536,2,0,P|86:239|117:239,1,70,2|0,0:0|3:2,0:0:0:0:
173,197,66873,1,2,0:0:0:0:
245,241,67041,6,0,B|252:189|252:189|270:164|270:164|275:107,1,140,8|8,0:0|0:0,0:0:0:0:
232,34,67547,1,8,0:0:0:0:
232,34,67631,1,8,0:0:0:0:
232,34,67715,1,8,3:2:0:0:
354,83,67884,5,10,3:2:0:0:
275,107,68052,2,0,P|236:113|190:114,1,70,2|2,0:0|0:0,0:0:0:0:
118,212,68390,6,0,P|160:177|253:192,1,154.000004699707,6|10,3:2|3:2,0:0:0:0:
298,262,68895,1,2,0:0:0:0:
272,342,69064,2,0,P|235:323|218:288,1,77.0000023498536,2|0,3:2|0:0,0:0:0:0:
298,262,69401,2,0,P|353:270|422:275,1,115.50000352478,10|0,3:2|0:0,0:0:0:0:
453,263,69738,6,0,P|464:226|461:187,1,77.0000023498536,2|2,3:2|0:0,0:0:0:0:
424,42,70075,2,0,P|413:78|416:117,1,77.0000023498536,10|2,3:2|0:0,0:0:0:0:
462,188,70412,2,0,P|418:176|336:167,1,115.50000352478,2|0,3:2|0:0,0:0:0:0:
308,182,70749,1,10,3:2:0:0:
246,240,70918,1,10,0:0:0:0:
285,101,71086,5,2,3:2:0:0:
285,101,71423,2,0,P|239:107|205:107,1,77.0000023498536,10|0,3:2|0:0,0:0:0:0:
110,25,71760,2,0,P|121:73|139:178,1,154.000004699707,2|10,3:2|3:2,0:0:0:0:
134,261,72266,2,0,P|97:289|20:221,1,154.000004699707,2|2,0:0|0:0,0:0:0:0:
139,177,72772,2,0,P|184:188|206:211,1,77.0000023498536,10|2,3:2|0:0,0:0:0:0:
233,336,73109,1,2,3:2:0:0:
233,336,73446,1,10,3:2:0:0:
301,286,73614,1,10,0:2:0:0:
370,335,73783,6,0,P|379:264|393:169,1,154.000004699707,2|10,3:2|3:2,0:0:0:0:
404,99,74288,1,2,0:0:0:0:
462,161,74457,2,0,P|429:179|391:183,1,77.0000023498536,2|0,3:2|0:0,0:0:0:0:
309,160,74794,2,0,P|307:94|302:43,1,115.50000352478,10|0,3:2|0:0,0:0:0:0:
281,7,75131,6,0,P|242:-1|205:20,1,77.0000023498536,2|2,3:2|0:0,0:0:0:0:
81,85,75468,2,0,P|117:93|152:77,1,77.0000023498536,10|2,3:2|0:0,0:0:0:0:
20,28,75805,1,2,3:2:0:0:
20,28,76142,1,8,3:2:0:0:
81,85,76311,1,10,0:0:0:0:
49,163,76479,6,0,P|53:215|54:247,1,77.0000023498536,2|0,3:2|0:0,0:0:0:0:
40,324,76817,2,0,P|59:285|128:278,1,115.50000352478,10|0,3:2|0:0,0:0:0:0:
157,304,77154,2,0,P|210:312|237:313,1,77.0000023498536,2|0,3:2|0:0,0:0:0:0:
301,262,77491,1,2,3:2:0:0:
382,282,77659,6,0,P|419:250|386:146,1,154.000004699707,2|2,0:0|0:0,0:0:0:0:
332,106,78165,2,0,P|294:118|248:121,1,77.0000023498536,2|2,3:2|0:0,0:0:0:0:
199,58,78502,1,10,3:2:0:0:
128,104,78670,1,8,0:0:0:0:
130,126,78755,1,8,0:0:0:0:
133,149,78839,1,8,3:2:0:0:
135,172,78923,1,8,0:0:0:0:
138,195,79008,1,8,0:0:0:0:
140,218,79092,1,8,0:0:0:0:
143,241,79176,6,0,P|228:233|321:229,1,154.000004699707,6|10,3:2|3:2,0:0:0:0:
372,267,79682,1,2,0:0:0:0:
437,213,79850,2,0,P|457:250|452:296,1,77.0000023498536,2|0,3:2|0:0,0:0:0:0:
398,350,80187,2,0,P|346:342|279:335,1,115.50000352478,10|0,3:2|0:0,0:0:0:0:
250,308,80524,6,0,P|245:354|242:387,1,77.0000023498536,2|2,3:2|0:0,0:0:0:0:
297,230,80861,2,0,P|292:184|289:151,1,77.0000023498536,10|2,3:2|0:0,0:0:0:0:
330,78,81199,1,2,3:2:0:0:
330,78,81536,1,10,3:2:0:0:
289,153,81704,1,10,0:0:0:0:
215,110,81873,6,0,P|165:116|121:117,1,77.0000023498536,2|0,3:2|0:0,0:0:0:0:
97,191,82210,2,0,P|150:196|222:207,1,115.50000352478,10|0,3:2|0:0,0:0:0:0:
248,226,82547,2,0,P|258:271|251:304,1,77.0000023498536,2|0,3:2|0:0,0:0:0:0:
195,363,82884,1,10,3:2:0:0:
120,321,83052,6,0,P|180:278|252:300,1,154.000004699707,2|2,0:0|0:0,0:0:0:0:
322,347,83558,2,0,P|367:337|407:333,1,77.0000023498536,10|2,3:2|0:0,0:0:0:0:
463,279,83895,1,2,3:2:0:0:
463,279,84232,1,10,3:2:0:0:
384,247,84401,1,2,0:0:0:0:
429,175,84569,6,0,P|390:170|274:152,1,154.000004699707,2|8,3:2|3:2,0:0:0:0:
212,208,85075,1,2,0:0:0:0:
136,169,85243,2,0,P|124:210|135:243,1,77.0000023498536,2|0,3:2|0:0,0:0:0:0:
199,296,85581,2,0,P|250:290|327:286,1,115.50000352478,10|0,3:2|0:0,0:0:0:0:
354,300,85918,6,0,P|366:341|355:374,1,77.0000023498536,2|2,3:2|0:0,0:0:0:0:
309,208,86255,2,0,P|297:167|308:134,1,77.0000023498536,10|2,3:2|0:0,0:0:0:0:
359,68,86592,1,2,3:2:0:0:
359,68,86929,1,10,3:2:0:0:
391,145,87097,1,10,0:0:0:0:
307,135,87266,6,0,P|260:130|226:128,1,77.0000023498536,2|0,3:2|0:0,0:0:0:0:
169,69,87603,2,0,P|121:86|117:175,1,115.50000352478,10|0,3:2|0:0,0:0:0:0:
120,181,87940,2,0,P|126:231|128:263,1,77.0000023498536,2|0,3:2|0:0,0:0:0:0:
113,341,88277,1,10,3:2:0:0:
219,269,88446,6,0,P|272:278|385:290,1,154.000004699707,2|2,0:0|0:0,0:0:0:0:
445,249,88951,2,0,P|467:212|455:167,1,77.0000023498536,10|2,3:2|0:0,0:0:0:0:
419,106,89288,1,2,3:2:0:0:
419,106,89625,1,2,3:2:0:0:
349,154,89794,1,2,0:0:0:0:
254,71,89963,6,0,P|264:151|272:238,1,154.000004699707,4|2,3:2|0:0,0:0:0:0:
113,341,90637,2,0,P|103:261|95:174,1,154.000004699707,6|2,3:2|0:0,0:0:0:0:
252,71,91311,6,0,P|289:88|348:96,1,77.0000023498536,6|2,3:2|0:0,0:0:0:0:
366,100,91564,1,2,0:0:0:0:
406,89,91648,2,0,P|427:123|420:172,1,77.0000023498536,2|2,3:2|0:0,0:0:0:0:
374,226,91985,2,0,P|317:218|293:212,1,77.0000023498536,2|2,3:2|0:0,0:0:0:0:
219,244,92322,1,2,3:2:0:0:
151,193,92491,6,0,P|144:238|140:272,1,77.0000023498536,6|0,0:0|3:2,0:0:0:0:
177,371,92828,1,2,0:0:0:0:
177,371,92912,1,2,0:0:0:0:
177,371,92996,2,0,P|236:360|277:362,1,77.0000023498536,2|6,3:2|0:0,0:0:0:0:
319,306,93333,1,2,3:2:0:0:
400,351,93502,1,2,0:0:0:0:
400,351,93586,1,2,0:0:0:0:
400,351,93670,2,0,L|406:310,3,38.5000011749268,2|2|2|2,3:2|0:0|0:0|0:0,0:0:0:0:
429,276,94008,5,6,3:2:0:0:
371,213,94176,1,2,0:0:0:0:
371,213,94260,1,2,0:0:0:0:
371,213,94345,2,0,P|362:160|358:126,1,77.0000023498536,2|2,3:2|0:0,0:0:0:0:
382,55,94682,5,2,3:2:0:0:
455,97,94850,1,2,0:0:0:0:
450,181,95019,1,2,3:2:0:0:
371,213,95187,2,0,P|312:203|246:192,1,115.50000352478,6|0,0:0|0:0,0:0:0:0:
218,211,95524,6,0,L|206:259,2,38.5000011749268,2|2|2,0:0|0:0|3:2,0:0:0:0:
156,152,95861,2,0,P|105:166|54:169,1,77.0000023498536,6|2,0:0|3:2,0:0:0:0:
29,236,96199,1,2,0:0:0:0:
29,236,96283,1,2,0:0:0:0:
29,236,96367,2,0,P|73:247|88:255,3,38.5000011749268,2|2|2|2,3:2|0:0|0:0|0:0,0:0:0:0:
103,265,96704,6,0,P|115:312|120:345,1,77.0000023498536,6|2,3:2|0:0,0:0:0:0:
158,356,96957,1,2,0:0:0:0:
196,339,97041,2,0,P|248:330|289:328,1,77.0000023498536,2|2,3:2|0:0,0:0:0:0:
348,364,97378,5,2,3:2:0:0:
420,319,97547,1,2,0:0:0:0:
441,237,97715,1,2,3:2:0:0:
411,157,97884,2,0,P|352:149|282:136,1,115.50000352478,6|0,0:0|0:0,0:0:0:0:
259,117,98221,6,0,L|253:69,2,38.5000011749268,2|2|2,0:0|0:0|3:2,0:0:0:0:
206,183,98558,2,0,P|165:189|127:200,1,77.0000023498536,6|2,0:0|3:2,0:0:0:0:
51,167,98895,1,2,0:0:0:0:
51,167,98979,1,2,0:0:0:0:
51,167,99064,2,0,L|41:229,3,38.5000011749268,2|2|2|2,3:2|0:0|0:0|0:0,0:0:0:0:
23,242,99401,6,0,P|39:306|43:323,1,77.0000023498536,6|2,3:2|0:0,0:0:0:0:
68,349,99654,1,2,0:0:0:0:
109,343,99738,2,0,P|152:347|192:353,1,77.0000023498536,2|2,3:2|0:0,0:0:0:0:
245,292,100075,5,2,3:2:0:0:
206,216,100243,1,2,0:0:0:0:
241,138,100412,1,2,3:2:0:0:
218,56,100581,2,0,P|287:62|356:69,1,115.50000352478,6|0,0:0|0:0,0:0:0:0:
371,85,100918,6,0,L|416:79,2,38.5000011749268,2|2|2,3:2|0:2|0:2,0:0:0:0:
333,161,101255,1,2,3:2:0:0:
333,161,101592,2,0,P|396:169|430:174,1,77.0000023498536,6|2,3:2|0:0,0:0:0:0:
428,183,101845,1,2,0:0:0:0:
439,203,101929,1,2,0:0:0:0:
441,225,102013,1,2,0:0:0:0:
438,247,102097,6,0,P|432:309|428:336,1,70,6|2,3:2|0:0,0:0:0:0:
378,373,102434,1,2,3:2:0:0:
378,373,102603,1,2,0:0:0:0:
303,353,102772,2,0,P|298:318|295:283,1,70,2|2,3:2|0:0,0:0:0:0:
318,209,103109,1,10,3:2:0:0:
242,222,103277,6,0,P|248:152|248:80,1,140,2|2,0:0|0:0,0:0:0:0:
212,14,103783,1,2,3:2:0:0:
212,14,103951,1,2,0:0:0:0:
145,54,104120,2,0,P|91:63|68:65,1,70,2|2,3:2|0:0,0:0:0:0:
33,129,104457,1,10,3:2:0:0:
33,129,104625,1,2,0:0:0:0:
87,183,104794,6,0,P|121:176|156:172,1,70,2|2,3:2|0:2,0:0:0:0:
226,222,105131,1,2,3:2:0:0:
226,222,105300,1,2,0:2:0:0:
191,290,105468,2,0,P|129:286|42:277,1,140,2|10,3:2|3:2,0:0:0:0:
18,348,105974,5,10,0:2:0:0:
18,348,106311,1,2,0:2:0:0:
51,278,106479,1,2,3:2:0:0:
11,206,106648,2,0,P|51:200|80:195,1,70,2|0,0:2|3:2,0:0:0:0:
135,140,106985,1,2,0:2:0:0:
114,60,107154,2,0,P|163:70|217:79,1,105,10|2,3:2|0:2,0:0:0:0:
249,57,107491,6,0,P|255:98|259:130,1,70,2|2,3:2|0:2,0:0:0:0:
289,201,107828,1,2,3:2:0:0:
289,201,107996,1,2,0:2:0:0:
370,176,108165,2,0,P|364:217|355:321,1,140,2|10,3:2|3:2,0:0:0:0:
301,370,108670,5,2,0:2:0:0:
301,370,109008,1,2,0:2:0:0:
239,324,109176,1,2,3:2:0:0:
166,351,109345,1,2,0:2:0:0:
100,311,109513,2,0,P|61:320|28:322,1,70,2|2,3:2|0:2,0:0:0:0:
17,245,109850,2,0,P|56:236|89:234,1,70,10|2,3:2|0:2,0:0:0:0:
159,256,110187,6,0,P|165:172|167:113,2,140,10|10|2,3:2|3:2|3:2,0:0:0:0:
81,122,111199,1,10,3:2:0:0:
110,51,111367,2,0,P|146:33|182:31,1,70,10|2,0:0|3:2,0:0:0:0:
238,74,111704,2,0,P|274:92|310:94,1,70,10|10,0:2|3:2,0:0:0:0:
373,61,112041,2,0,P|379:103|384:138,1,70,10|2,0:2|3:2,0:0:0:0:
363,204,112378,1,2,3:2:0:0:
439,191,112547,2,0,P|433:233|428:268,1,70,0|0,0:0|3:2,0:0:0:0:
424,298,112800,1,0,3:2:0:0:
424,298,112884,6,0,P|349:286|276:276,1,140,4|2,3:2|3:2,0:0:0:0:
93,267,113558,2,0,P|98:310|103:344,1,70,2|2,3:2|0:0,0:0:0:0:
162,384,113895,1,8,3:2:0:0:
203,318,114064,2,0,P|211:221|215:172,1,140,2|2,0:0|0:0,0:0:0:0:
192,104,114569,1,0,3:2:0:0:
127,146,114738,2,0,P|80:157|58:161,1,70,2|0,0:0|3:2,0:0:0:0:
26,90,115075,1,2,0:0:0:0:
71,27,115243,2,0,P|105:33|139:41,1,70,8|0,3:2|0:0,0:0:0:0:
192,104,115581,5,10,3:2:0:0:
239,44,115749,1,10,0:0:0:0:
314,58,115918,1,10,3:2:0:0:
354,206,116255,5,10,3:2:0:0:
307,266,116423,1,10,0:0:0:0:
232,252,116592,1,10,3:2:0:0:
331,134,116929,5,10,3:2:0:0:
407,124,117097,2,0,L|419:209,1,70,2|12,0:0|3:2,0:0:0:0:
460,256,117434,2,0,P|468:297|448:341,1,70,2|8,0:0|3:2,0:0:0:0:
392,363,117772,1,2,0:0:0:0:
316,352,117940,2,0,L|242:344,1,70,12|10,3:2|0:0,0:0:0:0:
179,311,118277,5,4,3:2:0:0:
179,311,118614,1,2,3:2:0:0:
122,363,118783,1,2,0:0:0:0:
60,317,118951,2,0,P|54:258|50:240,1,70,2|2,3:2|0:2,0:0:0:0:
114,202,119288,1,10,3:2:0:0:
187,226,119457,6,0,P|193:167|197:149,1,70,2|0,0:2|3:2,0:0:0:0:
235,90,119794,2,0,P|229:31|225:13,1,70,2|8,0:2|3:2,0:0:0:0:
195,156,120131,2,0,P|246:167|310:105,2,140,2|2|2,0:2|0:2|0:2,0:0:0:0:
130,114,120974,6,0,P|92:128|60:133,1,70,2|0,3:2|0:0,0:0:0:0:
29,202,121311,1,8,3:2:0:0:
67,268,121479,2,0,P|112:256|177:316,1,140,6|2,0:0|0:0,0:0:0:0:
232,366,121985,1,10,3:2:0:0:
277,303,122154,1,2,0:0:0:0:
343,341,122322,6,0,P|391:352|431:353,1,70,2|0,3:2|0:0,0:0:0:0:
482,322,122659,1,10,3:2:0:0:
450,251,122828,2,0,P|402:262|362:263,1,70,2|0,0:0|3:2,0:0:0:0:
312,228,123165,1,0,0:0:0:0:
351,161,123333,2,0,P|399:172|439:173,1,70,8|2,3:2|0:0,0:0:0:0:
324,83,123670,5,6,3:2:0:0:
265,133,123839,1,2,0:0:0:0:
190,153,124008,1,2,3:2:0:0:
115,133,124176,2,0,P|88:84|144:31,2,140,2|2|2,0:0|0:0|0:0,0:0:0:0:
190,153,125019,6,0,P|197:207|206:296,1,140,8|8,0:0|0:0,0:0:0:0:
170,373,125524,1,8,0:0:0:0:
170,373,125609,1,8,0:0:0:0:
170,373,125693,1,8,3:2:0:0:
296,290,125861,5,10,3:2:0:0:
206,293,126030,2,0,P|163:288|115:280,1,70,2|2,0:0|0:0,0:0:0:0:
50,219,126367,6,0,P|120:233|179:180,1,154.000004699707,6|10,3:2|3:2,0:0:0:0:
209,103,126873,1,2,0:0:0:0:
142,46,127041,2,0,P|122:78|125:116,1,77.0000023498536,2|0,3:2|0:0,0:0:0:0:
178,182,127378,2,0,P|239:190|306:192,1,115.50000352478,10|0,3:2|0:0,0:0:0:0:
330,172,127715,6,0,P|350:140|347:102,1,77.0000023498536,2|2,3:2|0:0,0:0:0:0:
266,267,128052,2,0,P|246:299|249:337,1,77.0000023498536,10|2,3:2|0:0,0:0:0:0:
323,377,128390,2,0,P|354:334|428:329,1,115.50000352478,2|0,3:2|0:0,0:0:0:0:
453,337,128727,1,10,3:2:0:0:
500,267,128895,1,10,0:0:0:0:
345,253,129064,5,2,3:2:0:0:
345,253,129401,2,0,P|338:193|338:167,1,77.0000023498536,10|0,3:2|0:0,0:0:0:0:
455,55,129738,2,0,P|439:134|429:209,1,154.000004699707,2|10,3:2|3:2,0:0:0:0:
377,344,130243,2,0,P|345:296|255:298,1,154.000004699707,2|2,0:0|0:0,0:0:0:0:
168,353,130749,2,0,P|163:308|151:267,1,77.0000023498536,10|2,3:2|0:0,0:0:0:0:
88,214,131086,1,2,3:2:0:0:
153,159,131255,1,2,0:0:0:0:
153,159,131339,1,2,0:0:0:0:
153,159,131423,2,0,L|157:109,3,38.5000011749268,10|8|10|8,3:2|0:0|0:2|0:0,0:0:0:0:
142,80,131760,6,0,P|249:71|300:62,1,154.000004699707,2|10,3:2|3:2,0:0:0:0:
364,111,132266,1,2,0:0:0:0:
433,62,132434,2,0,P|452:98|445:135,1,77.0000023498536,2|0,3:2|0:0,0:0:0:0:
388,195,132772,2,0,P|311:183|241:177,1,115.50000352478,10|0,3:2|0:0,0:0:0:0:
237,202,133109,6,0,P|218:238|225:275,1,77.0000023498536,2|2,3:2|0:0,0:0:0:0:
383,349,133446,2,0,P|402:313|395:276,1,77.0000023498536,10|2,3:2|0:0,0:0:0:0:
284,350,133783,1,2,3:2:0:0:
284,350,134120,1,8,3:2:0:0:
224,273,134288,1,10,0:0:0:0:
151,317,134457,6,0,P|106:323|69:323,1,77.0000023498536,2|0,3:2|0:0,0:0:0:0:
17,260,134794,2,0,P|-2:223|16:144,1,115.50000352478,10|0,3:2|0:0,0:0:0:0:
42,124,135131,2,0,P|87:130|124:130,1,77.0000023498536,2|0,3:2|0:0,0:0:0:0:
188,178,135468,1,2,3:2:0:0:
248,117,135637,6,0,P|238:71|330:41,1,154.000004699707,2|2,0:0|0:0,0:0:0:0:
392,79,136142,2,0,P|381:123|378:160,1,77.0000023498536,2|2,3:2|0:0,0:0:0:0:
400,236,136479,1,10,3:2:0:0:
462,178,136648,1,8,0:0:0:0:
315,214,136817,1,8,3:2:0:0:
321,236,136901,1,8,0:0:0:0:
323,258,136985,1,8,0:0:0:0:
323,281,137069,1,8,0:0:0:0:
320,304,137154,6,0,P|374:274|457:320,1,154.000004699707,6|10,3:2|3:2,0:0:0:0:
384,362,137659,1,2,0:0:0:0:
320,304,137828,2,0,P|278:311|243:314,1,77.0000023498536,2|0,3:2|0:0,0:0:0:0:
176,261,138165,2,0,P|162:208|158:139,1,115.50000352478,10|0,3:2|0:0,0:0:0:0:
184,114,138502,6,0,L|196:30,1,77.0000023498536,2|2,3:2|0:0,0:0:0:0:
325,137,138839,2,0,L|313:221,1,77.0000023498536,10|2,3:2|0:0,0:0:0:0:
287,52,139176,1,2,3:2:0:0:
287,52,139513,1,10,3:2:0:0:
325,137,139682,1,10,0:0:0:0:
394,89,139850,6,0,P|456:78|488:75,1,77.0000023498536,2|0,3:2|0:0,0:0:0:0:
325,137,140187,2,0,P|264:143|214:109,1,115.50000352478,10|0,3:2|0:0,0:0:0:0:
186,89,140524,2,0,P|191:136|196:252,1,154.000004699707,2|10,3:2|3:2,0:0:0:0:
291,329,141030,2,0,P|268:284|345:232,1,154.000004699707,2|2,0:0|0:0,0:0:0:0:
194,331,141536,2,0,P|152:341|118:341,1,77.0000023498536,10|2,3:2|0:0,0:0:0:0:
43,301,141873,1,2,3:2:0:0:
99,238,142041,1,2,0:0:0:0:
49,168,142210,2,0,P|44:127|46:80,1,77.0000023498536,10|2,3:2|0:0,0:0:0:0:
95,22,142547,6,0,P|179:32|257:40,1,154.000004699707,2|8,3:2|3:2,0:0:0:0:
309,97,143052,1,2,0:0:0:0:
279,176,143221,2,0,P|217:180|154:187,1,115.50000352478,2|0,3:2|0:0,0:0:0:0:
130,212,143558,2,0,P|119:258|115:290,1,77.0000023498536,10|0,3:2|0:0,0:0:0:0:
160,359,143895,5,2,3:2:0:0:
223,303,144064,1,2,0:0:0:0:
302,330,144232,1,10,3:2:0:0:
335,251,144401,1,2,0:0:0:0:
422,274,144569,1,2,3:2:0:0:
422,274,144906,1,10,3:2:0:0:
399,192,145075,1,10,0:0:0:0:
448,123,145243,6,0,P|403:117|365:109,1,77.0000023498536,2|0,3:2|0:0,0:0:0:0:
311,170,145581,2,0,P|278:123|213:117,1,115.50000352478,10|0,3:2|0:0,0:0:0:0:
184,129,145918,2,0,P|180:80|175:46,1,77.0000023498536,2|0,3:2|0:0,0:0:0:0:
109,172,146255,1,10,3:2:0:0:
36,128,146423,2,0,P|30:166|28:204,1,77.0000023498536,2|0,0:0|3:0,0:0:0:0:
53,291,146760,6,0,P|93:259|191:272,1,154.000004699707,2|2,0:0|0:0,0:0:0:0:
279,306,147266,2,0,P|273:267|271:229,1,77.0000023498536,2|2,3:2|0:0,0:0:0:0:
359,268,147603,1,2,3:2:0:0:
426,216,147772,1,2,0:0:0:0:
430,326,147940,6,0,P|355:309|279:306,1,154.000004699707,4|2,3:2|0:0,0:0:0:0:
109,172,148614,2,0,P|185:168|260:151,1,154.000004699707,6|2,3:2|0:0,0:0:0:0:
256,192,149288,12,10,153333,3:2:0:0:
221,140,159401,5,2,3:2:0:0:
297,50,159569,1,2,3:2:0:0:
297,50,160075,6,0,B|300:89|300:89|304:134,1,77.0000023498536,14|2,3:2|0:0,0:0:0:0:
387,159,160412,2,0,B|389:121|389:121|393:82,1,77.0000023498536,2|2,3:2|3:2,0:0:0:0:
316,210,160749,1,8,3:2:0:0:
394,243,160918,1,2,0:0:0:0:
324,291,161086,2,0,B|281:285|281:285|243:281,1,77.0000023498536,2|2,0:0|0:0,0:0:0:0:
173,240,161423,5,8,3:2:0:0:
173,240,161592,1,2,0:0:0:0:
106,300,161760,2,0,B|99:262|99:262|91:223,1,77.0000023498536,2|2,3:2|0:0,0:0:0:0:
54,148,162097,1,8,3:2:0:0:
152,77,162266,2,0,B|145:115|145:115|138:153,2,77.0000023498536,2|2|2,0:0|0:0|0:0,0:0:0:0:
223,170,162772,6,0,B|262:159|262:159|303:157,1,77.0000023498536,10|2,3:2|0:0,0:0:0:0:
345,86,163109,2,0,B|384:97|384:97|425:99,1,77.0000023498536,2|2,3:2|3:2,0:0:0:0:
263,59,163446,1,10,3:2:0:0:
299,158,163614,2,0,B|308:197|308:197|310:241,2,77.0000023498536,2|2|2,0:0|0:0|0:0,0:0:0:0:
243,282,164120,5,10,3:2:0:0:
320,314,164288,1,2,0:0:0:0:
253,366,164457,2,0,P|214:360|174:356,1,77.0000023498536,2|2,3:2|0:0,0:0:0:0:
62,260,164794,5,10,3:2:0:0:
94,337,164963,1,2,0:0:0:0:
146,270,165131,2,0,P|140:231|136:191,1,77.0000023498536,2|2,0:0|0:0,0:0:0:0:
195,39,165468,6,0,B|198:78|198:78|202:123,1,77.0000023498536,10|2,3:2|0:0,0:0:0:0:
285,148,165805,2,0,B|287:110|287:110|291:71,1,77.0000023498536,2|2,3:2|0:0,0:0:0:0:
214,199,166142,1,8,3:2:0:0:
292,232,166311,1,2,0:0:0:0:
222,279,166479,2,0,B|179:273|179:273|141:269,1,77.0000023498536,2|2,3:2|0:0,0:0:0:0:
267,358,166817,5,8,3:2:0:0:
267,358,166985,1,2,0:0:0:0:
341,318,167154,2,0,B|384:312|384:312|422:308,1,77.0000023498536,2|2,3:2|0:0,0:0:0:0:
472,244,167491,1,10,3:2:0:0:
379,151,167659,2,0,B|385:194|385:194|389:228,2,77.0000023498536,2|2|2,0:0|3:2|0:0,0:0:0:0:
304,191,168165,6,0,B|265:180|265:180|224:178,1,77.0000023498536,10|2,3:2|0:0,0:0:0:0:
106,119,168502,2,0,B|143:118|143:118|182:107,1,77.0000023498536,2|2,3:2|0:0,0:0:0:0:
280,19,168839,2,0,B|271:58|271:58|269:102,1,77.0000023498536,10|2,3:2|0:0,0:0:0:0:
218,255,169176,2,0,B|227:216|227:216|229:172,1,77.0000023498536,2|2,3:2|0:0,0:0:0:0:
98,244,169513,5,10,3:2:0:0:
148,350,169682,1,2,0:0:0:0:
148,350,169766,1,2,0:0:0:0:
148,350,169850,2,0,L|217:345,3,38.5000011749268,2|2|2|2,3:2|0:0|0:0|0:0,0:0:0:0:
227,337,170187,2,0,L|298:347,3,38.5000011749268,10|2|2|2,3:2|0:0|0:0|0:0,0:0:0:0:
303,361,170524,2,0,L|374:348,3,38.5000011749268,2|2|2|2,3:2|0:0|0:0|0:0,0:0:0:0:
382,344,170861,6,0,L|393:264,1,77.0000023498536,10|0,3:2|0:0,0:0:0:0:
404,183,171199,2,0,L|324:172,1,77.0000023498536,10|0,3:2|0:0,0:0:0:0:
243,161,171536,2,0,L|232:241,1,77.0000023498536,10|0,3:2|0:0,0:0:0:0:
221,322,171873,2,0,L|301:333,1,77.0000023498536,10|0,3:2|0:0,0:0:0:0:
382,344,172210,6,0,L|393:264,1,77.0000023498536,10|0,3:2|0:0,0:0:0:0:
404,183,172547,2,0,L|415:103,1,77.0000023498536,10|0,3:2|0:0,0:0:0:0:
330,96,172884,2,0,L|319:176,1,77.0000023498536,10|0,3:2|0:0,0:0:0:0:
308,257,173221,2,0,L|297:337,1,77.0000023498536,10|0,3:2|0:0,0:0:0:0:
212,327,173558,6,0,L|132:315,1,77.0000023498536,10|0,3:2|0:0,0:0:0:0:
51,303,173895,2,0,L|62:223,1,77.0000023498536,10|0,3:2|0:0,0:0:0:0:
74,142,174232,2,0,L|153:153,1,77.0000023498536,10|0,3:2|0:0,0:0:0:0:
235,166,174569,2,0,L|223:245,1,77.0000023498536,10|0,3:2|0:0,0:0:0:0:
212,327,174906,6,0,L|132:315,1,77.0000023498536,10|0,3:2|0:0,0:0:0:0:
62,227,175243,2,0,L|138:237,1,77.0000023498536,10|0,3:2|0:0,0:0:0:0:
235,166,175581,2,0,L|155:154,1,77.0000023498536,10|0,3:2|0:0,0:0:0:0:
85,66,175918,2,0,L|161:76,1,77.0000023498536,10|0,3:2|0:0,0:0:0:0:
291,96,176255,6,0,B|270:60|270:60|279:24,1,77.0000023498536,10|0,3:2|0:0,0:0:0:0:
360,49,176592,2,0,B|396:28|396:28|432:36,1,77.0000023498536,10|0,3:2|0:0,0:0:0:0:
407,118,176929,2,0,B|428:154|428:154|419:190,1,77.0000023498536,10|0,3:2|0:0,0:0:0:0:
338,165,177266,2,0,B|302:186|302:186|266:177,1,77.0000023498536,10|0,3:2|0:0,0:0:0:0:
291,96,177603,6,0,B|270:60|270:60|279:24,1,77.0000023498536,10|0,3:2|0:0,0:0:0:0:
407,118,177940,2,0,B|428:154|428:154|419:190,1,77.0000023498536,10|0,3:2|0:0,0:0:0:0:
280,247,178277,2,0,B|259:211|259:211|268:175,1,77.0000023498536,10|0,3:2|0:0,0:0:0:0:
396,269,178614,2,0,B|417:305|417:305|408:341,1,77.0000023498536,10|0,3:2|0:0,0:0:0:0:
258,372,178951,6,0,B|218:362|218:362|173:363,1,77.0000023498536,10|0,3:2|0:0,0:0:0:0:
63,301,179288,2,0,B|98:301|98:301|138:291,1,77.0000023498536,10|0,3:2|0:0,0:0:0:0:
280,247,179625,2,0,B|240:237|240:237|195:238,1,77.0000023498536,10|0,3:2|0:0,0:0:0:0:
85,176,179963,2,0,B|120:176|120:176|160:166,1,77.0000023498536,10|0,3:2|0:0,0:0:0:0:
257,92,180300,5,10,3:2:0:0:
257,92,180637,1,10,3:2:0:0:
385,202,180974,5,10,3:2:0:0:
468,191,181142,1,0,0:0:0:0:
460,106,181311,1,10,3:2:0:0:
375,112,181479,1,0,0:0:0:0:
385,202,181648,6,0,L|401:336,1,115.50000352478,10|0,3:2|0:0,0:0:0:0:
406,358,181985,2,0,L|485:347,1,77.0000023498536,10|0,3:2|0:0,0:0:0:0:
317,274,182322,2,0,L|183:293,1,115.50000352478,10|0,3:2|0:0,0:0:0:0:
160,293,182659,2,0,L|150:213,1,77.0000023498536,10|0,3:2|0:0,0:0:0:0:
206,50,182996,6,0,L|222:184,1,115.50000352478,10|0,3:2|0:0,0:0:0:0:
227,206,183333,2,0,L|148:217,1,77.0000023498536,10|0,3:2|0:0,0:0:0:0:
294,99,183670,2,0,L|427:79,1,115.50000352478,10|0,3:2|0:0,0:0:0:0:
451,80,184008,2,0,L|460:159,1,77.0000023498536,10|0,3:2|0:0,0:0:0:0:
478,255,184345,5,10,3:2:0:0:
478,255,184513,1,0,0:0:0:0:
387,297,184682,2,0,L|377:376,1,77.0000023498536,10|0,3:2|0:0,0:0:0:0:
207,364,185019,5,10,3:2:0:0:
207,364,185187,1,0,0:0:0:0:
298,322,185356,2,0,L|307:242,1,77.0000023498536,10|0,3:2|0:0,0:0:0:0:
278,119,185693,5,10,3:2:0:0:
278,119,185861,1,0,0:0:0:0:
202,184,186030,2,0,L|214:262,1,77.0000023498536,10|0,3:2|0:0,0:0:0:0:
47,298,186367,5,10,3:2:0:0:
47,298,186536,1,0,0:0:0:0:
123,233,186704,2,0,L|110:154,1,77.0000023498536,10|0,3:2|0:0,0:0:0:0:
60,41,187041,6,0,L|181:55,1,115.50000352478,10|0,3:2|0:0,0:0:0:0:
219,76,187378,2,0,L|314:64,1,77.0000023498536,10|0,3:2|0:0,0:0:0:0:
455,140,187715,2,0,L|334:154,1,115.50000352478,10|0,3:2|0:0,0:0:0:0:
296,175,188052,2,0,L|201:163,1,77.0000023498536,10|0,3:2|0:0,0:0:0:0:
61,238,188390,6,0,L|182:252,1,115.50000352478,10|0,3:2|0:0,0:0:0:0:
220,273,188727,2,0,L|315:261,1,77.0000023498536,10|0,3:2|0:0,0:0:0:0:
456,337,189064,2,0,L|335:351,1,115.50000352478,10|0,3:2|0:0,0:0:0:0:
297,372,189401,2,0,L|202:360,1,77.0000023498536,10|0,3:2|0:0,0:0:0:0:
74,375,189738,6,0,P|63:337|69:298,1,77.0000023498536,10|0,3:2|0:0,0:0:0:0:
170,177,190075,2,0,P|181:215|175:254,1,77.0000023498536,10|0,3:2|0:0,0:0:0:0:
55,198,190412,2,0,P|44:160|50:121,1,77.0000023498536,10|0,3:2|0:0,0:0:0:0:
151,0,190749,2,0,P|162:38|156:77,1,77.0000023498536,10|0,3:2|0:0,0:0:0:0:
256,192,191086,12,4,192434,3:1:0:0:
230,359,197828,6,0,B|170:181|313:249|250:60,1,315.000012016297,4|0,3:2|0:0,0:0:0:0:
87,138,199176,6,0,P|122:177|139:83,1,210.000008010865,4|4,3:2|3:2,0:0:0:0:
322,288,200524,6,0,P|365:201|360:65,1,231.000007049561,4|0,3:2|3:2,0:0:0:0:
256,192,201873,12,2,203221,0:0:0:0:
256,192,208614,5,6,3:2:0:0:
256,192,209963,1,6,3:2:0:0:
256,192,211311,1,6,3:2:0:0:
362,60,211985,1,6,3:2:0:0:
487,173,212659,6,0,L|474:254,1,70,6|10,3:2|0:0,0:0:0:0:
424,299,212996,2,0,L|437:380,1,70,10|10,3:2|0:0,0:0:0:0:
343,259,213333,2,0,P|277:270|227:273,1,105,10|10,3:2|0:0,0:0:0:0:
209,297,213670,1,10,3:2:0:0:
90,218,213839,5,10,0:0:0:0:
90,218,213923,1,10,0:0:0:0:
90,218,214008,2,0,P|100:263|106:315,1,77.0000023498536,6|0,3:2|0:0,0:0:0:0:
183,203,214345,2,0,P|193:158|199:106,1,77.0000023498536,10|2,3:2|0:0,0:0:0:0:
181,43,214682,1,2,3:2:0:0:
181,43,215019,2,0,P|234:42|276:92,1,115.50000352478,10|0,3:2|0:0,0:0:0:0:
291,124,215356,6,0,P|344:114|391:113,1,77.0000023498536,2|2,3:2|0:0,0:0:0:0:
183,203,215693,2,0,P|144:199|107:191,1,77.0000023498536,10|2,3:2|0:0,0:0:0:0:
280,223,216030,2,0,P|294:279|301:338,1,115.50000352478,2|0,3:2|0:0,0:0:0:0:
295,378,216367,1,10,3:2:0:0:
377,356,216536,1,10,0:0:0:0:
214,331,216704,5,2,3:2:0:0:
214,331,217041,2,0,P|172:341|136:343,1,77.0000023498536,10|0,3:2|0:0,0:0:0:0:
38,232,217378,2,0,P|78:258|176:195,1,154.000004699707,2|10,3:2|3:2,0:0:0:0:
135,125,217884,6,0,P|83:122|45:112,1,77.0000023498536,2|2,0:0|3:2,0:0:0:0:
167,219,218221,1,2,0:0:0:0:
248,176,218390,2,0,P|300:173|338:163,1,77.0000023498536,10|2,3:2|0:0,0:0:0:0:
364,269,218727,2,0,P|326:261|287:260,1,77.0000023498536,2|2,3:2|0:0,0:0:0:0:
321,347,219064,1,10,3:2:0:0:
447,313,219232,5,10,0:2:0:0:
447,313,219317,1,8,0:0:0:0:
447,313,219401,2,0,P|456:238|468:160,1,154.000004699707,2|10,3:2|3:2,0:0:0:0:
429,85,219906,1,2,0:0:0:0:
347,59,220075,2,0,P|355:112|359:145,1,77.0000023498536,2|0,3:2|0:0,0:0:0:0:
379,217,220412,2,0,P|318:212|252:200,1,115.50000352478,10|0,3:2|0:0,0:0:0:0:
233,173,220749,6,0,P|196:188|147:189,1,77.0000023498536,2|2,3:2|0:0,0:0:0:0:
41,294,221086,2,0,P|78:279|127:278,1,77.0000023498536,10|2,3:2|0:0,0:0:0:0:
0,209,221423,1,2,3:2:0:0:
0,209,221760,1,8,3:2:0:0:
61,150,221929,1,10,0:0:0:0:
15,78,222097,6,0,P|9:37|2:1,1,77.0000023498536,2|0,3:2|0:0,0:0:0:0:
148,115,222434,2,0,P|140:152|135:190,1,77.0000023498536,10|0,3:2|0:0,0:0:0:0:
101,33,222772,2,0,P|149:26|261:18,1,154.000004699707,2|2,3:2|3:2,0:0:0:0:
360,109,223277,6,0,P|319:104|281:97,1,77.0000023498536,2|2,0:0|3:2,0:0:0:0:
337,190,223614,1,2,0:0:0:0:
317,272,223783,2,0,P|354:265|393:260,1,77.0000023498536,2|2,3:2|0:0,0:0:0:0:
306,357,224120,2,0,P|268:350|229:345,1,77.0000023498536,10|8,3:2|0:0,0:0:0:0:
163,292,224457,1,8,3:2:0:0:
43,358,224625,5,8,0:0:0:0:
43,358,224710,1,8,0:0:0:0:
43,358,224794,2,0,P|36:279|26:189,1,154.000004699707,6|10,3:2|3:2,0:0:0:0:
101,162,225300,1,2,0:0:0:0:
84,79,225468,2,0,P|122:84|175:91,1,77.0000023498536,2|0,3:2|0:0,0:0:0:0:
235,128,225805,2,0,P|303:121|362:111,1,115.50000352478,10|0,3:2|0:0,0:0:0:0:
383,87,226142,6,0,P|400:47|372:4,1,77.0000023498536,2|2,3:2|0:0,0:0:0:0:
303,43,226479,1,10,3:2:0:0:
219,25,226648,1,2,0:0:0:0:
160,89,226817,2,0,P|143:129|171:172,1,77.0000023498536,2|0,3:2|0:0,0:0:0:0:
224,206,227154,1,10,3:2:0:0:
308,188,227322,1,10,0:0:0:0:
251,288,227491,6,0,P|205:285|167:278,1,77.0000023498536,2|0,3:2|0:0,0:0:0:0:
250,374,227828,2,0,P|286:324|351:328,1,115.50000352478,10|0,3:2|0:0,0:0:0:0:
368,348,228165,2,0,P|415:343|448:336,1,77.0000023498536,2|0,3:2|0:0,0:0:0:0:
495,269,228502,1,10,3:2:0:0:
440,204,228670,6,0,P|385:215|338:134,1,154.000004699707,2|2,0:0|0:0,0:0:0:0:
440,31,229176,2,0,P|429:75|418:110,1,77.0000023498536,10|2,3:2|0:0,0:0:0:0:
284,76,229513,1,2,3:2:0:0:
284,76,229850,2,0,P|229:86|186:94,1,77.0000023498536,10|2,3:2|0:0,0:0:0:0:
46,194,230187,6,0,P|88:169|171:204,1,115.50000352478,2|0,3:2|0:0,0:0:0:0:
180,212,230524,2,0,P|188:255|194:300,1,77.0000023498536,8|2,3:2|0:0,0:0:0:0:
276,334,230861,2,0,P|281:295|288:258,1,77.0000023498536,2|2,3:2|0:0,0:0:0:0:
301,217,231114,1,2,0:0:0:0:
337,194,231199,2,0,P|403:185|451:168,1,115.50000352478,10|0,3:2|0:0,0:0:0:0:
470,131,231536,6,0,P|477:85|481:47,1,77.0000023498536,2|2,3:2|0:0,0:0:0:0:
363,28,231873,2,0,P|370:74|374:112,1,77.0000023498536,10|2,3:2|0:0,0:0:0:0:
376,267,232210,2,0,P|406:229|480:248,1,115.50000352478,2|0,3:2|0:0,0:0:0:0:
491,270,232547,2,0,P|486:308|480:346,1,77.0000023498536,10|10,3:2|0:0,0:0:0:0:
332,375,232884,5,2,3:2:0:0:
332,375,233221,2,0,P|281:363|240:359,1,77.0000023498536,10|0,3:2|0:0,0:0:0:0:
97,314,233558,2,0,P|155:308|217:290,1,115.50000352478,2|0,3:2|0:0,0:0:0:0:
237,259,233895,1,10,3:2:0:0:
198,183,234064,6,0,P|140:177|78:159,1,115.50000352478,2|2,0:0|0:2,0:0:0:0:
58,128,234401,1,2,0:2:0:0:
139,17,234569,2,0,P|149:56|154:102,1,77.0000023498536,10|2,3:2|0:2,0:0:0:0:
289,184,234906,1,2,3:2:0:0:
289,184,235243,2,0,P|293:145|303:108,1,77.0000023498536,2|2,3:2|0:2,0:0:0:0:
399,43,235581,6,0,P|409:123|417:210,1,154.000004699707,6|2,3:2|0:0,0:0:0:0:
96,196,236255,2,0,P|103:119|113:43,1,154.000004699707,6|2,3:2|0:0,0:0:0:0:
258,313,236929,6,0,P|223:294|167:290,1,77.0000023498536,6|2,3:2|0:0,0:0:0:0:
145,282,237182,1,2,0:0:0:0:
106,295,237266,2,0,P|85:261|92:212,1,77.0000023498536,2|2,3:2|0:0,0:0:0:0:
138,158,237603,2,0,P|195:166|219:172,1,77.0000023498536,2|2,3:2|0:0,0:0:0:0:
293,140,237940,1,2,3:2:0:0:
361,191,238109,6,0,P|368:146|372:112,1,77.0000023498536,6|0,0:0|3:2,0:0:0:0:
335,13,238446,1,2,0:0:0:0:
335,13,238530,1,2,0:0:0:0:
335,13,238614,2,0,P|276:24|235:22,1,77.0000023498536,2|6,3:2|0:0,0:0:0:0:
193,78,238951,1,2,3:2:0:0:
112,33,239120,1,2,0:0:0:0:
112,33,239204,1,2,0:0:0:0:
112,33,239288,2,0,L|106:74,3,38.5000011749268,2|2|2|2,3:2|0:0|0:0|0:0,0:0:0:0:
83,108,239625,5,6,3:2:0:0:
141,171,239794,1,2,0:0:0:0:
141,171,239878,1,2,0:0:0:0:
141,171,239963,2,0,P|150:224|154:258,1,77.0000023498536,2|2,3:2|0:0,0:0:0:0:
130,329,240300,5,2,3:2:0:0:
57,287,240468,1,2,0:0:0:0:
62,203,240637,1,2,3:2:0:0:
141,171,240805,2,0,P|200:181|266:192,1,115.50000352478,6|0,0:0|0:0,0:0:0:0:
294,173,241142,6,0,L|306:125,2,38.5000011749268,2|2|2,0:0|0:0|3:2,0:0:0:0:
356,232,241479,2,0,P|407:218|458:215,1,77.0000023498536,6|2,0:0|3:2,0:0:0:0:
483,148,241817,1,2,0:0:0:0:
483,148,241901,1,2,0:0:0:0:
483,148,241985,2,0,P|439:137|424:129,3,38.5000011749268,2|2|2|2,3:2|0:0|0:0|0:0,0:0:0:0:
409,119,242322,6,0,P|397:72|392:39,1,77.0000023498536,6|2,3:2|0:0,0:0:0:0:
354,28,242575,1,2,0:0:0:0:
316,45,242659,2,0,P|264:54|223:56,1,77.0000023498536,2|2,3:2|0:0,0:0:0:0:
164,20,242996,5,2,3:2:0:0:
92,65,243165,1,2,0:0:0:0:
71,147,243333,1,2,3:2:0:0:
101,227,243502,2,0,P|160:235|230:248,1,115.50000352478,6|0,0:0|0:0,0:0:0:0:
253,267,243839,6,0,L|259:315,2,38.5000011749268,2|2|2,0:0|0:0|3:2,0:0:0:0:
306,201,244176,2,0,P|347:195|385:184,1,77.0000023498536,6|2,0:0|3:2,0:0:0:0:
461,217,244513,1,2,0:0:0:0:
461,217,244597,1,2,0:0:0:0:
461,217,244682,2,0,L|471:155,3,38.5000011749268,2|2|2|2,3:2|0:0|0:0|0:0,0:0:0:0:
489,142,245019,6,0,P|473:78|469:61,1,77.0000023498536,6|0,3:2|0:0,0:0:0:0:
329,115,245356,1,2,0:0:0:0:
262,0,245693,6,0,P|246:64|242:81,1,77.0000023498536,6|0,3:2|0:0,0:0:0:0:
121,149,246030,1,2,0:0:0:0:
121,149,246367,6,0,P|173:140|212:223,1,157.500006008148,2|2,3:2|0:0,0:0:0:0:
256,192,247041,12,0,250075,0:0:0:0:
