osu file format v14

[General]
AudioFilename: audio.mp3
AudioLeadIn: 0
PreviewTime: 161981
Countdown: 0
SampleSet: Soft
StackLeniency: 0.7
Mode: 0
LetterboxInBreaks: 0
WidescreenStoryboard: 0

[Editor]
Bookmarks: 128451
DistanceSpacing: 4
BeatDivisor: 4
GridSize: 32
TimelineZoom: 1.8

[Metadata]
Title:Rainbow Days
TitleUnicode:Rainbow Days
Artist:Ceui
ArtistUnicode:Ceui
Creator:Shikibe Mayu
Version:Sakura Rein
Source:月の彼方で逢いましょう SweetSummerRainbow
Tags:Shizuku- Kazato Asa Tsuki no Kanata de Aimashou: Sweet Summer Rainbow TsukikanaSSR tone work's eroge galgame vn visual novel op opening full version jpop j-pop rein sakura pop video game japanese
BeatmapID:2463234
BeatmapSetID:1181354

[Difficulty]
HPDrainRate:6
CircleSize:4
OverallDifficulty:8.5
ApproachRate:9
SliderMultiplier:1.76
SliderTickRate:1

[Events]
//Background and Video events
0,0,"CG_LY02_BASE___000.jpg",0,0
//Break Periods
2,162886,170557
//Storyboard Layer 0 (Background)
//Storyboard Layer 1 (Fail)
//Storyboard Layer 2 (Pass)
//Storyboard Layer 3 (Foreground)
//Storyboard Layer 4 (Overlay)
//Storyboard Sound Samples

[TimingPoints]
334,352.941176470588,4,2,1,60,1,0
11628,-100,4,2,1,50,0,0
20451,-66.6666666666667,4,2,1,50,0,0
20716,-66.6666666666667,4,2,1,5,0,0
20804,-100,4,2,1,50,0,0
21157,-66.6666666666667,4,2,1,50,0,0
21422,-66.6666666666667,4,2,1,5,0,0
21510,-100,4,2,1,50,0,0
23451,-125,4,2,1,50,0,0
25392,-83.3333333333333,4,2,1,50,0,0
25657,-83.3333333333333,4,2,1,5,0,0
25745,-100,4,2,1,50,0,0
28833,-100,4,2,1,5,0,0
28922,-100,4,2,1,50,0,0
33863,-83.3333333333333,4,2,1,50,0,0
34216,-66.6666666666667,4,2,1,50,0,0
34304,-66.6666666666667,4,2,1,5,0,0
34745,-100,4,2,1,50,0,0
37039,-66.6666666666667,4,2,1,50,0,0
37127,-66.6666666666667,4,2,1,5,0,0
37568,-100,4,2,1,50,0,0
39686,-100,4,2,1,60,0,0
47892,-100,4,2,1,5,0,0
47981,-66.6666666666667,4,2,1,50,0,0
48245,-66.6666666666667,4,2,1,5,0,0
48333,-90.9090909090909,4,2,1,60,0,1
57333,-66.6666666666667,4,2,1,60,0,1
57598,-66.6666666666667,4,2,1,5,0,1
57686,-90.9090909090909,4,2,1,60,0,1
58745,-71.4285714285714,4,2,1,60,0,1
59098,-90.9090909090909,4,2,1,60,0,1
70833,-90.9090909090909,4,2,1,5,0,1
70922,-90.9090909090909,4,2,1,60,0,1
73745,-100,4,2,1,60,0,0
84686,-66.6666666666667,4,2,1,60,0,0
84951,-66.6666666666667,4,2,1,5,0,0
85039,-100,4,2,1,50,0,0
92892,-100,4,2,1,5,0,0
92981,-100,4,2,1,50,0,0
93775,-100,4,2,1,5,0,0
93863,-66.6666666666667,4,2,1,50,0,0
94216,-100,4,2,1,50,0,0
94481,-100,4,2,1,5,0,0
94569,-100,4,2,1,50,0,0
94922,-100,4,2,1,50,0,0
101804,-100,4,2,1,60,0,0
107628,-90.9090909090909,4,2,1,60,0,1
110716,-90.9090909090909,4,2,1,5,0,1
110804,-90.9090909090909,4,2,1,60,0,1
116628,-66.6666666666667,4,2,1,60,0,1
116892,-66.6666666666667,4,2,1,5,0,1
116981,-90.9090909090909,4,2,1,60,0,1
124833,-90.9090909090909,4,2,1,5,0,1
124922,-55.5555555555556,4,2,1,60,0,1
125186,-66.6666666666667,4,2,1,5,0,1
125275,-90.9090909090909,4,2,1,60,0,1
133039,-90.9090909090909,4,2,1,60,0,0
133303,-90.9090909090909,4,2,1,5,0,0
133392,-90.9090909090909,4,2,1,60,0,0
135775,-90.9090909090909,4,2,1,5,0,0
135863,-90.9090909090909,4,2,1,60,0,0
138598,-90.9090909090909,4,2,1,5,0,0
138686,-90.9090909090909,4,2,1,60,0,0
141422,-90.9090909090909,4,2,1,5,0,0
141510,-90.9090909090909,4,2,1,60,0,0
144333,-125,4,2,1,50,0,0
152275,-90.9090909090909,4,2,1,60,0,0
171157,-62.5,4,2,1,60,0,0
171422,-62.5,4,2,1,5,0,0
171510,-125,4,2,1,60,0,0
171598,-125,4,2,1,5,0,0
171686,-62.5,4,2,1,60,0,0
172216,-90.9090909090909,4,2,1,60,0,0
173098,-76.9230769230769,4,2,1,60,0,0
173451,-76.9230769230769,4,2,1,60,0,0
173981,-90.9090909090909,4,2,1,60,0,1
183775,-90.9090909090909,4,2,1,5,0,1
183863,-90.9090909090909,4,2,1,60,0,1
193745,-100,4,2,1,60,0,0
205039,-90.9090909090909,4,2,1,60,0,0
205833,-90.9090909090909,4,2,1,5,0,0
205922,-90.9090909090909,4,2,1,60,0,0
210951,-90.9090909090909,4,2,1,5,0,0
211039,-90.9090909090909,4,2,1,60,0,0
214569,-125,4,2,1,60,0,0
216157,-200,4,2,1,60,0,0
222333,-200,4,2,1,20,0,0

[Colours]
Combo1 : 193,199,236
Combo2 : 240,226,185
Combo3 : 236,223,217
Combo4 : 133,200,222

[HitObjects]
363,204,334,6,0,L|349:117,1,88,4|0,3:2|0:0,0:0:0:0:
343,77,598,1,2,0:0:0:0:
343,77,686,1,2,0:0:0:0:
456,262,863,2,0,P|370:250|295:293,1,176,2|0,0:0|3:0,0:0:0:0:
27,109,1569,6,0,B|87:131|87:131|143:115|170:60,1,176,6|2,3:1|0:0,0:0:0:0:
169,61,2098,1,2,0:0:0:0:
221,234,2275,1,0,3:0:0:0:
32,192,2451,2,0,P|43:234|55:276,1,88,2|0,0:0|3:0,0:0:0:0:
221,234,2804,1,2,0:2:0:0:
192,384,2981,1,0,0:0:0:0:
363,204,3157,6,0,P|404:217|446:232,1,88,2|2,3:2|3:2,0:0:0:0:
276,145,3510,1,2,0:0:0:0:
316,36,3686,5,2,3:2:0:0:
363,204,3863,1,2,3:2:0:0:
316,36,4039,1,0,0:0:0:0:
475,80,4216,5,0,3:0:0:0:
276,145,4392,2,0,P|193:114|106:107,1,176,8|0,0:3|0:0,0:0:0:0:
276,145,4922,1,8,0:3:0:0:
103,211,5098,1,2,0:0:0:0:
224,242,5275,5,2,0:0:0:0:
106,107,5451,1,8,0:3:0:0:
144,302,5628,1,4,0:3:0:0:
184,162,5804,1,4,0:3:0:0:
0,360,5981,6,0,P|43:361|84:377,1,88,6|0,3:2|0:0,0:0:0:0:
144,302,6333,1,2,0:0:0:0:
313,340,6510,6,0,P|377:286|362:203,1,176,0|0,3:2|0:2,0:0:0:0:
313,340,7039,1,0,3:0:0:0:
461,172,7216,6,2,P|374:155|292:124,1,176,6|2,3:2|2:2,2:1:0:0:
103,185,7745,1,2,0:0:0:0:
228,251,7922,1,2,3:2:0:0:
173,86,8098,5,2,0:0:0:0:
0,136,8275,1,2,0:0:0:0:
122,270,8451,2,0,P|115:227|103:185,1,88,6|2,3:2|0:0,0:0:0:0:
272,5,8804,5,2,3:2:0:0:
231,201,8981,1,8,0:0:0:0:
80,64,9157,1,8,0:0:0:0:
329,136,9333,5,0,3:0:0:0:
103,184,9510,1,8,0:0:0:0:
180,0,9686,1,8,0:0:0:0:
327,232,9863,5,2,3:2:0:0:
256,192,9951,12,0,11275,0:0:0:0:
75,70,11628,6,0,B|177:52|132:123|241:102,1,176,4|8,3:2|0:0,0:0:0:0:
422,59,12157,1,0,3:0:0:0:
336,123,12333,2,0,P|328:79|317:36,1,88,2|0,0:0|3:0,0:0:0:0:
269,183,12686,1,8,0:0:0:0:
446,320,12863,6,0,P|386:259|302:273,1,176,2|0,0:0|3:0,0:0:0:0:
140,240,13392,1,8,0:0:0:0:
193,380,13569,2,0,P|203:337|211:294,1,88,2|0,0:0|3:0,0:0:0:0:
44,143,13922,5,2,3:2:0:0:
182,102,14098,1,10,0:0:0:0:
65,15,14275,1,2,0:0:0:0:
187,105,14451,6,0,P|270:79|358:76,1,176,2|8,3:2|0:0,0:0:0:0:
462,16,14981,1,0,3:0:0:0:
505,180,15157,6,0,P|462:169|419:160,1,88,2|0,0:0|3:0,0:0:0:0:
286,215,15510,1,8,0:0:0:0:
330,379,15686,6,0,P|390:319|375:236,1,176,2|0,0:0|3:0,0:0:0:0:
330,379,16216,1,8,0:0:0:0:
211,294,16392,2,0,P|167:301|125:312,1,88,2|0,0:0|3:0,0:0:0:0:
1,158,16745,2,0,P|43:168|86:176,1,88,2|8,3:2|0:0,0:0:0:0:
187,105,17098,1,0,3:0:0:0:
286,215,17275,6,0,P|296:173|304:130,1,88,2|0,3:2|0:0,0:0:0:0:
364,17,17628,2,0,P|426:74|511:65,1,176,8|2,0:0|0:0,0:0:0:0:
304,128,18157,1,0,3:0:0:0:
245,31,18333,1,10,0:0:0:0:
242,221,18510,6,0,P|321:184|408:175,1,176,2|0,0:0|0:0,0:0:0:0:
242,221,19039,1,8,0:0:0:0:
147,163,19216,2,0,P|137:205|131:249,1,88,2|0,0:0|3:0,0:0:0:0:
0,369,19569,2,0,P|9:326|15:282,1,88,2|8,0:0|0:0,0:0:0:0:
112,90,19922,5,2,0:0:0:0:
112,90,20010,1,2,0:0:0:0:
112,90,20098,2,0,P|143:119|146:162,1,88,0|0,3:0|0:0,0:0:0:0:
127,377,20451,6,0,B|171:380|199:351|199:351|236:367|236:367|263:338|307:343,1,198.000007553101,12|0,0:0|0:0,0:0:0:0:
354,361,20804,2,0,P|365:318|368:274,1,88,0|0,3:0|0:0,0:0:0:0:
112,90,21157,6,0,B|51:126|72:201|72:201|108:209|126:241,1,198.000007553101,12|0,0:0|0:0,0:0:0:0:
139,281,21510,2,0,P|181:269|225:266,1,88,2|0,3:2|0:0,0:0:0:0:
396,185,21863,1,10,0:0:0:0:
265,117,22039,5,0,3:0:0:0:
265,117,22128,1,0,3:0:0:0:
265,117,22216,1,10,0:0:0:0:
368,274,22392,1,0,3:0:0:0:
487,135,22569,5,14,0:0:0:0:
306,198,22745,1,0,3:0:0:0:
352,29,22922,1,2,0:0:0:0:
88,183,23628,6,0,P|54:171|19:167,2,70.4,2|0|2,0:0|0:0|0:0,0:0:0:0:
139,281,24157,1,2,0:0:0:0:
139,281,24245,1,2,0:0:0:0:
138,281,24333,2,0,P|192:238|260:247,1,140.8,2|0,0:0|0:0,0:0:0:0:
307,343,24863,2,0,P|318:273|337:205,1,140.8,2|0,0:0|3:0,0:0:0:0:
282,117,25392,6,0,B|259:59|311:20|311:20|311:45|324:65,1,158.399995166016,12|0,0:1|0:0,0:0:0:0:
337,205,25745,6,0,P|270:151|186:164,1,176,4|8,3:2|0:0,0:0:0:0:
41,193,26275,1,2,0:0:0:0:
41,193,26363,1,2,0:0:0:0:
41,192,26451,2,0,P|50:148|54:105,1,88,0|2,3:0|0:0,0:0:0:0:
127,232,26804,1,8,0:0:0:0:
0,384,26981,6,0,P|57:322|140:336,1,176,2|0,3:2|3:0,0:0:0:0:
329,300,27510,1,8,0:0:0:0:
249,365,27686,2,0,P|237:322|230:279,1,88,0|2,3:0|0:0,0:0:0:0:
421,233,28039,1,0,3:0:0:0:
289,147,28216,1,8,0:0:0:0:
329,300,28392,1,2,0:0:0:0:
512,130,28569,6,0,P|446:121|383:100,1,132,2|0,3:2|0:0,0:0:0:0:
344,76,28922,1,10,0:0:0:0:
149,137,29098,2,0,P|113:112|70:104,1,88,2|0,0:0|3:0,0:0:0:0:
267,3,29451,2,0,P|242:38|234:81,1,88,2|8,0:0|0:0,0:0:0:0:
121,265,29804,6,0,P|203:234|290:229,1,176,2|0,0:0|3:0,0:0:0:0:
121,265,30333,1,8,0:0:0:0:
32,205,30510,1,0,3:0:0:0:
93,369,30686,2,0,P|135:357|179:353,1,88,2|0,0:0|3:0,0:0:0:0:
444,253,31039,1,10,0:0:0:0:
442,253,31393,6,0,B|410:261|388:282|388:282|329:272|291:229,1,176,2|8,3:2|0:0,0:0:0:0:
405,152,31922,1,0,3:0:0:0:
293,58,32098,2,0,P|304:100|310:144,1,88,2|0,0:0|3:0,0:0:0:0:
390,59,32451,1,8,0:0:0:0:
216,122,32628,6,0,P|139:80|53:87,1,176,2|8,0:0|0:0,0:0:0:0:
96,283,33157,2,0,P|101:239|110:196,1,88,0|0,3:0|0:0,0:0:0:0:
167,363,33510,5,8,0:0:0:0:
0,333,33686,1,0,3:0:0:0:
167,363,33863,6,0,B|253:363|225:306|313:323,1,158.399995166016,4|0,0:1|0:0,0:0:0:0:
336,336,34216,6,0,P|340:303|353:273,1,66.0000025177003,10|0,0:0|0:0,0:0:0:0:
336,336,34745,5,0,3:0:0:0:
489,219,34922,1,0,3:0:0:0:
312,160,35098,1,8,0:0:0:0:
436,309,35275,1,0,3:0:0:0:
423,135,35451,6,0,P|429:91|440:48,1,88,10|0,0:0|0:0,0:0:0:0:
238,0,35804,2,0,P|248:42|255:86,1,88,10|0,0:0|0:0,0:0:0:0:
136,211,36157,6,0,B|105:220|74:231|74:231|16:205|4:150,1,176,10|0,0:0|3:0,0:0:0:0:
136,211,36686,1,8,0:0:0:0:
19,330,36863,1,0,3:0:0:0:
225,379,37039,6,0,P|229:346|240:315,1,66.0000025177003,6|0,3:2|0:0,0:0:0:0:
225,379,37569,5,0,3:0:0:0:
393,288,37745,1,0,3:0:0:0:
223,229,37922,1,8,0:0:0:0:
370,384,38098,1,8,0:3:0:0:
404,179,38275,6,0,P|364:199|322:209,1,88,10|0,0:0|3:0,0:0:0:0:
224,378,38628,2,0,P|185:358|143:348,1,88,10|0,0:0|3:0,0:0:0:0:
76,179,38981,6,0,P|138:237|222:228,1,176,12|8,0:1|0:0,0:0:0:0:
76,179,39510,1,0,3:0:0:0:
114,9,39686,6,0,B|160:32|160:32|195:91|166:150,1,176,4|8,3:2|0:0,0:0:0:0:
114,9,40216,1,0,3:0:0:0:
312,160,40392,6,0,P|377:105|462:115,1,176,4|8,3:2|0:0,0:0:0:0:
290,28,40922,1,0,3:0:0:0:
408,208,41098,6,0,P|397:250|391:294,1,88,4|0,3:2|0:0,0:0:0:0:
179,233,41451,2,0,P|172:189|162:146,1,88,0|8,3:0|0:0,0:0:0:0:
104,331,41804,1,0,3:0:0:0:
283,262,41981,1,8,0:0:0:0:
81,230,42157,1,0,3:0:0:0:
240,372,42333,1,10,0:0:0:0:
240,372,42686,5,4,3:2:0:0:
391,220,42863,1,8,0:0:0:0:
200,232,43039,2,0,P|242:244|282:261,1,88,8|0,0:0|3:0,0:0:0:0:
479,146,43392,5,8,0:0:0:0:
303,65,43569,1,8,0:3:0:0:
391,220,43745,1,4,0:3:0:0:
303,65,43922,6,0,B|269:51|237:36|237:36|181:51|160:104,1,176,14|8,0:0|0:0,0:0:0:0:
112,259,44451,1,8,0:0:0:0:
257,179,44628,1,0,3:0:0:0:
52,137,44804,5,10,0:0:0:0:
212,258,44981,1,0,3:0:0:0:
27,340,45157,2,0,P|20:296|12:253,1,88,10|0,0:0|3:0,0:0:0:0:
161,101,45510,5,8,0:0:0:0:
112,259,45686,1,0,3:0:0:0:
52,137,45863,1,8,0:0:0:0:
212,258,46039,1,0,3:0:0:0:
288,32,46216,5,8,0:0:0:0:
163,189,46392,1,8,0:3:0:0:
128,0,46569,1,4,0:3:0:0:
359,222,46745,1,10,0:2:0:0:
359,222,47628,6,0,B|316:198|316:198|272:202|248:241,1,132,2|0,0:0|0:0,0:0:0:0:
292,336,47981,6,0,B|257:272|182:289|182:289|169:322|128:322,1,198.000007553101,2|0,0:0|0:0,0:0:0:0:
46,377,48333,6,0,P|105:305|76:217,1,193.600005908203,4|10,3:2|0:0,0:0:0:0:
105,108,48863,2,0,P|59:124|12:135,1,96.8000029541017,2|0,0:0|3:0,0:0:0:0:
185,184,49216,1,2,3:2:0:0:
133,10,49392,1,8,0:0:0:0:
185,184,49569,6,0,B|290:202|248:112|360:133,1,193.600005908203,2|0,0:0|3:0,0:0:0:0:
432,246,50098,2,0,P|384:236|337:226,1,96.8000029541017,8|0,0:0|3:0,0:0:0:0:
261,353,50451,5,2,0:0:0:0:
185,184,50628,1,0,3:0:0:0:
261,353,50804,2,0,P|224:321|177:317,1,96.8000029541017,10|0,0:0|0:0,0:0:0:0:
36,128,51157,6,0,B|72:135|98:154|98:154|170:141|194:82,1,193.600005908203,2|10,3:2|0:0,0:0:0:0:
381,38,51686,2,0,P|368:84|360:132,1,96.8000029541017,2|0,0:0|3:0,0:0:0:0:
381,264,52039,1,2,3:2:0:0:
268,151,52216,1,10,0:0:0:0:
337,378,52392,6,0,P|398:308|490:321,1,193.600005908203,2|0,0:0|3:0,0:0:0:0:
252,246,52922,2,0,P|258:198|267:150,1,96.8000029541017,8|0,0:0|0:0,0:0:0:0:
381,264,53275,1,2,0:0:0:0:
200,364,53451,5,0,3:0:0:0:
200,364,53539,1,0,3:0:0:0:
200,364,53628,2,0,P|151:358|104:348,1,96.8000029541017,8|2,0:0|0:0,0:0:0:0:
9,206,53981,6,0,B|46:193|72:180|72:180|135:202|156:267,1,193.600005908203,6|8,3:2|0:0,0:0:0:0:
298,48,54510,1,2,0:0:0:0:
451,116,54686,2,0,B|346:96|376:168|267:150,1,193.600005908203,2|8,3:2|0:0,0:0:0:0:
172,0,55216,1,8,0:3:0:0:
172,0,55304,1,8,0:3:0:0:
172,0,55392,2,0,P|186:46|196:93,1,96.8000029541017,4|4,0:3|0:3,0:0:0:0:
87,84,55745,1,4,0:3:0:0:
298,48,55922,6,0,B|334:44|366:32|366:32|430:58|451:116,1,193.600005908203,6|0,3:2|3:0,0:0:0:0:
280,245,56451,2,0,P|271:197|266:149,1,96.8000029541017,14|0,0:1|0:0,0:0:0:0:
225,359,56804,5,8,0:3:0:0:
403,304,56981,1,4,0:3:0:0:
403,304,57069,1,4,0:3:0:0:
403,304,57157,1,4,0:3:0:0:
225,359,57333,6,0,B|190:328|162:306|162:306|98:308|65:361,1,198.000007553101,14|0,0:0|0:0,0:0:0:0:
65,360,57686,1,2,3:2:0:0:
41,159,57863,2,0,P|85:177|133:185,1,96.8000029541017,14|2,0:0|0:0,0:0:0:0:
160,160,58128,1,2,0:0:0:0:
164,164,58216,6,0,L|210:150,1,48.4000014770508,0|0,3:0|0:0,0:0:0:0:
386,70,58392,1,0,3:0:0:0:
428,76,58480,1,8,0:0:0:0:
458,106,58568,1,8,0:0:0:0:
465,148,58656,1,0,3:0:0:0:
446,186,58745,6,0,B|346:169|380:249|276:232,1,184.799994360352,2|8,3:2|0:0,0:0:0:0:
252,251,59098,6,0,L|258:299,1,48.4000014770508,6|0,3:2|0:0,0:0:0:0:
133,185,59275,2,0,L|139:137,1,48.4000014770508,0|0,3:0|0:0,0:0:0:0:
287,86,59451,2,0,L|293:134,1,48.4000014770508,0|0,3:0|0:0,0:0:0:0:
150,284,59628,6,0,P|106:264|58:256,1,96.8000029541017,4|0,3:2|0:0,0:0:0:0:
125,0,59981,2,0,B|141:65|141:65|119:112|119:112|134:185,1,193.600005908203,8|2,0:0|0:0,0:0:0:0:
125,0,60510,1,0,3:0:0:0:
306,142,60686,2,0,P|259:130|211:124,1,96.8000029541017,10|2,0:0|0:0,0:0:0:0:
348,234,61039,6,0,P|406:162|375:74,1,193.600005908203,2|8,3:2|0:0,0:0:0:0:
320,338,61569,1,2,0:0:0:0:
320,338,61657,1,2,0:0:0:0:
320,337,61745,2,0,P|366:324|414:317,1,96.8000029541017,2|2,3:2|3:2,0:0:0:0:
306,142,62098,1,8,0:0:0:0:
134,185,62275,6,0,P|180:197|228:204,1,96.8000029541017,2|0,0:0|3:0,0:0:0:0:
91,295,62628,1,2,0:0:0:0:
56,105,62804,1,8,0:0:0:0:
91,295,62981,6,0,B|188:278|162:361|269:340,1,193.600005908203,2|0,0:0|3:0,0:0:0:0:
321,160,63510,1,8,0:0:0:0:
512,219,63686,6,0,B|477:208|450:194|450:194|382:214|357:274,1,193.600005908203,2|0,3:2|3:0,0:0:0:0:
221,149,64216,1,10,0:0:0:0:
374,46,64392,1,0,3:0:0:0:
282,242,64569,5,2,3:2:0:0:
221,13,64745,1,10,0:0:0:0:
64,202,64922,1,10,0:0:0:0:
64,201,65275,6,0,P|129:134|221:149,1,193.600005908203,10|4,0:0|3:1,0:0:0:0:
118,50,65804,1,2,0:0:0:0:
155,219,65981,2,0,B|179:353|179:353|156:333|127:328,1,193.600005908203,2|8,3:2|0:0,0:0:0:0:
283,243,66510,5,2,0:0:0:0:
286,246,66598,1,2,0:0:0:0:
290,250,66686,1,10,0:0:0:0:
499,313,66863,1,2,0:0:0:0:
325,375,67039,1,0,3:0:0:0:
428,212,67216,2,0,B|451:169|451:169|444:117|396:93,1,145.200004431152,10|8,0:0|0:0,0:0:0:0:
375,88,67569,6,0,P|353:96|329:101,1,48.4000014770508,10|0,0:0|0:0,0:0:0:0:
170,14,67745,2,0,P|193:18|216:27,1,48.4000014770508,8|0,0:0|0:0,0:0:0:0:
220,193,67922,2,0,P|224:169|233:146,1,48.4000014770508,0|0,3:0|0:0,0:0:0:0:
62,87,68098,6,0,B|77:157|77:157|57:200|57:200|72:273,1,193.600005908203,4|10,3:2|0:0,0:0:0:0:
266,330,68628,1,2,0:0:0:0:
269,333,68716,1,2,0:0:0:0:
273,337,68804,1,0,3:0:0:0:
220,193,68981,1,0,3:0:0:0:
73,380,69157,2,0,P|111:352|158:354,1,96.8000029541017,10|0,0:0|0:0,0:0:0:0:
317,243,69510,6,0,P|407:275|503:287,1,193.600005908203,2|8,3:2|0:0,0:0:0:0:
317,243,70039,1,2,3:2:0:0:
427,87,70216,2,0,P|407:131|400:179,1,96.8000029541017,0|0,0:0|3:0,0:0:0:0:
354,345,70569,2,0,P|299:299|228:300,1,145.200004431152,10|0,0:0|0:0,0:0:0:0:
199,328,70922,5,4,3:2:0:0:
9,235,71098,1,2,0:0:0:0:
182,117,71275,1,8,0:0:0:0:
74,348,71451,1,2,0:0:0:0:
253,219,71628,5,2,3:2:0:0:
55,129,71804,1,2,0:0:0:0:
199,328,71981,1,8,0:0:0:0:
347,109,72157,6,0,B|298:51|243:80|243:80|224:116|180:116,1,193.600005908203,6|8,3:2|0:0,0:0:0:0:
189,124,72598,1,8,0:0:0:0:
189,124,72686,2,0,L|198:76,1,48.4000014770508,0|0,3:0|0:0,0:0:0:0:
55,129,72863,2,0,L|46:177,1,48.4000014770508,0|0,3:0|0:0,0:0:0:0:
70,333,73039,5,0,3:0:0:0:
73,317,73128,1,8,0:0:0:0:
78,300,73216,1,8,0:0:0:0:
122,281,73304,1,0,3:0:0:0:
168,292,73392,1,0,3:0:0:0:
199,328,73480,1,0,3:0:0:0:
230,364,73569,1,0,3:0:0:0:
276,375,73657,1,0,3:0:0:0:
320,356,73745,6,0,P|325:312|332:268,1,88,4|2,3:2|0:0,0:0:0:0:
336,224,74010,1,2,0:0:0:0:
336,224,74098,1,8,0:0:0:0:
496,124,74275,6,0,B|471:138|454:159|454:159|392:149|346:107,1,176,2|2,0:0|3:2,0:0:0:0:
167,208,74804,1,8,0:0:0:0:
90,84,74981,2,0,P|150:23|234:33,1,176,2|0,0:0|3:0,0:0:0:0:
86,248,75510,2,0,P|45:231|2:219,1,88,8|2,0:0|0:0,0:0:0:0:
178,108,75863,5,0,3:0:0:0:
336,224,76039,1,2,0:0:0:0:
332,20,76216,1,8,0:0:0:0:
232,221,76392,1,2,0:0:0:0:
431,129,76569,5,2,3:2:0:0:
237,26,76745,1,0,3:0:0:0:
336,224,76922,1,10,0:0:0:0:
111,193,77098,5,0,3:0:0:0:
346,107,77275,1,2,0:0:0:0:
284,322,77451,1,0,3:0:0:0:
178,108,77628,5,10,0:0:0:0:
11,223,77804,2,0,P|63:290|148:293,1,176,2|0,0:0|3:0,0:0:0:0:
196,173,78333,2,0,P|153:183|110:193,1,88,8|2,0:0|0:0,0:0:0:0:
233,25,78686,5,0,3:0:0:0:
336,224,78863,1,4,0:1:0:0:
404,90,79039,1,8,0:0:0:0:
196,173,79216,1,2,0:0:0:0:
367,309,79392,6,0,P|408:294|451:287,1,88,4|2,3:2|0:0,0:0:0:0:
284,150,79745,1,10,0:0:0:0:
199,328,79922,6,0,B|150:302|150:302|91:314|57:372,1,176,2|0,0:0|3:0,0:0:0:0:
199,328,80451,1,8,0:0:0:0:
336,224,80628,6,0,P|252:236|196:173,1,176,2|2,0:2|3:2,0:0:0:0:
143,3,81157,1,10,0:0:0:0:
284,150,81333,1,2,0:0:0:0:
275,9,81510,5,0,3:0:0:0:
73,94,81686,1,2,0:0:0:0:
284,150,81863,1,10,0:0:0:0:
58,227,82039,1,2,0:0:0:0:
225,353,82216,5,8,0:0:0:0:
154,148,82392,1,0,3:0:0:0:
377,233,82569,1,0,3:0:0:0:
96,318,82745,5,8,0:0:0:0:
291,246,82922,1,0,3:0:0:0:
59,126,83098,1,8,0:0:0:0:
225,353,83275,6,0,B|271:321|271:321|329:338|373:381,1,176,6|8,3:2|0:0,0:0:0:0:
429,157,83804,1,10,0:0:0:0:
291,246,83981,1,8,0:0:0:0:
480,323,84157,1,0,3:0:0:0:
283,129,84333,1,8,0:0:0:0:
512,76,84510,5,0,3:0:0:0:
512,76,84598,1,0,3:0:0:0:
512,76,84686,2,0,B|472:9|395:32|395:32|395:62|366:83,1,198.000007553101,8|0,0:0|0:0,0:0:0:0:
283,129,85039,6,0,P|197:109|109:102,1,176,4|8,3:2|0:0,0:0:0:0:
153,239,85569,1,0,3:0:0:0:
1,203,85745,2,0,P|44:199|87:189,1,88,2|0,0:0|3:0,0:0:0:0:
225,293,86098,1,10,0:0:0:0:
203,384,86275,6,0,P|142:324|157:241,1,176,2|0,0:0|3:0,0:0:0:0:
203,384,86804,1,8,0:0:0:0:
309,315,86981,2,0,P|267:301|224:292,1,88,2|0,0:0|3:0,0:0:0:0:
344,209,87333,1,2,0:0:0:0:
409,384,87510,2,0,P|418:340|431:299,1,88,10|2,0:0|0:0,0:0:0:0:
488,156,87863,6,0,P|428:216|343:208,1,176,2|8,3:2|0:0,0:0:0:0:
258,110,88392,1,0,3:0:0:0:
410,43,88569,2,0,P|394:83|391:127,1,88,2|0,0:0|3:0,0:0:0:0:
308,17,88922,1,10,0:0:0:0:
153,239,89098,6,0,P|85:186|2:204,1,176,2|0,0:0|3:0,0:0:0:0:
153,239,89628,1,8,0:0:0:0:
77,363,89804,2,0,P|71:319|60:276,1,88,2|0,0:0|3:0,0:0:0:0:
260,206,90157,2,0,P|249:248|243:292,1,88,2|8,0:0|0:0,0:0:0:0:
153,239,90510,1,2,0:0:0:0:
319,375,90686,6,0,B|412:374|379:308|479:322,1,176,2|8,3:2|0:0,0:0:0:0:
410,76,91216,2,0,P|340:123|343:208,1,176,0|0,3:0|3:0,0:0:0:0:
415,160,91745,1,10,0:0:0:0:
258,110,91922,6,0,P|215:120|171:124,1,88,2|0,0:0|3:0,0:0:0:0:
89,219,92275,2,0,P|46:208|2:204,1,88,2|8,0:0|0:0,0:0:0:0:
243,292,92628,2,0,P|293:251|357:254,1,132,2|0,0:0|0:0,0:0:0:0:
384,290,92981,2,0,P|373:332|369:376,1,88,2|10,0:0|0:0,0:0:0:0:
485,268,93333,1,0,3:0:0:0:
415,160,93510,6,0,B|475:171|475:171|513:153|506:114,1,132,2|0,3:2|0:0,0:0:0:0:
435,64,93863,6,0,P|372:83|306:92,1,132.000005035401,12|2,0:0|0:0,0:0:0:0:
75,271,94216,6,0,P|53:211|95:164,1,132,2|0,3:2|0:0,0:0:0:0:
96,128,94569,6,0,P|137:140|181:146,1,88,10|0,0:0|0:0,0:0:0:0:
321,337,94922,5,0,3:0:0:0:
165,237,95098,1,8,0:3:0:0:
330,163,95275,1,4,0:3:0:0:
208,328,95451,5,4,0:3:0:0:
208,328,95539,1,4,0:3:0:0:
208,328,95628,1,4,0:3:0:0:
411,249,95804,1,4,0:3:0:0:
250,120,95981,1,2,0:0:0:0:
250,119,96333,6,0,P|309:59|394:66,1,176,4|8,3:2|0:0,0:0:0:0:
280,233,96863,1,0,3:0:0:0:
280,233,96951,1,0,3:0:0:0:
279,232,97039,2,0,P|237:217|194:208,1,88,8|0,0:0|3:0,0:0:0:0:
127,135,97392,1,0,3:0:0:0:
25,261,97569,6,0,P|83:321|166:305,1,176,10|0,0:0|3:0,0:0:0:0:
250,119,98098,1,8,0:0:0:0:
367,240,98275,2,0,P|281:218|194:208,1,176,2|0,0:0|3:0,0:0:0:0:
367,240,98804,1,4,0:3:0:0:
475,154,98981,1,4,0:3:0:0:
512,384,99157,6,0,P|447:329|364:347,1,176,2|8,3:2|0:0,0:0:0:0:
194,208,99686,1,0,3:0:0:0:
339,146,99863,1,8,0:0:0:0:
224,304,100039,1,4,0:3:0:0:
367,240,100216,1,4,0:3:0:0:
238,117,100392,6,0,P|248:74|253:30,1,88,2|0,0:0|3:0,0:0:0:0:
9,174,100745,2,0,P|19:216|24:260,1,88,2|8,0:0|0:0,0:0:0:0:
174,346,101099,1,0,3:0:0:0:
289,190,101275,1,8,0:0:0:0:
289,384,101451,1,8,0:3:0:0:
174,224,101628,1,0,3:0:0:0:
357,288,101804,6,0,P|405:217|392:132,1,176,4|8,3:2|0:0,0:0:0:0:
357,288,102333,1,0,3:0:0:0:
488,88,102510,6,0,P|400:79|317:52,1,176,4|0,3:2|3:0,0:0:0:0:
169,9,103039,1,8,0:0:0:0:
203,188,103216,2,0,P|215:145|219:102,1,88,4|0,3:2|0:0,0:0:0:0:
11,27,103569,1,0,3:0:0:0:
129,130,103745,1,8,0:0:0:0:
0,206,103922,5,2,3:2:0:0:
0,206,104010,1,0,3:0:0:0:
0,206,104098,1,10,0:0:0:0:
219,102,104275,1,2,3:2:0:0:
219,102,104628,6,0,B|271:76|271:76|331:92|364:143,1,176,12|8,0:0|0:0,0:0:0:0:
287,341,105157,1,8,0:0:0:0:
512,239,105333,1,0,3:0:0:0:
267,178,105510,1,8,0:0:0:0:
434,376,105686,5,2,0:0:0:0:
418,126,105863,1,0,3:0:0:0:
202,268,106039,2,0,P|160:257|117:249,1,88,14|0,0:1|0:0,0:0:0:0:
179,160,106392,5,8,0:0:0:0:
206,380,106569,1,8,0:0:0:0:
179,160,106745,1,0,3:0:0:0:
0,288,106922,5,8,0:0:0:0:
0,288,107010,1,8,0:0:0:0:
0,288,107098,1,0,3:0:0:0:
155,309,107275,1,8,0:0:0:0:
188,280,107363,1,8,0:0:0:0:
205,240,107451,1,0,3:0:0:0:
201,197,107539,1,0,3:0:0:0:
179,160,107628,6,0,B|216:190|216:190|298:196|338:129,1,193.600005908203,4|10,3:2|0:0,0:0:0:0:
268,0,108157,2,0,P|256:46|248:94,1,96.8000029541017,2|0,0:0|3:0,0:0:0:0:
468,260,108510,1,2,3:2:0:0:
439,55,108686,1,8,0:0:0:0:
468,260,108863,6,0,B|367:226|390:315|284:285,1,193.600005908203,2|0,0:0|3:0,0:0:0:0:
121,254,109392,2,0,P|134:300|141:348,1,96.8000029541017,8|0,0:0|3:0,0:0:0:0:
225,215,109745,1,2,0:0:0:0:
54,168,109922,1,0,3:0:0:0:
184,31,110098,2,0,P|170:77|163:125,1,96.8000029541017,10|0,0:0|0:0,0:0:0:0:
287,341,110451,6,0,P|351:309|423:311,1,145.200004431152,2|0,3:2|0:0,0:0:0:0:
458,327,110804,1,10,0:0:0:0:
336,108,110981,2,0,P|312:149|317:196,1,96.8000029541017,2|0,0:0|3:0,0:0:0:0:
407,173,111333,5,2,3:2:0:0:
203,138,111510,1,10,0:0:0:0:
407,173,111686,2,0,B|476:193|476:193|526:154|506:84,1,193.600005908203,2|0,0:0|3:0,0:0:0:0:
317,196,112216,2,0,P|327:243|334:291,1,96.8000029541017,8|0,0:0|0:0,0:0:0:0:
100,190,112569,5,2,0:0:0:0:
289,115,112745,1,0,3:0:0:0:
289,115,112833,1,0,3:0:0:0:
289,115,112922,2,0,P|299:67|306:19,1,96.8000029541017,8|2,0:0|0:0,0:0:0:0:
286,273,113275,6,0,B|239:220|179:235|179:235|161:270|122:277,1,193.600005908203,6|8,3:2|0:0,0:0:0:0:
286,273,113804,1,2,0:0:0:0:
400,222,113981,6,0,B|358:275|367:359|367:359|413:342,1,193.600005908203,2|8,3:2|0:0,0:0:0:0:
512,136,114510,1,8,0:3:0:0:
512,136,114598,1,8,0:3:0:0:
510,136,114686,2,0,P|461:139|415:126,1,96.8000029541017,4|4,0:3|0:3,0:0:0:0:
305,13,115039,1,4,0:3:0:0:
243,219,115216,6,0,B|291:170|291:170|358:170|400:222,1,193.600005908203,6|0,3:2|3:0,0:0:0:0:
266,350,115745,2,0,P|219:338|171:327,1,96.8000029541017,14|0,0:0|0:0,0:0:0:0:
43,137,116098,5,8,0:3:0:0:
243,219,116275,1,4,0:3:0:0:
243,219,116363,1,4,0:3:0:0:
243,219,116451,1,4,0:3:0:0:
220,5,116628,6,0,B|169:-15|141:34|141:34|149:79|158:136,1,198.000007553101,14|0,0:0|0:0,0:0:0:0:
158,136,116981,1,2,3:2:0:0:
83,339,117157,1,10,0:0:0:0:
43,137,117333,1,2,0:0:0:0:
243,219,117510,6,0,P|289:207|337:199,1,96.8000029541017,0|0,3:0|3:0,0:0:0:0:
378,224,117775,1,8,0:0:0:0:
378,224,117863,2,0,L|386:176,1,48.4000014770508,8|0,0:0|3:0,0:0:0:0:
262,21,118039,6,0,L|244:116,1,96.8000029541017,2|0,3:2|0:0,0:0:0:0:
331,106,118304,1,8,0:0:0:0:
336,102,118392,2,0,L|383:93,1,48.4000014770508,4|0,3:1|0:0,0:0:0:0:
425,232,118569,2,0,L|377:223,1,48.4000014770508,0|0,3:0|0:0,0:0:0:0:
487,112,118745,2,0,L|496:159,1,48.4000014770508,0|0,3:0|0:0,0:0:0:0:
512,326,118922,6,0,P|464:325|421:348,1,96.8000029541017,4|0,3:2|0:0,0:0:0:0:
221,272,119275,2,0,P|312:289|376:222,1,193.600005908203,8|2,0:0|0:0,0:0:0:0:
221,272,119804,1,0,3:0:0:0:
292,102,119981,2,0,P|283:149|280:197,1,96.8000029541017,10|2,0:0|0:0,0:0:0:0:
192,372,120333,6,0,B|138:344|138:344|100:292|119:218,1,193.600005908203,2|8,3:2|0:0,0:0:0:0:
292,102,120863,1,2,0:0:0:0:
292,102,120951,1,2,0:0:0:0:
292,102,121039,2,0,P|336:119|384:125,1,96.8000029541017,2|2,3:2|3:2,0:0:0:0:
350,13,121392,1,8,0:0:0:0:
500,227,121569,6,0,P|408:209|344:276,1,193.600005908203,2|2,0:0|0:0,0:0:0:0:
500,227,122098,1,8,0:0:0:0:
368,375,122275,2,0,P|322:360|274:353,1,96.8000029541017,2|0,0:0|0:0,0:0:0:0:
129,207,122628,1,2,3:2:0:0:
154,377,122804,1,8,0:0:0:0:
37,190,122981,6,0,P|99:120|191:133,1,193.600005908203,2|0,3:2|3:0,0:0:0:0:
387,217,123510,1,10,0:0:0:0:
338,25,123686,1,0,3:0:0:0:
274,224,123863,5,2,3:2:0:0:
484,158,124039,1,10,0:0:0:0:
420,366,124216,1,10,0:0:0:0:
420,366,124569,6,0,P|365:320|295:329,1,145.200004431152,10|0,0:0|0:0,0:0:0:0:
168,344,124922,6,0,B|196:343|215:364|215:364|282:356|312:290|273:223,1,237.599992749024,4|0,3:2|0:0,0:0:0:0:
242,209,125275,5,2,3:2:0:0:
39,132,125451,1,0,0:0:0:0:
186,61,125628,1,8,0:0:0:0:
68,236,125804,5,2,0:0:0:0:
68,236,125892,1,2,0:0:0:0:
68,235,125981,2,0,P|116:239|161:256,1,96.8000029541017,10|2,0:0|0:0,0:0:0:0:
256,128,126333,1,4,3:1:0:0:
397,311,126510,6,0,B|337:328|337:328|275:301|272:223,1,193.600005908203,10|2,0:0|0:0,0:0:0:0:
313,197,126951,1,0,0:0:0:0:
313,197,127039,2,0,L|359:184,1,48.4000014770508,8|0,0:0|0:0,0:0:0:0:
483,211,127216,2,0,L|436:223,1,48.4000014770508,0|0,3:0|0:0,0:0:0:0:
271,117,127392,6,0,P|339:53|431:72,1,193.600005908203,4|10,3:2|0:0,0:0:0:0:
271,117,127922,1,2,0:0:0:0:
180,2,128098,2,0,P|166:48|164:96,1,96.8000029541017,0|0,3:0|3:0,0:0:0:0:
54,226,128451,2,0,P|52:177|38:131,1,96.8000029541017,10|0,0:0|0:0,0:0:0:0:
61,338,128804,6,0,B|103:283|159:310|159:310|184:345|231:338,1,193.600005908203,2|8,3:2|0:0,0:0:0:0:
271,117,129333,2,0,B|227:97|202:139|202:139|212:187|225:249,1,193.600005908203,2|0,3:2|3:0,0:0:0:0:
378,368,129863,2,0,L|358:273,1,96.8000029541017,10|0,0:0|0:0,0:0:0:0:
477,84,130216,5,4,3:2:0:0:
304,207,130392,1,2,0:0:0:0:
494,288,130569,1,8,0:0:0:0:
356,86,130745,1,2,0:0:0:0:
278,321,130922,5,2,3:2:0:0:
438,204,131098,1,2,0:0:0:0:
199,129,131275,1,8,0:0:0:0:
96,304,131451,6,0,P|140:286|188:278,1,96.8000029541017,4|0,3:2|3:0,0:0:0:0:
304,207,131804,1,8,0:0:0:0:
304,207,131892,1,8,0:0:0:0:
304,207,131981,2,0,L|256:197,1,48.4000014770508,0|0,3:0|0:0,0:0:0:0:
151,138,132157,2,0,L|198:128,1,48.4000014770508,2|0,3:2|0:0,0:0:0:0:
358,273,132333,1,0,3:0:0:0:
361,280,132422,1,8,0:0:0:0:
363,289,132510,5,10,0:0:0:0:
411,287,132598,1,0,3:0:0:0:
453,264,132686,1,0,3:0:0:0:
479,224,132774,1,0,3:0:0:0:
483,175,132862,1,0,3:0:0:0:
465,131,132951,1,0,3:0:0:0:
428,101,133039,6,0,P|357:116|286:133,1,145.200004431152,6|0,3:2|0:0,0:0:0:0:
286,132,133392,1,10,0:0:0:0:
180,2,133569,2,0,P|154:42|160:89,1,96.8000029541017,2|0,0:0|3:0,0:0:0:0:
226,327,133922,1,2,0:0:0:0:
49,278,134098,1,8,0:0:0:0:
226,327,134275,6,0,P|313:288|410:286,1,193.600005908203,2|2,3:2|3:2,0:0:0:0:
286,132,134804,1,10,0:0:0:0:
464,51,134981,1,0,3:0:0:0:
322,242,135157,6,0,P|275:230|227:223,1,96.8000029541017,2|0,3:2|0:0,0:0:0:0:
5,71,135510,2,0,B|48:95|48:95|96:84|129:47,1,145.200004431152,10|0,0:0|0:0,0:0:0:0:
221,11,135863,6,0,P|209:58|198:105,1,96.8000029541017,2|0,3:2|0:0,0:0:0:0:
46,287,136216,2,0,B|81:240|141:262|141:262|160:306|211:307,1,193.600005908203,10|0,0:0|3:0,0:0:0:0:
342,147,136745,2,0,P|329:193|321:241,1,96.8000029541017,2|8,3:2|0:0,0:0:0:0:
512,373,137098,6,0,B|461:328|461:328|400:340|350:384,1,193.600005908203,2|0,3:2|3:0,0:0:0:0:
248,180,137628,1,8,0:0:0:0:
406,216,137804,2,0,P|452:203|500:195,1,96.8000029541017,2|0,0:0|3:0,0:0:0:0:
273,76,138157,5,2,0:0:0:0:
321,241,138333,2,0,P|251:230|198:277,1,145.200004431152,14|0,0:0|0:0,0:0:0:0:
124,345,138686,6,0,P|113:297|102:250,1,96.8000029541017,2|0,3:2|0:0,0:0:0:0:
14,328,139039,1,10,0:0:0:0:
77,145,139216,2,0,P|121:163|169:170,1,96.8000029541017,2|0,0:0|3:0,0:0:0:0:
354,69,139569,1,2,0:0:0:0:
214,13,139745,1,8,0:0:0:0:
321,241,139922,6,0,B|351:228|381:228|381:228|418:242|418:242|467:223|483:180,1,193.600005908203,2|0,0:0|3:0,0:0:0:0:
321,241,140451,1,10,0:0:0:0:
428,333,140628,1,0,3:0:0:0:
240,376,140804,2,0,P|228:328|215:282,1,96.8000029541017,2|0,3:2|3:0,0:0:0:0:
114,28,141157,2,0,P|63:76|77:144,1,145.200004431152,10|0,0:0|0:0,0:0:0:0:
63,190,141510,6,0,B|132:174|132:174|175:196|175:196|247:179,1,193.600005908203,2|10,3:2|0:0,0:0:0:0:
435,144,142039,1,2,0:0:0:0:
306,11,142216,1,0,3:0:0:0:
356,225,142392,1,2,0:0:0:0:
407,34,142569,1,8,0:0:0:0:
509,348,142745,6,0,B|486:300|424:289|424:289|392:324|346:318,1,193.600005908203,6|8,0:0|0:0,0:0:0:0:
150,246,143275,1,8,0:0:0:0:
318,142,143451,1,0,3:0:0:0:
225,348,143628,5,8,0:0:0:0:
76,143,143804,1,0,3:0:0:0:
356,225,143981,1,12,0:0:0:0:
356,225,144333,6,0,P|367:155|380:86,1,140.8,8|0,0:3|0:0,0:0:0:0:
437,271,144863,1,8,0:3:0:0:
437,270,145039,6,0,P|385:315|317:307,1,140.8,4|8,0:3|0:0,0:0:0:0:
255,211,145569,1,0,0:0:0:0:
158,311,145745,5,8,0:3:0:0:
158,311,145922,2,0,L|226:295,1,70.4
80,371,146275,2,0,B|52:329|52:329|73:241,1,140.8,4|0,0:3|0:0,0:0:0:0:
16,118,146804,2,0,L|0:186,1,70.4,8|0,0:0|0:0,0:0:0:0:
185,151,147157,5,12,0:3:0:0:
84,23,147333,1,4,0:3:0:0:
84,23,147686,2,0,P|138:64|205:54,1,140.8,4|4,0:3|0:3,0:0:0:0:
323,105,148216,2,0,L|343:31,1,70.4,8|0,0:0|0:0,0:0:0:0:
436,167,148569,5,8,0:3:0:0:
289,228,148745,1,0,0:0:0:0:
289,228,149098,2,0,B|243:217|243:217|201:229|172:275,1,140.8,4|0,0:3|3:0,0:0:0:0:
123,364,149628,1,8,0:0:0:0:
61,205,149804,1,8,0:0:0:0:
123,364,149981,6,0,P|178:324|247:332,1,140.8,0|0,3:0|3:0,0:0:0:0:
449,315,150510,1,8,0:3:0:0:
384,372,150686,2,0,B|354:343|354:343|376:246,1,140.8,0|8,3:0|0:0,0:0:0:0:
449,315,151216,1,4,0:3:0:0:
417,157,151392,6,0,P|364:200|296:189,1,140.8,2|8,0:0|0:3,0:0:0:0:
326,52,151922,2,0,L|341:120,1,70.4,8|0,0:0|3:0,0:0:0:0:
188,202,152275,5,8,0:0:0:0:
235,44,152451,1,8,0:0:0:0:
23,300,152628,6,0,B|62:249|115:256|115:256|144:297|188:292,1,193.600005908203,4|8,3:2|0:0,0:0:0:0:
238,129,153157,1,0,3:0:0:0:
476,328,153333,2,0,B|411:301|411:301|352:313|317:373,1,193.600005908203,12|0,0:0|3:0,0:0:0:0:
316,374,154039,6,0,P|248:309|266:218,1,193.600005908203,12|0,0:0|3:0,0:0:0:0:
452,168,154569,1,8,0:0:0:0:
307,15,154745,1,0,3:0:0:0:
336,281,154922,5,8,0:3:0:0:
101,168,155098,1,4,0:3:0:0:
264,131,155275,1,4,0:3:0:0:
45,27,155451,6,0,B|3:7|-24:50|-24:50|-12:101|0:159,1,193.600005908203,4|0,3:2|0:0,0:0:0:0:
121,262,155981,2,0,L|100:167,1,96.8000029541017,0|0,3:0|0:0,0:0:0:0:
44,348,156333,5,8,0:3:0:0:
216,248,156510,1,4,0:3:0:0:
24,224,156686,1,4,0:3:0:0:
176,368,156863,1,12,0:1:0:0:
176,368,157216,5,0,3:0:0:0:
385,268,157392,1,8,0:0:0:0:
216,128,157569,1,0,3:0:0:0:
303,362,157745,5,8,0:0:0:0:
121,262,157922,1,8,0:0:0:0:
344,112,158098,1,0,3:0:0:0:
179,340,158275,1,12,0:0:0:0:
179,340,158628,5,8,0:0:0:0:
424,231,158804,1,8,0:3:0:0:
208,72,158981,1,4,0:3:0:0:
303,362,159157,5,8,0:0:0:0:
56,202,159333,1,0,3:0:0:0:
344,104,159510,1,0,3:0:0:0:
179,340,159686,1,10,0:0:0:0:
256,192,159775,12,2,162686,0:0:0:0:
34,348,171157,6,0,B|71:294|148:310|148:310|169:354|211:354,1,211.2,2|0,3:2|0:0,0:0:0:0:
284,307,171510,2,0,L|279:272,1,35.2,0|0,3:0|0:0,0:0:0:0:
428,111,171686,6,0,B|394:169|326:161|326:161|310:193|310:193|236:177|202:234,1,281.6,12|2,0:0|3:2,0:0:0:0:
210,241,172128,1,0,3:0:0:0:
210,241,172216,2,0,L|220:193,1,48.4000014770508,10|0,0:0|0:0,0:0:0:0:
149,67,172392,2,0,L|138:114,1,48.4000014770508,2|0,0:0|0:0,0:0:0:0:
122,260,172569,6,0,P|77:241|30:234,1,96.8000029541017,8|0,0:3|0:0,0:0:0:0:
30,235,172833,1,4,0:3:0:0:
30,235,172922,2,0,L|40:187,1,48.4000014770508,4|0,0:3|0:0,0:0:0:0:
149,67,173098,6,0,B|185:94|185:94|258:92|295:42,1,171.599992144776,8|8,0:0|0:0,0:0:0:0:
295,42,173451,2,0,L|280:97,1,57.1999973815919,6|0,3:1|0:0,0:0:0:0:
343,209,173628,2,0,L|357:153,1,57.1999973815919,0|0,3:0|3:0,0:0:0:0:
471,69,173804,2,0,L|456:124,1,57.1999973815919,0|0,3:0|3:0,0:0:0:0:
512,302,173981,6,0,B|483:293|456:277|456:277|396:296|359:362,1,193.600005908203,4|8,3:2|0:0,0:0:0:0:
343,209,174510,1,2,0:0:0:0:
191,277,174686,2,0,P|237:289|283:305,1,96.8000029541017,2|2,3:2|0:0,0:0:0:0:
107,212,175039,1,10,0:0:0:0:
140,378,175216,1,2,0:0:0:0:
19,186,175392,6,0,P|87:123|176:149,1,193.600005908203,2|8,3:2|0:0,0:0:0:0:
327,94,175922,1,2,0:0:0:0:
327,94,176010,1,2,0:0:0:0:
327,93,176098,2,0,P|339:46|356:0,1,96.8000029541017,2|2,3:2|0:0,0:0:0:0:
221,58,176451,1,10,0:0:0:0:
266,210,176628,6,0,P|337:148|430:161,1,193.600005908203,2|0,0:0|3:0,0:0:0:0:
266,210,177157,1,8,0:0:0:0:
341,342,177333,2,0,P|356:296|364:249,1,96.8000029541017,2|0,0:0|3:0,0:0:0:0:
172,159,177686,1,2,0:0:0:0:
202,355,177863,1,8,0:0:0:0:
0,327,178039,6,0,B|43:308|64:258|64:258|114:237|157:264,1,193.600005908203,2|0,0:0|3:0,0:0:0:0:
341,342,178569,1,10,0:0:0:0:
172,159,178745,1,0,3:0:0:0:
437,109,178922,5,2,3:2:0:0:
268,298,179098,1,10,0:0:0:0:
220,58,179275,1,10,0:0:0:0:
220,58,179628,6,0,P|155:125|62:117,1,193.600005908203,8|12,0:0|0:0,0:0:0:0:
184,233,180157,1,0,3:0:0:0:
404,59,180333,2,0,P|379:152|363:248,1,193.600005908203,10|8,0:0|0:0,0:0:0:0:
404,59,180863,1,0,3:0:0:0:
455,310,181039,5,10,0:0:0:0:
279,184,181216,1,10,0:0:0:0:
494,106,181392,1,8,3:0:0:0:
325,346,181569,1,10,0:0:0:0:
325,346,181922,5,10,0:0:0:0:
260,86,182098,1,4,0:3:0:0:
508,221,182275,1,4,0:3:0:0:
227,290,182451,6,0,B|192:284|161:270|161:270|104:286|57:336,1,193.600005908203,4|8,3:2|0:0,0:0:0:0:
227,290,182981,1,2,0:0:0:0:
68,196,183157,2,0,P|73:147|75:99,1,96.8000029541017,2|0,3:2|0:0,0:0:0:0:
267,54,183510,2,0,B|290:66|306:85|306:85|352:76|393:48,1,145.200004431152,10|0,0:0|0:0,0:0:0:0:
474,32,183863,6,0,P|405:95|423:186,1,193.600005908203,2|8,3:2|0:0,0:0:0:0:
512,357,184392,2,0,B|470:309|402:315|402:315|381:345|340:344,1,193.600005908203,2|0,3:2|0:0,0:0:0:0:
244,194,184922,2,0,P|232:241|226:289,1,96.8000029541017,8|0,0:0|0:0,0:0:0:0:
21,179,185275,5,4,3:2:0:0:
238,95,185451,1,2,0:0:0:0:
91,0,185628,1,10,0:0:0:0:
148,231,185804,1,2,0:0:0:0:
324,43,185981,5,0,3:0:0:0:
99,157,186157,1,2,0:0:0:0:
334,258,186333,1,10,0:0:0:0:
105,366,186510,6,0,P|58:353|10:346,1,96.8000029541017,2|0,0:0|3:0,0:0:0:0:
226,288,186863,1,6,0:1:0:0:
99,157,187039,1,8,0:0:0:0:
200,382,187216,1,2,0:0:0:0:
293,121,187392,5,0,3:2:0:0:
98,267,187569,1,2,0:0:0:0:
340,344,187745,1,10,0:0:0:0:
340,344,188098,6,0,B|391:364|391:364|460:332|450:251,1,193.600005908203,6|10,3:2|0:0,0:0:0:0:
252,296,188628,1,2,0:0:0:0:
322,113,188804,2,0,P|329:160|335:208,1,96.8000029541017,2|0,3:2|0:0,0:0:0:0:
437,152,189157,1,8,0:0:0:0:
229,88,189333,6,0,P|292:19|385:30,1,193.600005908203,2|0,0:0|3:0,0:0:0:0:
229,88,189863,1,8,0:0:0:0:
93,60,190039,2,0,P|107:106|116:153,1,96.8000029541017,2|0,0:0|3:0,0:0:0:0:
52,348,190392,1,0,3:0:0:0:
250,283,190569,1,10,0:0:0:0:
250,283,190922,5,4,3:2:0:0:
25,229,191098,1,2,0:0:0:0:
249,371,191275,1,10,0:0:0:0:
214,127,191451,1,2,0:0:0:0:
151,354,191628,5,0,3:0:0:0:
377,257,191804,1,2,0:0:0:0:
116,153,191981,1,10,0:0:0:0:
340,344,192157,1,6,3:2:0:0:
340,344,192510,5,8,0:0:0:0:
126,262,192686,1,8,0:3:0:0:
126,262,192775,1,8,0:3:0:0:
126,262,192863,1,8,0:3:0:0:
310,119,193039,2,0,L|294:165,1,48.4000014770508,4|0,0:3|0:0,0:0:0:0:
112,358,193216,5,8,0:0:0:0:
97,352,193304,1,8,0:0:0:0:
79,345,193392,1,0,3:0:0:0:
44,311,193480,1,0,3:0:0:0:
30,265,193568,1,0,3:0:0:0:
39,218,193656,1,0,3:0:0:0:
69,181,193745,6,0,P|62:137|54:94,1,88,4|2,3:2|0:0,0:0:0:0:
36,53,194010,1,2,0:0:0:0:
36,53,194098,1,10,0:0:0:0:
169,172,194275,6,0,B|199:179|226:192|226:192|289:173|309:118,1,176,2|2,0:0|3:2,0:0:0:0:
169,172,194804,1,10,0:0:0:0:
340,344,194981,6,0,P|423:358|484:299,1,176,2|2,3:2|0:0,0:0:0:0:
297,200,195510,1,10,0:0:0:0:
461,105,195686,1,2,0:0:0:0:
320,26,195863,6,0,P|312:69|306:113,1,88,0|2,3:0|0:0,0:0:0:0:
471,201,196216,1,10,0:0:0:0:
243,308,196392,1,2,0:0:0:0:
306,113,196569,5,0,3:0:0:0:
136,224,196745,1,2,0:0:0:0:
391,269,196922,1,8,0:0:0:0:
194,99,197098,1,6,0:0:0:0:
194,99,197451,5,2,0:0:0:0:
374,11,197628,1,10,0:0:0:0:
227,207,197804,6,0,P|166:147|83:162,1,176,2|2,0:0|3:2,0:0:0:0:
227,207,198333,1,10,0:0:0:0:
329,95,198510,1,2,0:0:0:0:
136,224,198686,5,0,3:0:0:0:
250,12,198863,1,6,0:0:0:0:
310,247,199039,1,10,0:0:0:0:
83,161,199216,1,0,0:0:0:0:
285,354,199392,6,0,P|327:341|370:335,1,88,0|2,3:0|0:0,0:0:0:0:
227,207,199745,1,10,0:0:0:0:
445,382,199922,6,0,P|505:322|493:237,1,176,2|2,0:0|3:2,0:0:0:0:
445,382,200451,1,10,0:0:0:0:
396,160,200628,6,0,P|311:185|226:206,1,176,2|2,0:0|3:2,0:0:0:0:
1,124,201157,1,10,0:0:0:0:
181,21,201333,1,2,0:0:0:0:
104,214,201510,5,0,3:0:0:0:
60,10,201686,1,2,0:0:0:0:
220,124,201863,1,10,0:0:0:0:
1,223,202039,1,2,0:0:0:0:
220,327,202216,5,2,3:2:0:0:
123,128,202392,2,0,P|109:169|103:213,1,88,2|8,0:0|0:0,0:0:0:0:
220,327,202745,2,0,P|305:306|392:293,1,176,2|2,0:0|3:2,0:0:0:0:
284,225,203275,1,8,0:0:0:0:
415,378,203451,6,0,P|478:323|466:240,1,176,2|8,0:0|0:0,0:0:0:0:
291,179,203981,1,8,0:0:0:0:
434,97,204157,1,0,3:0:0:0:
392,293,204333,5,8,0:0:0:0:
392,293,204422,1,8,0:0:0:0:
392,293,204510,2,0,L|348:302,1,44,4|0,3:2|0:0,0:0:0:0:
247,169,204686,2,0,L|290:178,1,44,2|0,0:0|0:0,0:0:0:0:
220,327,204863,2,0,L|210:283,1,44,2|0,0:0|0:0,0:0:0:0:
72,187,205039,6,0,L|112:376,1,193.600005908203,4|8,3:2|0:0,0:0:0:0:
251,258,205569,2,0,P|320:279|391:292,1,145.200004431152,2|0,0:0|0:0,0:0:0:0:
424,279,205922,1,2,3:2:0:0:
364,90,206098,2,0,P|355:137|345:184,1,96.8000029541017,10|0,0:0|0:0,0:0:0:0:
468,70,206451,5,2,3:2:0:0:
299,15,206628,2,0,P|251:23|204:33,1,96.8000029541017,2|8,0:0|0:0,0:0:0:0:
108,215,206981,1,2,0:0:0:0:
243,136,207157,5,2,3:2:0:0:
41,73,207333,1,2,0:0:0:0:
201,239,207510,1,10,0:0:0:0:
112,4,207686,1,2,0:0:0:0:
17,261,207863,6,0,B|51:256|85:240|85:240|107:254|137:258|137:258|169:243|200:238,1,193.600005908203,2|8,3:2|0:0,0:0:0:0:
388,268,208392,1,0,3:0:0:0:
300,149,208569,1,2,0:0:0:0:
231,368,208745,2,0,P|277:354|325:351,1,96.8000029541017,2|10,3:2|0:0,0:0:0:0:
501,69,209098,5,0,3:0:0:0:
388,268,209275,1,2,0:0:0:0:
371,39,209451,1,2,3:2:0:0:
512,205,209628,1,8,0:0:0:0:
300,149,209804,2,0,P|252:156|204:167,1,96.8000029541017,2|0,0:0|3:0,0:0:0:0:
20,80,210157,1,2,0:0:0:0:
201,11,210333,1,14,0:0:0:0:
81,186,210510,1,2,0:0:0:0:
281,295,210686,6,0,P|327:241|321:171,1,145.200004431152,2|0,3:2|0:0,0:0:0:0:
300,149,211039,1,10,0:0:0:0:
224,358,211216,2,0,B|266:396|313:376|313:376|353:359|353:359|404:372,1,193.600005908203,2|0,0:0|3:0,0:0:0:0:
453,221,211745,1,10,0:0:0:0:
280,295,211922,6,0,P|188:322|92:338,1,193.600005908203,2|0,0:0|3:0,0:0:0:0:
8,240,212451,1,8,0:0:0:0:
138,149,212628,2,0,P|158:191|154:239,1,96.8000029541017,2|0,0:0|3:0,0:0:0:0:
0,94,212981,2,0,P|47:86|95:76,1,96.8000029541017,2|8,0:0|0:0,0:0:0:0:
294,80,213333,5,2,0:0:0:0:
294,80,213422,1,2,0:0:0:0:
294,80,213510,1,8,0:3:0:0:
155,239,213686,1,4,0:3:0:0:
176,29,213863,1,4,0:3:0:0:
287,200,214039,6,0,P|355:174|427:167,1,145.200004431152,10|0,0:0|0:0,0:0:0:0:
454,149,214392,1,14,0:1:0:0:
421,332,214569,6,0,B|302:286|340:389|224:358,1,211.2,4|8,0:2|0:0,0:0:0:0:
24,288,215275,1,8,0:0:0:0:
200,232,215451,1,8,0:0:0:0:
96,376,215628,1,8,0:0:0:0:
96,376,215981,5,6,3:2:0:0:
97,114,216157,1,6,3:2:0:0:
256,192,216245,12,4,222333,0:3:0:0:
