osu file format v14

[General]
AudioFilename: audio.mp3
AudioLeadIn: 0
PreviewTime: 161981
Countdown: 0
SampleSet: Soft
StackLeniency: 0.7
Mode: 0
LetterboxInBreaks: 0
WidescreenStoryboard: 1

[Editor]
Bookmarks: 128451
DistanceSpacing: 4
BeatDivisor: 4
GridSize: 32
TimelineZoom: 1.8

[Metadata]
Title:Rainbow Days
TitleUnicode:Rainbow Days
Artist:Ceui
ArtistUnicode:Ceui
Creator:Shikibe Mayu
Version:Normal
Source:月の彼方で逢いましょう SweetSummerRainbow
Tags:Shizuku- Kazato Asa Tsuki no Kanata de Aimashou: Sweet Summer Rainbow TsukikanaSSR tone work's eroge galgame vn visual novel op opening full version jpop j-pop rein sakura pop video game japanese
BeatmapID:2466018
BeatmapSetID:1181354

[Difficulty]
HPDrainRate:4
CircleSize:3
OverallDifficulty:4.5
ApproachRate:5.5
SliderMultiplier:0.959999999999999
SliderTickRate:1

[Events]
//Background and Video events
0,0,"CG_LY02_BASE___000.jpg",0,0
//Break Periods
2,76769,83914
2,162886,170032
//Storyboard Layer 0 (Background)
//Storyboard Layer 1 (Fail)
//Storyboard Layer 2 (Pass)
//Storyboard Layer 3 (Foreground)
//Storyboard Layer 4 (Overlay)
//Storyboard Sound Samples

[TimingPoints]
334,352.941176470588,4,2,1,60,1,0
11628,-100,4,2,1,50,0,0
20451,-100,4,2,1,50,0,0
20716,-100,4,2,1,5,0,0
20804,-100,4,2,1,50,0,0
21157,-100,4,2,1,50,0,0
21422,-100,4,2,1,5,0,0
21510,-100,4,2,1,50,0,0
23451,-100,4,2,1,50,0,0
25392,-100,4,2,1,50,0,0
25657,-100,4,2,1,5,0,0
25745,-100,4,2,1,50,0,0
28833,-100,4,2,1,5,0,0
28922,-100,4,2,1,50,0,0
33863,-100,4,2,1,50,0,0
34216,-100,4,2,1,50,0,0
34304,-100,4,2,1,5,0,0
34745,-100,4,2,1,50,0,0
37039,-100,4,2,1,50,0,0
37127,-100,4,2,1,5,0,0
37568,-100,4,2,1,50,0,0
39686,-100,4,2,1,60,0,0
47892,-100,4,2,1,5,0,0
47981,-100,4,2,1,50,0,0
48245,-100,4,2,1,5,0,0
48333,-100,4,2,1,70,0,1
57333,-100,4,2,1,70,0,1
57598,-100,4,2,1,5,0,1
57686,-100,4,2,1,70,0,1
58745,-100,4,2,1,70,0,1
59098,-100,4,2,1,70,0,1
70833,-100,4,2,1,5,0,1
70922,-100,4,2,1,70,0,1
73745,-100,4,2,1,60,0,0
84686,-100,4,2,1,60,0,0
84951,-100,4,2,1,5,0,0
85039,-100,4,2,1,50,0,0
92892,-100,4,2,1,5,0,0
92981,-100,4,2,1,50,0,0
93775,-100,4,2,1,5,0,0
93863,-100,4,2,1,50,0,0
94216,-100,4,2,1,50,0,0
94481,-100,4,2,1,5,0,0
94569,-100,4,2,1,50,0,0
94922,-100,4,2,1,50,0,0
101804,-100,4,2,1,60,0,0
107628,-100,4,2,1,70,0,1
110716,-100,4,2,1,5,0,1
110804,-100,4,2,1,70,0,1
116628,-100,4,2,1,70,0,1
116892,-100,4,2,1,5,0,1
116981,-100,4,2,1,70,0,1
118039,-100,4,2,1,70,0,1
118392,-100,4,2,1,70,0,1
124833,-100,4,2,1,5,0,1
124922,-100,4,2,1,70,0,1
125186,-100,4,2,1,5,0,1
125275,-100,4,2,1,70,0,1
133039,-100,4,2,1,60,0,0
133303,-100,4,2,1,5,0,0
133392,-100,4,2,1,60,0,0
135775,-100,4,2,1,5,0,0
135863,-100,4,2,1,60,0,0
138598,-100,4,2,1,5,0,0
138686,-100,4,2,1,60,0,0
141422,-100,4,2,1,5,0,0
141510,-100,4,2,1,60,0,0
144333,-100,4,2,1,50,0,0
152275,-100,4,2,1,60,0,0
171157,-100,4,2,1,60,0,0
171422,-100,4,2,1,5,0,0
171510,-100,4,2,1,60,0,0
171598,-100,4,2,1,5,0,0
171686,-100,4,2,1,60,0,0
172216,-100,4,2,1,60,0,0
173098,-100,4,2,1,60,0,0
173451,-100,4,2,1,60,0,0
173981,-100,4,2,1,70,0,1
183775,-100,4,2,1,5,0,1
183863,-100,4,2,1,70,0,1
193745,-100,4,2,1,60,0,0
205039,-100,4,2,1,60,0,0
205833,-100,4,2,1,5,0,0
205922,-100,4,2,1,60,0,0
210951,-100,4,2,1,5,0,0
211039,-100,4,2,1,60,0,0
214569,-100,4,2,1,60,0,0
216157,-100,4,2,1,60,0,0
222333,-200,4,2,1,20,0,0

[Colours]
Combo1 : 193,199,236
Combo2 : 240,226,185
Combo3 : 236,223,217
Combo4 : 133,200,222

[HitObjects]
184,360,334,6,0,P|142:337|94:334,1,95.9999999999999,4|2,3:2|0:0,0:0:0:0:
54,362,863,2,0,L|38:267,1,95.9999999999999,2|0,0:0|3:0,0:0:0:0:
117,211,1569,2,0,L|132:116,1,95.9999999999999,6|2,3:2|0:0,0:0:0:0:
112,78,2098,1,2,0:0:0:0:
112,78,2275,2,0,P|168:35|238:40,1,144,0|2,3:0|0:0,0:0:0:0:
272,130,3157,6,0,L|256:224,1,95.9999999999999,2|2,3:2|0:0,0:0:0:0:
247,271,3686,1,2,3:2:0:0:
300,350,4039,2,0,L|347:341,1,48,0|0,0:0|3:0,0:0:0:0:
386,369,4392,2,0,P|456:363|502:310,1,144,8|8,0:3|0:3,0:0:0:0:
471,219,5275,2,0,L|487:124,1,95.9999999999999,2|4,0:0|0:3,0:0:0:0:
499,28,5981,5,6,3:2:0:0:
406,54,6333,1,2,0:0:0:0:
406,54,6510,2,0,B|361:75|361:75|315:75|276:40,1,144,0|0,3:2|3:0,0:0:0:0:
236,11,7216,2,2,L|211:152,1,144,6|2,3:1|0:2,2:1:0:0:
121,180,8098,2,0,L|104:86,1,95.9999999999999,2|6,0:0|3:2,0:0:0:0:
8,79,8804,6,0,L|32:220,1,144,2|0,3:2|3:0,0:0:0:0:
6,316,9686,1,8,0:0:0:0:
6,316,9863,2,0,P|186:325|256:159,1,384,2|0,3:2|0:0,0:0:0:0:
229,66,11628,6,0,L|323:50,1,95.9999999999999,4|8,3:2|0:0,0:0:0:0:
360,19,12157,1,0,3:0:0:0:
360,19,12333,2,0,P|401:42|448:42,1,95.9999999999999,2|8,0:0|0:0,0:0:0:0:
495,28,12863,2,0,L|479:122,1,95.9999999999999,2|0,0:0|3:0,0:0:0:0:
502,216,13569,2,0,P|432:212|383:263,1,144,2|10,0:0|0:0,0:0:0:0:
358,354,14451,6,0,P|312:368|266:356,1,95.9999999999999,2|8,3:2|0:0,0:0:0:0:
246,318,14981,1,0,3:0:0:0:
246,318,15157,2,0,L|262:223,1,95.9999999999999,2|8,0:0|0:0,0:0:0:0:
271,176,15686,1,2,0:0:0:0:
210,101,16039,2,0,P|252:79|299:81,2,95.9999999999999,0|2|2,3:0|0:0|3:2,0:0:0:0:
143,42,17098,1,0,3:0:0:0:
142,41,17275,6,0,P|95:40|52:61,1,95.9999999999999,2|8,3:2|0:0,0:0:0:0:
19,97,17804,2,0,L|37:243,1,144,2|10,0:0|0:0,0:0:0:0:
24,335,18686,2,0,P|66:356|114:355,1,95.9999999999999,0|8,0:0|0:0,0:0:0:0:
155,329,19216,1,2,0:0:0:0:
166,233,19569,2,0,L|177:136,1,95.9999999999999,2|2,0:0|0:0,0:0:0:0:
184,90,20098,5,0,3:0:0:0:
256,26,20451,2,0,P|289:60|334:72,1,95.9999999999999,12|0,0:0|3:0,0:0:0:0:
420,31,21157,1,12,0:0:0:0:
420,31,21333,2,0,B|464:48|464:48|490:88|497:138,1,144,0|10,0:0|0:0,0:0:0:0:
455,225,22216,2,0,L|356:210,1,95.9999999999999,10|14,0:0|0:1,0:0:0:0:
312,202,22745,1,0,3:0:0:0:
312,202,22922,1,2,0:0:0:0:
182,60,23628,6,0,P|139:81|92:78,1,95.9999999999999,2|2,0:0|0:0,0:0:0:0:
53,107,24157,2,0,L|41:12,2,95.9999999999999,2|0|2,0:0|0:0|0:0,0:0:0:0:
7,193,25216,1,0,3:0:0:0:
7,193,25392,1,10,0:0:0:0:
3,288,25745,6,0,P|12:334|44:369,1,95.9999999999999,4|8,3:2|0:0,0:0:0:0:
96,374,26275,1,2,0:0:0:0:
96,374,26451,2,0,L|190:355,1,95.9999999999999,0|8,3:0|0:0,0:0:0:0:
233,333,26981,2,0,B|256:299|256:262|256:262|233:197,1,144,2|8,3:2|0:0,0:0:0:0:
172,122,27863,2,0,P|169:75|188:31,1,95.9999999999999,2|8,0:0|0:0,0:0:0:0:
234,16,28392,6,0,L|375:43,1,144,2|10,0:0|0:0,0:0:0:0:
421,28,29098,1,2,0:0:0:0:
501,80,29451,1,2,0:0:0:0:
506,175,29804,2,0,P|505:245|464:303,1,144,2|8,0:0|0:0,0:0:0:0:
401,376,30686,2,0,P|357:354|311:354,1,95.9999999999999,2|10,0:0|0:0,0:0:0:0:
214,357,31392,6,0,L|232:262,1,95.9999999999999,2|8,3:2|0:0,0:0:0:0:
305,200,32098,2,0,P|327:159|325:111,1,95.9999999999999,2|8,0:0|0:0,0:0:0:0:
291,75,32628,2,0,B|239:84|239:84|204:67|204:67|152:75,1,144,2|0,0:0|3:0,0:0:0:0:
85,14,33510,1,8,0:0:0:0:
84,14,33686,2,0,P|62:55|64:102,1,95.9999999999999,0|0,3:0|0:0,0:0:0:0:
89,144,34216,1,10,0:0:0:0:
19,271,34745,5,0,3:0:0:0:
19,271,34922,2,0,P|66:272|107:295,1,95.9999999999999,0|0,3:0|3:0,0:0:0:0:
141,330,35451,1,10,0:0:0:0:
234,353,35804,1,10,0:0:0:0:
297,279,36157,2,0,B|288:224|288:224|267:205|267:205|255:146,1,144,10|8,0:0|0:0,0:0:0:0:
234,52,37039,5,6,3:2:0:0:
378,21,37569,1,0,3:0:0:0:
378,21,37746,2,0,P|406:58|451:73,1,95.9999999999999,0|8,3:0|0:3,0:0:0:0:
498,62,38275,2,0,L|480:157,1,95.9999999999999,10|10,0:0|0:0,0:0:0:0:
500,250,38981,2,0,L|482:345,1,95.9999999999999,8|8,0:0|0:0,0:0:0:0:
452,383,39510,1,0,3:0:0:0:
452,383,39686,6,0,P|399:335|329:336,1,144,4|0,3:2|3:0,0:0:0:0:
289,362,40392,2,0,L|270:267,1,95.9999999999999,4|8,3:2|0:0,0:0:0:0:
313,181,41098,1,4,3:2:0:0:
263,98,41451,2,0,P|307:81|354:91,2,95.9999999999999,0|0|0,3:0|3:0|3:0,0:0:0:0:
145,14,42686,6,0,L|50:29,1,95.9999999999999,4|8,3:2|0:0,0:0:0:0:
22,68,43216,1,0,3:0:0:0:
21,68,43392,2,0,P|22:115|47:155,1,95.9999999999999,8|4,0:0|0:3,0:0:0:0:
88,181,43922,1,10,0:0:0:0:
50,269,44275,2,0,P|26:265|1:269,2,48,8|8|0,0:0|0:0|3:0,0:0:0:0:
91,293,44804,2,0,L|185:274,1,95.9999999999999,10|10,0:0|0:0,0:0:0:0:
256,192,45510,12,10,46745,0:2:0:0:
320,129,48333,6,0,P|359:102|406:103,1,95.9999999999999,4|10,3:2|0:0,0:0:0:0:
441,138,48863,2,0,L|455:232,1,95.9999999999999,2|2,0:0|3:2,0:0:0:0:
510,311,49569,2,0,P|440:301|383:342,1,144,2|8,0:0|0:0,0:0:0:0:
293,374,50451,1,2,0:0:0:0:
227,303,50804,1,10,0:0:0:0:
277,221,51157,6,0,L|262:126,1,95.9999999999999,2|10,3:2|0:0,0:0:0:0:
291,87,51686,1,2,0:0:0:0:
225,16,52039,1,2,3:2:0:0:
133,45,52392,2,0,P|64:36|6:76,1,144,2|8,0:0|0:0,0:0:0:0:
48,163,53275,2,0,L|32:257,1,95.9999999999999,2|8,0:0|0:0,0:0:0:0:
23,304,53804,1,2,0:0:0:0:
23,303,53981,6,0,B|101:313|67:359|144:371,1,144,6|2,3:2|0:0,0:0:0:0:
190,357,54686,2,0,L|205:262,1,95.9999999999999,2|8,3:2|0:0,0:0:0:0:
215,214,55216,1,8,0:3:0:0:
215,214,55392,1,4,0:3:0:0:
190,126,55745,1,4,0:3:0:0:
190,126,55922,2,0,P|238:76|308:83,1,144,6|14,3:2|0:0,0:0:0:0:
382,22,56804,6,0,P|429:21|471:44,1,95.9999999999999,8|4,0:3|0:3,0:0:0:0:
497,84,57333,2,0,L|483:179,1,95.9999999999999,14|0,0:0|3:0,0:0:0:0:
468,274,58039,5,2,0:0:0:0:
400,341,58392,1,0,3:0:0:0:
305,324,58745,1,2,3:2:0:0:
252,243,59098,2,0,L|266:148,1,95.9999999999999,6|0,3:1|3:0,0:0:0:0:
272,100,59628,6,0,P|224:100|182:78,1,95.9999999999999,4|8,3:2|0:0,0:0:0:0:
113,11,60333,2,0,P|65:10|23:32,1,95.9999999999999,2|10,0:0|0:0,0:0:0:0:
4,76,60863,2,0,L|25:218,1,144,2|8,0:0|0:0,0:0:0:0:
32,265,61569,1,2,0:0:0:0:
32,265,61745,1,2,3:2:0:0:
47,364,62098,1,8,0:0:0:0:
47,364,62275,6,0,P|94:366|135:343,1,95.9999999999999,2|2,0:0|0:0,0:0:0:0:
193,265,62981,1,2,0:0:0:0:
145,182,63333,1,0,3:0:0:0:
157,86,63686,2,0,P|210:39|280:41,1,144,2|10,3:2|0:0,0:0:0:0:
374,25,64569,2,0,L|469:44,1,95.9999999999999,2|10,3:2|0:0,0:0:0:0:
505,132,65275,6,0,L|491:226,1,95.9999999999999,10|4,0:0|3:2,0:0:0:0:
484,278,65804,1,2,0:0:0:0:
484,278,65981,1,2,3:2:0:0:
404,377,66510,1,2,0:0:0:0:
404,377,66686,2,0,P|364:350|317:350,1,95.9999999999999,10|0,0:0|3:0,0:0:0:0:
275,375,67216,1,10,0:0:0:0:
232,295,67569,1,10,0:0:0:0:
232,295,67745,2,0,L|241:247,1,48,8|0,0:0|3:0,0:0:0:0:
285,228,68098,6,0,P|305:186|305:138,1,95.9999999999999,4|10,3:2|0:0,0:0:0:0:
333,100,68628,1,2,0:0:0:0:
333,100,68804,2,0,L|238:80,1,95.9999999999999,0|10,3:0|0:0,0:0:0:0:
172,11,69510,2,0,L|77:30,1,95.9999999999999,2|8,3:2|0:0,0:0:0:0:
32,14,70039,2,0,B|9:53|9:53|9:101|45:143,1,144,2|10,3:2|0:0,0:0:0:0:
113,209,70922,5,4,3:2:0:0:
87,301,71275,1,8,0:0:0:0:
152,371,71628,2,0,P|199:371|241:348,1,95.9999999999999,2|8,3:2|0:0,0:0:0:0:
267,308,72157,1,6,3:2:0:0:
292,215,72510,2,0,L|284:167,1,48,8|0,0:0|3:0,0:0:0:0:
319,134,72863,2,0,P|365:142|409:123,2,95.9999999999999,0|8|0,3:0|0:0|3:0,0:0:0:0:
256,192,73745,12,2,76569,3:2:0:0:
254,56,85039,6,0,P|211:75|164:69,1,95.9999999999999,4|8,3:2|0:0,0:0:0:0:
128,47,85569,1,0,3:0:0:0:
128,47,85745,2,0,L|103:139,1,95.9999999999999,2|10,0:0|0:0,0:0:0:0:
60,162,86275,6,0,P|60:208|83:251,1,95.9999999999999,2|0,0:0|3:0,0:0:0:0:
61,344,86981,2,0,P|120:306|190:316,1,144,2|10,0:0|0:0,0:0:0:0:
263,379,87863,6,0,L|287:286,1,95.9999999999999,2|8,3:2|0:0,0:0:0:0:
303,240,88392,1,0,3:0:0:0:
303,240,88569,1,2,0:0:0:0:
244,171,88922,1,10,0:0:0:0:
244,171,89098,2,0,P|223:128|230:81,1,95.9999999999999,2|0,0:0|3:0,0:0:0:0:
303,19,89804,2,0,P|345:39|393:40,1,95.9999999999999,2|2,0:0|0:0,0:0:0:0:
488,23,90510,1,2,0:0:0:0:
488,23,90686,6,0,L|472:117,1,95.9999999999999,2|8,3:2|0:0,0:0:0:0:
493,160,91216,2,0,P|422:159|370:206,1,144,0|10,3:0|0:0,0:0:0:0:
358,252,91922,1,2,0:0:0:0:
383,344,92275,2,0,L|477:360,2,95.9999999999999,2|2|2,0:0|0:0|0:0,0:0:0:0:
293,368,93333,1,0,3:0:0:0:
293,368,93510,5,2,3:2:0:0:
264,276,93863,1,12,0:0:0:0:
317,196,94216,2,0,L|301:101,1,95.9999999999999,2|10,3:2|0:0,0:0:0:0:
227,41,94922,2,0,B|193:55|193:55|159:55|135:42,1,95.9999999999999,0|4,3:0|0:3,0:0:0:0:
96,14,95451,2,0,P|52:32|26:71,1,95.9999999999999,4|4,0:3|0:3,0:0:0:0:
17,119,95981,1,2,0:0:0:0:
74,195,96333,6,0,B|100:239|100:239|68:326,1,144,4|0,3:2|3:0,0:0:0:0:
87,370,97039,2,0,P|126:344|175:344,1,95.9999999999999,8|0,0:0|3:0,0:0:0:0:
216,365,97569,1,10,0:0:0:0:
250,275,97922,1,0,3:0:0:0:
280,183,98275,2,0,B|294:136|294:136|281:98|281:98|297:45,1,144,2|4,0:0|0:3,0:0:0:0:
390,23,99157,6,0,P|455:44|475:111,1,144,2|0,3:2|3:0,0:0:0:0:
445,149,99863,2,0,B|428:193|428:193|444:239,1,95.9999999999999,8|4,0:0|0:3,0:0:0:0:
461,284,100392,1,2,0:0:0:0:
365,296,100745,1,2,0:0:0:0:
310,375,101098,2,0,P|263:366|231:331,1,95.9999999999999,0|8,3:0|0:3,0:0:0:0:
256,243,101804,6,0,L|230:101,1,144,4|0,3:2|3:0,0:0:0:0:
239,54,102510,2,0,P|202:28|153:28,1,95.9999999999999,4|0,3:2|3:0,0:0:0:0:
74,84,103216,6,0,L|91:177,1,95.9999999999999,4|0,3:2|3:0,0:0:0:0:
62,217,103745,1,8,0:0:0:0:
62,217,103922,2,0,L|79:310,1,95.9999999999999,2|2,3:2|3:2,0:0:0:0:
256,192,104628,12,10,106039,0:1:0:0:
236,31,107628,6,0,P|275:57|322:57,1,95.9999999999999,4|10,3:2|0:0,0:0:0:0:
360,26,108158,2,0,L|374:120,1,95.9999999999999,2|2,0:0|3:2,0:0:0:0:
429,199,108863,2,0,B|422:240|379:254|379:254|314:244,1,144,2|8,0:0|0:0,0:0:0:0:
218,231,109746,1,2,0:0:0:0:
145,168,110099,1,10,0:0:0:0:
61,216,110452,6,0,L|76:311,1,95.9999999999999,2|10,3:2|0:0,0:0:0:0:
88,357,110981,1,2,0:0:0:0:
182,373,111334,1,2,3:2:0:0:
268,332,111686,2,0,L|245:189,1,144,2|8,0:0|0:0,0:0:0:0:
327,140,112569,2,0,P|341:96|329:50,1,95.9999999999999,2|8,0:0|0:0,0:0:0:0:
237,17,113275,6,0,B|199:45|199:45|158:15|106:27,1,144,6|2,3:2|0:0,0:0:0:0:
61,43,113981,2,0,L|76:138,1,95.9999999999999,2|8,3:2|0:0,0:0:0:0:
89,233,114687,1,4,0:3:0:0:
180,276,115040,1,4,0:3:0:0:
180,276,115216,2,0,P|228:226|298:233,1,144,6|14,3:2|0:1,0:0:0:0:
339,319,116099,6,0,P|380:341|428:341,1,95.9999999999999,8|4,0:3|0:3,0:0:0:0:
467,313,116628,2,0,L|481:218,1,95.9999999999999,14|0,0:0|3:0,0:0:0:0:
506,125,117334,5,2,0:0:0:0:
414,152,117687,1,0,3:0:0:0:
323,120,118040,1,2,3:2:0:0:
259,47,118393,2,0,P|231:85|227:133,1,95.9999999999999,6|0,3:2|3:0,0:0:0:0:
241,179,118923,6,0,P|193:179|151:201,1,95.9999999999999,4|8,3:2|0:0,0:0:0:0:
132,295,119628,2,0,P|89:316|42:315,1,95.9999999999999,2|10,0:0|0:0,0:0:0:0:
3,286,120158,2,0,B|14:242|14:242|3:201|3:201|16:146,1,144,2|8,0:0|0:0,0:0:0:0:
31,103,120864,1,2,0:0:0:0:
31,103,121040,1,2,3:2:0:0:
88,24,121393,1,8,0:0:0:0:
88,24,121570,6,0,P|133:38|180:31,1,95.9999999999999,2|2,0:0|0:0,0:0:0:0:
271,61,122276,1,2,0:0:0:0:
290,154,122628,1,0,3:0:0:0:
211,209,122981,2,0,P|209:279|256:331,1,144,2|10,3:2|0:0,0:0:0:0:
339,380,123864,2,0,P|380:357|427:362,1,95.9999999999999,2|10,3:2|0:0,0:0:0:0:
503,303,124570,6,0,L|489:209,1,95.9999999999999,10|4,0:0|3:2,0:0:0:0:
481,165,125099,1,0,0:0:0:0:
481,165,125276,1,2,3:2:0:0:
454,28,125805,1,2,0:0:0:0:
454,28,125981,2,0,P|414:55|367:55,1,95.9999999999999,10|4,0:0|3:2,0:0:0:0:
330,24,126511,1,10,0:0:0:0:
239,44,126864,1,2,0:0:0:0:
239,44,127040,2,0,L|230:92,1,48,8|0,0:0|3:0,0:0:0:0:
223,138,127393,6,0,P|181:118|133:118,1,95.9999999999999,4|10,3:2|0:0,0:0:0:0:
92,141,127922,1,2,0:0:0:0:
92,141,128098,2,0,P|72:183|72:231,1,95.9999999999999,0|10,3:0|0:0,0:0:0:0:
138,302,128805,2,0,L|233:283,1,95.9999999999999,2|8,3:2|0:0,0:0:0:0:
252,326,129334,2,0,B|294:362|342:362|342:362|381:339,1,144,2|10,3:2|0:0,0:0:0:0:
463,290,130217,5,4,3:2:0:0:
490,198,130570,1,8,0:0:0:0:
464,105,130923,2,0,P|417:105|375:82,1,95.9999999999999,2|8,3:2|0:0,0:0:0:0:
346,43,131451,2,0,L|251:62,1,95.9999999999999,4|8,3:2|0:0,0:0:0:0:
213,150,132157,1,2,3:2:0:0:
256,235,132510,2,0,P|257:282|231:322,1,95.9999999999999,10|0,0:0|3:0,0:0:0:0:
191,349,133039,6,0,P|137:303|66:306,2,144,6|2|8,3:2|0:0|0:0,0:0:0:0:
231,321,134275,2,0,B|281:314|281:314|316:333|316:333|369:325,1,144,2|10,0:0|0:0,0:0:0:0:
457,364,135157,2,0,P|480:322|477:275,1,95.9999999999999,2|10,3:2|0:0,0:0:0:0:
506,183,135863,6,0,L|411:198,1,95.9999999999999,2|10,3:2|0:0,0:0:0:0:
341,140,136569,1,0,3:0:0:0:
341,140,136745,2,0,L|348:92,1,48,2|8,0:0|0:0,0:0:0:0:
358,45,137098,2,0,B|327:12|270:12|270:12|256:29|229:35,1,144,2|8,0:0|0:0,0:0:0:0:
187,13,137804,1,2,0:0:0:0:
93,34,138157,2,0,P|74:77|81:124,1,95.9999999999999,2|0,0:0|0:0,0:0:0:0:
63,168,138686,6,0,P|133:167|183:217,1,144,2|2,3:2|0:0,0:0:0:0:
211,254,139392,1,0,3:0:0:0:
280,188,139745,1,8,0:0:0:0:
280,188,139922,2,0,B|331:178|331:178|359:190|359:190|419:179,1,144,2|10,0:0|0:0,0:0:0:0:
505,222,140804,2,0,P|518:267|505:313,1,95.9999999999999,2|10,3:2|0:0,0:0:0:0:
434,378,141510,6,0,P|382:333|312:340,1,144,2|2,3:2|0:0,0:0:0:0:
276,372,142216,1,0,3:0:0:0:
189,334,142569,1,8,0:0:0:0:
189,334,142745,2,0,L|214:192,1,144,6|8,0:0|0:0,0:0:0:0:
225,145,143451,1,0,3:0:0:0:
260,55,143804,2,0,B|210:38|167:70|167:70|141:70|124:55,1,144,0|8,3:0|0:3,0:0:0:0:
18,153,144863,5,8,0:3:0:0:
18,153,145039,2,0,B|35:196|35:196|22:244,1,95.9999999999999,4|8,0:3|0:0,0:0:0:0:
1,338,145745,2,0,P|37:367|84:366,1,95.9999999999999,8|0,0:3|0:0,0:0:0:0:
131,356,146275,1,4,0:3:0:0:
196,285,146628,2,0,L|213:192,1,95.9999999999999
222,143,147157,5,12,0:3:0:0:
222,143,147333,1,4,0:3:0:0:
193,50,147686,2,0,P|252:12|320:26,1,144,4|8,0:3|0:0,0:0:0:0:
385,98,148569,2,0,P|453:111|512:73,2,144,8|4|8,0:3|0:3|0:0,0:0:0:0:
355,189,149981,6,0,B|335:236|335:236|354:326,1,144,0|8,3:0|0:3,0:0:0:0:
362,374,150686,2,0,P|320:350|273:355,1,95.9999999999999,0|8,3:0|0:0,0:0:0:0:
190,308,151392,2,0,P|148:331|101:326,1,95.9999999999999,2|8,0:0|0:3,0:0:0:0:
62,298,151922,2,0,P|50:252|67:208,1,95.9999999999999,8|8,0:0|0:0,0:0:0:0:
35,117,152628,6,0,P|93:156|162:144,1,144,4|0,3:2|3:0,0:0:0:0:
197,111,153333,2,0,L|213:16,1,95.9999999999999,12|0,0:0|3:0,0:0:0:0:
309,27,154039,2,0,L|292:121,1,95.9999999999999,12|0,0:0|3:0,0:0:0:0:
285,172,154569,1,8,0:0:0:0:
285,172,154745,2,0,P|326:148|373:148,1,95.9999999999999,0|4,3:0|0:3,0:0:0:0:
438,218,155451,6,0,P|425:330|317:364,1,240,4|8,3:2|0:3,0:0:0:0:
240,316,156686,1,4,0:3:0:0:
240,316,156863,2,0,L|267:125,1,192,12|0,0:0|3:0,0:0:0:0:
282,30,157922,1,8,0:0:0:0:
186,23,158275,6,0,P|140:36|92:37,1,95.9999999999999,12|8,0:0|0:0,0:0:0:0:
49,16,158804,1,8,0:3:0:0:
33,110,159157,2,0,L|12:252,1,144,8|10,0:0|0:0,0:0:0:0:
256,192,159863,12,2,162686,0:0:0:0:
450,374,171157,6,0,P|472:332|467:285,1,95.9999999999999,2|0,3:2|3:0,0:0:0:0:
437,248,171686,1,12,0:0:0:0:
342,267,172039,1,2,0:2:0:0:
259,218,172392,2,0,P|211:217|173:245,1,95.9999999999999,2|2,0:0|0:0,0:0:0:0:
100,306,173098,1,8,0:0:0:0:
20,251,173451,2,0,L|35:156,1,95.9999999999999,6|0,3:1|3:0,0:0:0:0:
17,110,173981,6,0,P|64:110|107:90,1,95.9999999999999,4|8,3:2|0:0,0:0:0:0:
172,19,174686,2,0,L|267:34,1,95.9999999999999,2|10,3:2|0:0,0:0:0:0:
314,23,175216,2,0,B|301:76|301:76|315:115|315:115|306:162,1,144,2|8,0:0|0:0,0:0:0:0:
294,211,175922,1,2,0:0:0:0:
294,211,176098,1,2,3:2:0:0:
273,307,176451,1,10,0:0:0:0:
273,306,176628,2,0,P|226:306|186:331,2,95.9999999999999,2|0|2,0:0|3:0|0:0,0:0:0:0:
349,364,177686,1,2,0:0:0:0:
439,331,178039,6,0,L|461:188,1,144,2|10,0:0|0:0,0:0:0:0:
478,93,178922,1,2,3:2:0:0:
413,21,179275,1,10,0:0:0:0:
322,55,179628,6,0,P|275:61|230:46,1,95.9999999999999,8|12,0:0|0:0,0:0:0:0:
195,22,180157,1,0,3:0:0:0:
195,22,180333,1,10,0:0:0:0:
60,65,180863,1,0,3:0:0:0:
60,65,181039,2,0,L|74:159,1,95.9999999999999,10|8,0:0|3:0,0:0:0:0:
82,207,181569,1,10,0:0:0:0:
168,247,181922,2,0,L|160:294,2,48,10|4|4,0:0|0:3|0:3,0:0:0:0:
201,211,182451,6,0,P|248:210|289:234,1,95.9999999999999,4|8,3:2|0:0,0:0:0:0:
323,269,182981,1,2,0:0:0:0:
323,269,183157,2,0,L|337:174,1,95.9999999999999,2|10,3:2|0:0,0:0:0:0:
349,78,183863,2,0,P|390:54|437:55,1,95.9999999999999,2|8,3:2|0:0,0:0:0:0:
476,84,184392,2,0,L|453:226,1,144,2|8,3:2|0:0,0:0:0:0:
479,319,185275,6,0,P|438:342|390:342,1,95.9999999999999,4|10,3:2|0:0,0:0:0:0:
323,269,185981,1,0,3:0:0:0:
260,204,186333,1,10,0:0:0:0:
260,204,186510,2,0,L|274:110,2,95.9999999999999,2|2|2,0:0|0:0|0:0,0:0:0:0:
237,296,187569,2,0,P|190:293|145:310,1,95.9999999999999,2|0,0:0|0:0,0:0:0:0:
106,337,188098,6,0,L|91:243,1,95.9999999999999,6|10,3:2|0:0,0:0:0:0:
83,199,188628,1,2,0:0:0:0:
83,199,188804,1,2,3:2:0:0:
58,111,189157,1,8,0:0:0:0:
58,111,189333,2,0,L|72:17,2,95.9999999999999,2|0|2,0:0|3:0|0:0,0:0:0:0:
149,140,190392,2,0,P|196:140|235:113,1,95.9999999999999,0|0,3:0|0:0,0:0:0:0:
273,142,190922,6,0,L|256:237,2,95.9999999999999,4|10|0,3:2|0:0|3:0,0:0:0:0:
315,57,191981,1,10,0:0:0:0:
315,57,192157,2,0,B|340:66|354:91|354:91|400:106|440:77,1,144,6|8,3:2|0:3,0:0:0:0:
480,50,192863,1,8,0:3:0:0:
505,142,193216,2,0,L|489:236,1,95.9999999999999,8|0,0:0|3:0,0:0:0:0:
492,284,193745,6,0,P|445:283|403:305,1,95.9999999999999,4|10,3:2|0:0,0:0:0:0:
370,341,194275,1,2,0:0:0:0:
280,376,194628,1,2,3:2:0:0:
236,291,194981,2,0,L|261:148,1,144,2|10,3:2|0:0,0:0:0:0:
328,80,195863,2,0,P|287:55|240:55,1,95.9999999999999,0|10,3:0|0:0,0:0:0:0:
150,21,196569,6,0,B|129:28|110:48|110:48|63:40,1,95.9999999999999,0|8,3:0|0:0,0:0:0:0:
17,27,197098,1,6,0:2:0:0:
33,121,197451,2,0,L|23:168,1,48,2|10,0:0|0:0,0:0:0:0:
12,214,197804,2,0,P|81:206|133:253,1,144,2|10,0:0|0:0,0:0:0:0:
117,348,198686,2,0,L|212:331,1,95.9999999999999,0|10,3:0|0:0,0:0:0:0:
289,273,199392,6,0,P|330:295|377:293,1,95.9999999999999,0|10,3:0|0:0,0:0:0:0:
421,272,199922,2,0,P|448:207|426:140,1,144,2|10,0:0|0:0,0:0:0:0:
392,106,200628,2,0,P|321:102|266:146,1,144,2|10,0:0|0:0,0:0:0:0:
215,227,201510,2,0,L|232:322,1,95.9999999999999,0|10,3:0|0:0,0:0:0:0:
156,379,202216,5,2,3:2:0:0:
156,379,202392,2,0,P|119:352|71:353,1,95.9999999999999,2|2,0:0|0:0,0:0:0:0:
25,266,203098,1,2,3:2:0:0:
100,206,203451,2,0,B|136:176|136:176|158:128|126:83,1,144,2|8,0:0|0:0,0:0:0:0:
189,11,204333,2,0,P|229:35|277:33,1,95.9999999999999,8|2,0:0|2:0,0:0:0:0:
322,11,204863,1,2,0:0:0:0:
322,11,205039,6,0,B|356:30|356:30|378:83|338:126,1,144,4|2,3:2|0:0,0:0:0:0:
257,178,205922,1,2,3:2:0:0:
257,178,206098,1,10,0:0:0:0:
229,272,206451,1,2,3:2:0:0:
229,272,206628,2,0,P|229:319|256:358,1,95.9999999999999,2|2,0:0|0:0,0:0:0:0:
300,377,207157,2,0,P|347:376|386:349,1,95.9999999999999,2|10,3:2|0:0,0:0:0:0:
442,271,207863,6,0,B|432:217|432:217|442:184|442:184|433:130,1,144,2|0,3:2|3:0,0:0:0:0:
452,85,208569,2,0,P|405:84|364:60,1,95.9999999999999,2|10,0:0|0:0,0:0:0:0:
287,0,209275,2,0,P|268:43|273:90,1,95.9999999999999,2|8,0:0|0:0,0:0:0:0:
302,128,209804,2,0,P|301:198|253:249,1,144,2|10,0:0|0:0,0:0:0:0:
204,332,210686,6,0,P|163:307|116:307,1,95.9999999999999,2|10,3:2|0:0,0:0:0:0:
73,330,211216,2,0,L|39:140,1,192,2|2,0:0|0:0,0:0:0:0:
90,59,212275,2,0,L|136:68,1,48,0|8,3:0|0:0,0:0:0:0:
178,43,212628,1,2,0:0:0:0:
271,63,212981,2,0,P|286:107|278:154,1,95.9999999999999,2|2,0:0|0:0,0:0:0:0:
244,190,213510,5,8,0:3:0:0:
181,262,213863,1,4,0:3:0:0:
181,262,214039,1,8,0:0:0:0:
238,346,214392,1,12,0:0:0:0:
238,346,214569,2,0,B|292:332|292:332|363:366|363:366|418:350,1,192,4|8,0:0|0:0,0:0:0:0:
482,278,215628,1,8,0:0:0:0:
446,194,215981,5,6,3:2:0:0:
446,194,216157,1,6,3:2:0:0:
256,192,216333,12,4,222333,0:3:0:0:
