osu file format v14

[General]
AudioFilename: audio.mp3
AudioLeadIn: 0
PreviewTime: 161981
Countdown: 0
SampleSet: Soft
StackLeniency: 0.7
Mode: 0
LetterboxInBreaks: 0
WidescreenStoryboard: 1

[Editor]
Bookmarks: 128451
DistanceSpacing: 4
BeatDivisor: 4
GridSize: 8
TimelineZoom: 1.8

[Metadata]
Title:Rainbow Days
TitleUnicode:Rainbow Days
Artist:Ceui
ArtistUnicode:Ceui
Creator:Shikibe Mayu
Version:Insane
Source:月の彼方で逢いましょう SweetSummerRainbow
Tags:Shizuku- Kazato Asa Tsuki no Kanata de Aimashou: Sweet Summer Rainbow TsukikanaSSR tone work's eroge galgame vn visual novel op opening full version jpop j-pop rein sakura pop video game japanese
BeatmapID:2464147
BeatmapSetID:1181354

[Difficulty]
HPDrainRate:6
CircleSize:4
OverallDifficulty:7.6
ApproachRate:8.8
SliderMultiplier:1.68
SliderTickRate:1

[Events]
//Background and Video events
0,0,"CG_LY02_BASE___000.jpg",0,0
//Break Periods
2,162886,170528
//Storyboard Layer 0 (Background)
//Storyboard Layer 1 (Fail)
//Storyboard Layer 2 (Pass)
//Storyboard Layer 3 (Foreground)
//Storyboard Layer 4 (Overlay)
//Storyboard Sound Samples

[TimingPoints]
334,352.941176470588,4,2,1,60,1,0
11628,-100,4,2,1,50,0,0
20451,-66.6666666666667,4,2,1,50,0,0
20716,-66.6666666666667,4,2,1,5,0,0
20804,-100,4,2,1,50,0,0
21157,-66.6666666666667,4,2,1,50,0,0
21422,-66.6666666666667,4,2,1,5,0,0
21510,-100,4,2,1,50,0,0
23451,-125,4,2,1,50,0,0
25392,-83.3333333333333,4,2,1,50,0,0
25657,-83.3333333333333,4,2,1,5,0,0
25745,-100,4,2,1,50,0,0
28833,-100,4,2,1,5,0,0
28922,-100,4,2,1,50,0,0
33863,-83.3333333333333,4,2,1,50,0,0
34216,-66.6666666666667,4,2,1,50,0,0
34304,-66.6666666666667,4,2,1,5,0,0
34745,-100,4,2,1,50,0,0
37039,-66.6666666666667,4,2,1,50,0,0
37127,-66.6666666666667,4,2,1,5,0,0
37568,-100,4,2,1,50,0,0
39686,-100,4,2,1,60,0,0
47892,-100,4,2,1,5,0,0
47981,-66.6666666666667,4,2,1,50,0,0
48245,-66.6666666666667,4,2,1,5,0,0
48333,-90.9090909090909,4,2,1,60,0,1
57333,-66.6666666666667,4,2,1,60,0,1
57598,-66.6666666666667,4,2,1,5,0,1
57686,-90.9090909090909,4,2,1,60,0,1
58745,-100,4,2,1,60,0,1
59098,-100,4,2,1,60,0,1
59628,-90.9090909090909,4,2,1,60,0,1
70833,-90.9090909090909,4,2,1,5,0,1
70922,-90.9090909090909,4,2,1,60,0,1
73745,-100,4,2,1,60,0,0
84686,-66.6666666666667,4,2,1,60,0,0
84951,-66.6666666666667,4,2,1,5,0,0
85039,-100,4,2,1,50,0,0
92892,-100,4,2,1,5,0,0
92981,-100,4,2,1,50,0,0
93775,-100,4,2,1,5,0,0
93863,-66.6666666666667,4,2,1,50,0,0
94216,-100,4,2,1,50,0,0
94481,-100,4,2,1,5,0,0
94569,-66.6666666666667,4,2,1,50,0,0
94922,-100,4,2,1,50,0,0
101804,-100,4,2,1,60,0,0
107628,-90.9090909090909,4,2,1,60,0,1
110716,-90.9090909090909,4,2,1,5,0,1
110804,-90.9090909090909,4,2,1,60,0,1
116628,-66.6666666666667,4,2,1,60,0,1
116892,-66.6666666666667,4,2,1,5,0,1
116981,-90.9090909090909,4,2,1,60,0,1
118039,-76.9230769230769,4,2,1,60,0,1
118392,-90.9090909090909,4,2,1,60,0,1
124833,-90.9090909090909,4,2,1,5,0,1
124922,-76.9230769230769,4,2,1,60,0,1
125186,-100,4,2,1,5,0,1
125275,-90.9090909090909,4,2,1,60,0,1
133039,-90.9090909090909,4,2,1,60,0,0
133303,-90.9090909090909,4,2,1,5,0,0
133392,-90.9090909090909,4,2,1,60,0,0
135775,-90.9090909090909,4,2,1,5,0,0
135863,-90.9090909090909,4,2,1,60,0,0
138598,-90.9090909090909,4,2,1,5,0,0
138686,-90.9090909090909,4,2,1,60,0,0
141422,-90.9090909090909,4,2,1,5,0,0
141510,-90.9090909090909,4,2,1,60,0,0
144333,-125,4,2,1,50,0,0
152275,-90.9090909090909,4,2,1,60,0,0
171157,-90.9090909090909,4,2,1,60,0,0
171422,-62.5,4,2,1,5,0,0
171510,-125,4,2,1,60,0,0
171598,-125,4,2,1,5,0,0
171686,-76.9230769230769,4,2,1,60,0,0
172216,-90.9090909090909,4,2,1,60,0,0
173098,-76.9230769230769,4,2,1,60,0,0
173451,-76.9230769230769,4,2,1,60,0,0
173981,-90.9090909090909,4,2,1,60,0,1
183775,-90.9090909090909,4,2,1,5,0,1
183863,-90.9090909090909,4,2,1,60,0,1
193745,-100,4,2,1,60,0,0
205039,-90.9090909090909,4,2,1,60,0,0
205833,-90.9090909090909,4,2,1,5,0,0
205922,-90.9090909090909,4,2,1,60,0,0
210951,-90.9090909090909,4,2,1,5,0,0
211039,-90.9090909090909,4,2,1,60,0,0
214569,-125,4,2,1,60,0,0
216157,-200,4,2,1,60,0,0
222333,-200,4,2,1,20,0,0

[Colours]
Combo1 : 193,199,236
Combo2 : 240,226,185
Combo3 : 236,223,217
Combo4 : 133,200,222

[HitObjects]
336,158,334,6,0,L|353:75,1,84,4|0,3:2|0:0,0:0:0:0:
365,38,598,1,2,0:0:0:0:
365,38,686,1,2,0:0:0:0:
474,247,863,2,0,B|432:218|432:218|376:232|336:280,1,168,2|0,0:0|3:0,0:0:0:0:
32,120,1569,6,0,P|112:129|165:68,1,168,6|2,3:1|0:0,0:0:0:0:
32,120,2098,1,2,0:0:0:0:
167,318,2275,2,0,P|171:276|179:235,1,84,0|2,3:0|0:0,0:0:0:0:
91,256,2628,1,0,3:0:0:0:
252,293,2804,2,0,P|293:284|334:280,1,84,2|0,0:0|0:0,0:0:0:0:
492,118,3157,5,2,3:2:0:0:
311,183,3333,1,2,3:2:0:0:
420,231,3510,1,2,0:0:0:0:
378,77,3686,5,2,3:2:0:0:
378,77,3863,2,0,P|336:71|296:59,1,84,2|0,3:2|0:0,0:0:0:0:
196,233,4216,5,0,3:0:0:0:
165,68,4392,2,0,L|196:233,1,168,8|0,0:3|0:0,0:0:0:0:
67,308,4922,2,0,L|51:225,1,84,8|2,0:3|0:0,0:0:0:0:
160,341,5275,5,2,0:0:0:0:
297,308,5451,1,8,0:3:0:0:
196,233,5628,1,4,0:3:0:0:
344,141,5804,1,4,0:3:0:0:
438,271,5981,6,0,P|404:246|363:236,1,84,6|0,3:2|0:0,0:0:0:0:
439,157,6333,1,2,0:0:0:0:
288,0,6510,2,0,L|253:164,1,168,0|0,3:2|0:2,0:0:0:0:
142,36,7039,1,0,3:0:0:0:
54,174,7216,2,2,P|136:176|195:232,1,168,6|0,3:2|2:2,2:1:0:0:
54,174,7745,1,2,0:0:0:0:
166,329,7922,6,0,P|204:316|247:310,1,84,2|2,3:2|0:0,0:0:0:0:
321,231,8275,1,2,0:0:0:0:
472,281,8451,1,6,3:1:0:0:
352,374,8628,1,2,0:0:0:0:
422,186,8804,5,2,3:2:0:0:
250,150,8981,1,8,0:0:0:0:
378,25,9157,1,8,0:0:0:0:
321,231,9333,2,0,P|279:237|239:249,1,84,0|8,3:0|0:0,0:0:0:0:
177,61,9686,1,8,0:0:0:0:
351,114,9863,5,2,3:2:0:0:
256,192,9951,12,0,11275,0:0:0:0:
0,302,11628,6,0,P|49:366|130:364,1,168,4|8,3:2|0:0,0:0:0:0:
198,286,12157,1,0,3:0:0:0:
106,207,12333,2,0,P|92:246|85:288,2,84,2|0|8,0:0|3:0|0:0,0:0:0:0:
1,103,12863,6,0,P|80:116|136:58,1,168,2|0,0:0|3:0,0:0:0:0:
207,155,13392,1,8,0:0:0:0:
272,18,13569,2,0,P|282:58|285:100,1,84,2|0,0:0|3:0,0:0:0:0:
342,180,13922,1,2,3:2:0:0:
495,123,14098,2,0,P|453:119|412:109,1,84,10|2,0:0|0:0,0:0:0:0:
251,281,14451,6,0,P|332:276|386:336,1,168,2|8,3:2|0:0,0:0:0:0:
386,336,14981,1,0,3:0:0:0:
502,217,15157,2,0,P|460:220|419:230,2,84,2|0|8,0:0|3:0|0:0,0:0:0:0:
372,14,15686,6,0,L|341:179,1,168,2|0,0:0|3:0,0:0:0:0:
372,14,16216,1,8,0:0:0:0:
217,77,16392,2,0,P|177:63|136:56,1,84,2|0,0:0|3:0,0:0:0:0:
220,253,16745,2,0,P|226:211|240:172,1,84,2|8,3:2|0:0,0:0:0:0:
61,179,17098,1,0,3:0:0:0:
95,348,17275,6,0,B|154:316|207:348|207:348|234:349|256:336,1,168,2|8,3:2|0:0,0:0:0:0:
419,229,17804,2,0,B|454:165|428:97|428:97|408:120,1,168,2|0,0:0|3:0,0:0:0:0:
463,325,18333,1,10,0:0:0:0:
463,325,18510,6,0,P|401:271|320:282,1,168,2|0,0:0|0:0,0:0:0:0:
239,172,19039,1,8,0:0:0:0:
95,348,19216,2,0,L|77:265,1,84,2|0,0:0|3:0,0:0:0:0:
162,117,19569,2,0,L|144:199,1,84,2|8,0:0|0:0,0:0:0:0:
0,38,19922,6,0,P|77:60|140:8,1,168,2|0,0:0|0:0,0:0:0:0:
306,154,20451,6,0,B|364:150|387:81|355:38|355:38|325:18,1,189.000007209778,12|0,0:0|0:0,0:0:0:0:
307,36,20804,2,0,L|224:50,1,84,0|0,3:0|0:0,0:0:0:0:
77,265,21157,6,0,B|115:259|140:233|140:233|203:239|229:300,1,189.000007209778,12|0,0:0|0:0,0:0:0:0:
236,324,21510,2,0,L|318:309,1,84,2|0,3:2|0:0,0:0:0:0:
447,194,21863,6,0,P|366:207|305:153,1,168,10|10,0:0|0:0,0:0:0:0:
447,194,22392,1,0,3:0:0:0:
363,382,22569,2,0,P|352:341|347:299,1,84,14|0,0:1|3:0,0:0:0:0:
223,212,22922,1,2,0:0:0:0:
222,212,23628,6,0,P|191:223|158:228,2,67.2,2|0|2,0:0|0:0|0:0,0:0:0:0:
122,311,24157,5,2,0:0:0:0:
122,311,24245,1,2,0:0:0:0:
122,311,24333,2,0,P|73:267|70:201,1,134.4,2|0,0:0|0:0,0:0:0:0:
12,87,24863,2,0,P|73:114|138:131,1,134.4,2|0,0:0|3:0,0:0:0:0:
423,84,25392,6,0,B|385:67|378:26|378:26|339:12|306:35,1,151.199995385742,14|0,0:1|0:0,0:0:0:0:
241,0,25745,6,0,L|264:166,1,168,4|8,3:2|0:0,0:0:0:0:
335,269,26275,1,2,0:0:0:0:
461,224,26451,2,0,P|480:186|483:145,2,84,0|2|8,3:0|0:0|0:0,0:0:0:0:
394,353,26981,6,0,P|316:320|234:306,1,168,2|0,3:2|3:0,0:0:0:0:
106,358,27510,1,8,0:0:0:0:
41,231,27686,1,0,3:0:0:0:
167,189,27863,6,0,P|153:228|147:270,1,84,2|0,0:0|3:0,0:0:0:0:
264,139,28216,1,8,0:0:0:0:
122,87,28392,6,0,P|181:143|263:138,1,168,2|0,0:0|0:0,0:0:0:0:
343,24,28922,1,10,0:0:0:0:
467,128,29098,2,0,L|487:46,1,84,2|0,0:0|3:0,0:0:0:0:
385,251,29451,2,0,L|364:169,1,84,2|8,0:0|0:0,0:0:0:0:
471,296,29804,6,0,P|407:346|329:326,1,168,2|0,0:0|3:0,0:0:0:0:
219,209,30333,1,8,0:0:0:0:
147,362,30510,1,0,3:0:0:0:
147,362,30686,2,0,P|141:320|134:278,1,84,2|0,0:0|3:0,0:0:0:0:
0,127,31039,1,10,0:0:0:0:
0,127,31392,6,0,B|29:157|74:155|74:155|107:123|153:127,1,168,2|8,3:2|0:0,0:0:0:0:
327,177,31922,1,0,3:0:0:0:
302,0,32098,2,0,P|273:30|257:69,1,84,2|0,0:0|3:0,0:0:0:0:
327,177,32451,1,8,0:0:0:0:
257,69,32628,6,0,L|421:37,1,168,2|8,0:0|0:0,0:0:0:0:
510,155,33157,2,0,L|428:139,1,84,0|0,3:0|0:0,0:0:0:0:
231,384,33510,5,8,0:0:0:0:
374,284,33686,1,0,3:0:0:0:
219,209,33863,2,0,B|167:192|167:192|139:233|85:238,1,151.199995385742,4|0,0:1|0:0,0:0:0:0:
67,230,34216,6,0,L|57:168,1,63.0000024032594,10|0,0:0|0:0,0:0:0:0:
208,56,34745,6,0,P|166:52|126:40,1,84,0|0,3:0|3:0,0:0:0:0:
343,135,35098,1,8,0:0:0:0:
323,2,35275,1,0,3:0:0:0:
236,162,35451,6,0,P|244:203|246:244,1,84,10|0,0:0|0:0,0:0:0:0:
384,366,35804,2,0,P|375:324|373:283,1,84,10|0,0:0|0:0,0:0:0:0:
508,166,36157,2,0,L|342:134,1,168,10|0,0:0|3:0,0:0:0:0:
246,244,36686,1,8,0:0:0:0:
246,244,36863,1,0,3:0:0:0:
126,40,37039,6,0,L|112:101,1,63.0000024032594,6|0,3:2|0:0,0:0:0:0:
48,322,37569,5,0,3:0:0:0:
246,244,37746,1,0,3:0:0:0:
32,199,37922,1,8,0:0:0:0:
170,345,38098,1,8,0:3:0:0:
265,145,38275,6,0,P|224:156|183:164,1,84,10|0,0:0|3:0,0:0:0:0:
245,0,38628,2,0,P|286:7|326:19,1,84,10|0,0:0|3:0,0:0:0:0:
437,192,38981,2,0,L|471:26,1,168,8|8,0:0|0:0,0:0:0:0:
437,192,39510,1,0,3:0:0:0:
483,288,39686,6,0,B|436:249|369:243|369:243|354:253|329:260,1,168,4|8,3:2|0:0,0:0:0:0:
285,355,40216,1,0,3:0:0:0:
183,164,40392,2,0,P|158:244|146:327,1,168,4|8,3:2|0:0,0:0:0:0:
13,155,40922,1,0,0:0:0:0:
61,271,41098,6,0,P|101:262|140:244,1,84,4|0,3:2|0:0,0:0:0:0:
125,14,41451,2,0,P|112:53|108:95,1,84,0|8,3:0|0:0,0:0:0:0:
283,192,41804,1,0,3:0:0:0:
238,69,41981,1,8,0:0:0:0:
283,192,42157,6,0,B|319:169|366:171|366:171|403:201|413:235,1,168,0|0,3:0|0:0,0:0:0:0:
469,10,42686,5,4,3:2:0:0:
326,86,42863,1,8,0:0:0:0:
489,177,43039,2,0,P|492:135|505:95,1,84,8|0,0:0|3:0,0:0:0:0:
502,326,43392,5,8,0:0:0:0:
328,270,43569,1,8,0:3:0:0:
387,384,43745,1,4,0:3:0:0:
283,192,43922,6,0,B|222:173|222:173|172:190|149:243,1,168,10|8,0:0|0:0,0:0:0:0:
55,360,44451,2,0,P|45:319|28:280,1,84,8|0,0:0|3:0,0:0:0:0:
154,105,44804,5,10,0:0:0:0:
19,66,44981,1,0,3:0:0:0:
150,243,45157,2,0,P|188:226|229:216,1,84,10|0,0:0|3:0,0:0:0:0:
469,117,45510,5,8,0:0:0:0:
306,75,45686,1,0,3:0:0:0:
344,245,45863,2,0,L|363:163,1,84,8|0,0:0|3:0,0:0:0:0:
418,328,46216,5,8,0:0:0:0:
247,250,46392,1,8,0:3:0:0:
447,203,46569,1,4,0:3:0:0:
323,374,46745,1,10,0:2:0:0:
323,374,47628,6,0,B|281:331|281:331|226:322|185:370,1,168,2|2,0:0|0:0,0:0:0:0:
185,369,48333,6,0,P|141:290|134:198,1,184.800005639649,4|10,3:2|0:0,0:0:0:0:
151,42,48863,2,0,P|108:60|63:68,1,92.4000028198243,2|0,0:0|3:0,0:0:0:0:
233,200,49216,5,2,3:2:0:0:
287,49,49393,1,8,0:0:0:0:
229,215,49569,2,0,P|317:188|408:174,1,184.800005639649,2|0,0:0|3:0,0:0:0:0:
499,331,50098,5,8,0:0:0:0:
415,263,50275,1,0,3:0:0:0:
345,383,50451,2,0,P|336:337|325:292,1,92.4000028198243,2|0,0:0|3:0,0:0:0:0:
148,154,50804,2,0,P|139:199|128:244,1,92.4000028198243,10|0,0:0|0:0,0:0:0:0:
6,74,51157,6,0,P|73:83|131:47,1,138.600004229736,2|0,3:2|0:0,0:0:0:0:
146,8,51510,1,10,0:0:0:0:
288,128,51686,2,0,L|303:36,1,92.4000028198243,2|0,0:0|3:0,0:0:0:0:
398,142,52039,5,2,3:2:0:0:
229,215,52216,1,10,0:0:0:0:
367,324,52392,6,0,L|398:141,1,184.800005639649,2|0,0:0|3:0,0:0:0:0:
237,328,52922,2,0,P|197:304|152:296,1,92.4000028198243,8|0,0:0|0:0,0:0:0:0:
27,177,53275,5,2,0:0:0:0:
149,108,53451,1,0,3:0:0:0:
149,108,53539,1,0,3:0:0:0:
149,108,53628,2,0,L|128:198,1,92.4000028198243,8|2,0:0|0:0,0:0:0:0:
366,324,53981,6,0,B|419:272|409:194|409:194|369:209,1,184.800005639649,6|8,3:2|0:0,0:0:0:0:
281,242,54510,1,2,0:0:0:0:
146,8,54686,6,0,P|220:58|308:38,1,184.800005639649,2|8,3:2|0:0,0:0:0:0:
369,209,55216,1,8,0:3:0:0:
483,124,55392,6,0,P|437:114|392:105,1,92.4000028198243,4|4,0:3|0:3,0:0:0:0:
281,242,55745,1,4,0:3:0:0:
159,15,55922,6,0,P|142:105|127:197,1,184.800005639649,6|0,3:2|3:0,0:0:0:0:
169,378,56451,2,0,P|176:332|184:286,1,92.4000028198243,14|0,0:1|0:0,0:0:0:0:
295,148,56804,5,8,0:3:0:0:
421,311,56981,1,4,0:3:0:0:
393,319,57069,1,4,0:3:0:0:
366,324,57157,1,4,0:3:0:0:
295,148,57333,6,0,B|273:68|331:31|331:31|350:52|341:84,1,189.000007209778,14|0,0:0|0:0,0:0:0:0:
304,166,57686,2,0,P|261:152|215:145,1,92.4000028198243,2|10,3:2|0:0,0:0:0:0:
130,64,58039,1,2,0:0:0:0:
51,251,58216,6,0,P|41:205|32:160,1,92.4000028198243,0|0,3:0|3:0,0:0:0:0:
24,118,58481,1,8,0:0:0:0:
24,118,58569,1,8,0:0:0:0:
134,317,58745,5,2,3:2:0:0:
300,214,58922,1,0,3:0:0:0:
300,214,59010,1,8,0:0:0:0:
300,214,59098,2,0,B|335:160|301:102|301:102|283:120|294:147,1,168,6|0,3:1|3:0,0:0:0:0:
223,287,59628,6,0,P|310:258|402:251,1,184.800005639649,4|8,3:2|0:0,0:0:0:0:
469,157,60157,1,0,0:0:0:0:
419,341,60333,2,0,L|402:250,1,92.4000028198243,2|0,0:0|3:0,0:0:0:0:
457,57,60686,1,10,0:0:0:0:
294,147,60863,6,0,B|256:119|256:119|218:128|218:128|181:98|124:112,1,184.800005639649,2|0,0:0|0:0,0:0:0:0:
21,70,61392,1,8,0:0:0:0:
21,70,61569,1,2,0:0:0:0:
101,200,61745,2,0,P|116:156|123:111,1,92.4000028198243,2|2,3:2|3:2,0:0:0:0:
230,37,62098,1,8,0:0:0:0:
294,147,62275,6,0,P|360:207|449:195,1,184.800005639649,2|2,0:0|0:0,0:0:0:0:
294,147,62804,1,8,0:0:0:0:
366,18,62981,2,0,P|377:62|381:108,1,92.4000028198243,2|0,0:0|0:0,0:0:0:0:
353,342,63333,1,0,3:0:0:0:
449,195,63510,1,8,0:0:0:0:
336,369,63686,6,0,B|290:322|226:305|226:305|205:319|175:329,1,184.800005639649,2|0,3:2|3:0,0:0:0:0:
46,137,64216,5,10,0:0:0:0:
25,262,64392,1,0,3:0:0:0:
125,66,64569,5,2,3:2:0:0:
179,234,64745,1,10,0:0:0:0:
334,198,64922,1,10,0:0:0:0:
333,197,65275,6,0,P|246:175|178:233,1,184.800005639649,10|4,0:0|3:2,0:0:0:0:
223,85,65804,1,2,0:0:0:0:
265,268,65981,6,0,P|350:234|442:230,1,184.800005639649,2|8,3:2|0:0,0:0:0:0:
265,268,66510,1,2,0:0:0:0:
357,86,66686,5,10,0:2:0:0:
442,230,66863,2,0,P|447:184|457:139,1,92.4000028198243,2|0,0:0|3:0,0:0:0:0:
309,356,67216,6,0,P|245:329|177:329,1,138.600004229736,10|8,0:0|0:0,0:0:0:0:
138,351,67569,1,10,0:0:0:0:
16,262,67745,1,8,0:0:0:0:
192,184,67922,1,0,3:0:0:0:
9,85,68098,6,0,B|47:138|113:130|113:130|131:101|163:90,1,184.800005639649,4|10,3:2|0:0,0:0:0:0:
336,147,68628,1,2,0:0:0:0:
300,0,68804,2,0,P|271:36|264:81,1,92.4000028198243,0|0,3:0|3:0,0:0:0:0:
378,236,69157,1,10,0:0:0:0:
432,78,69333,1,0,0:0:0:0:
369,265,69510,6,0,B|336:259|308:249|308:249|259:277|259:277|223:277|195:264,1,184.800005639649,2|8,3:2|0:0,0:0:0:0:
47,64,70039,2,0,P|-3:138|8:228,1,184.800005639649,2|0,3:2|3:0,0:0:0:0:
64,384,70569,2,0,L|101:250,1,138.600004229736,10|0,0:0|0:0,0:0:0:0:
115,211,70922,5,4,3:2:0:0:
252,378,71098,1,2,0:0:0:0:
252,378,71275,2,0,P|209:359|164:352,1,92.4000028198243,8|2,0:0|0:0,0:0:0:0:
237,184,71628,5,2,3:2:0:0:
327,341,71804,1,2,0:0:0:0:
384,113,71981,1,8,0:0:0:0:
465,262,72157,6,0,P|423:242|377:235,1,92.4000028198243,6|0,3:2|0:0,0:0:0:0:
163,91,72510,1,8,0:0:0:0:
172,54,72598,1,8,0:0:0:0:
180,17,72686,1,0,3:0:0:0:
16,144,72863,6,0,P|3:188|8:233,1,92.4000028198243,0|0,3:0|3:0,0:0:0:0:
140,340,73216,1,8,0:0:0:0:
168,327,73304,1,0,3:0:0:0:
188,296,73392,5,0,3:0:0:0:
222,307,73481,1,0,3:0:0:0:
257,319,73569,1,0,3:0:0:0:
292,330,73657,1,0,3:0:0:0:
327,341,73745,5,4,3:2:0:0:
503,209,73922,1,2,0:0:0:0:
503,209,74010,1,2,0:0:0:0:
503,209,74098,1,8,0:0:0:0:
272,136,74275,6,0,P|317:205|394:232,1,168,2|2,0:0|3:2,0:0:0:0:
364,82,74804,1,8,0:0:0:0:
180,17,74981,6,0,P|163:99|147:181,1,168,2|0,0:0|3:0,0:0:0:0:
66,364,75510,1,8,0:0:0:0:
32,220,75686,1,2,0:0:0:0:
188,296,75863,2,0,P|228:284|270:282,1,84,0|2,3:0|0:0,0:0:0:0:
425,153,76216,1,8,0:0:0:0:
378,359,76392,1,2,0:0:0:0:
512,145,76569,6,0,P|472:133|430:131,1,84,2|0,3:2|3:0,0:0:0:0:
327,211,76922,1,10,0:0:0:0:
255,0,77098,6,0,P|238:82|222:164,1,168,0|0,3:0|3:0,0:0:0:0:
114,357,77628,1,10,0:0:0:0:
23,317,77804,6,0,P|82:261|163:269,1,168,2|0,0:0|3:0,0:0:0:0:
287,384,78333,2,0,P|295:342|303:301,1,84,8|2,0:0|0:0,0:0:0:0:
352,115,78686,1,0,3:0:0:0:
489,153,78863,1,4,0:0:0:0:
442,47,79039,5,8,0:0:0:0:
395,217,79216,1,2,0:0:0:0:
237,92,79392,6,0,P|199:110|157:115,1,84,4|2,3:2|0:0,0:0:0:0:
95,20,79745,1,10,0:0:0:0:
19,213,79922,2,0,P|101:213|163:268,1,168,2|0,0:0|3:0,0:0:0:0:
19,213,80451,1,8,0:0:0:0:
91,347,80628,6,0,P|170:319|253:311,1,168,2|2,0:2|3:2,0:0:0:0:
357,224,81157,1,10,0:0:0:0:
449,372,81333,2,0,L|465:289,1,84,2|0,0:0|3:0,0:0:0:0:
285,166,81686,5,2,0:0:0:0:
422,137,81863,1,10,0:0:0:0:
338,22,82039,1,2,0:0:0:0:
273,196,82216,6,0,P|234:179|193:173,1,84,8|0,0:0|3:0,0:0:0:0:
63,185,82569,1,0,3:0:0:0:
95,20,82745,2,0,L|62:184,1,168,8|8,0:0|0:0,0:0:0:0:
238,320,83275,6,0,B|194:298|194:298|157:347|90:346,1,168,6|8,3:2|0:0,0:0:0:0:
238,320,83804,1,10,0:0:0:0:
341,141,83981,2,0,L|357:224,1,84,8|0,0:0|3:0,0:0:0:0:
443,124,84333,1,8,0:0:0:0:
282,54,84510,1,0,3:0:0:0:
282,54,84599,1,0,3:0:0:0:
282,54,84687,2,0,B|223:26|223:26|159:40|139:107,1,189.000007209778,8|0,0:0|0:0,0:0:0:0:
110,202,85039,6,0,L|67:39,1,168,4|8,3:2|0:0,0:0:0:0:
110,202,85569,1,0,3:0:0:0:
134,314,85745,2,0,P|94:301|52:296,1,84,2|0,0:0|3:0,0:0:0:0:
192,240,86098,1,10,0:0:0:0:
256,384,86275,6,0,L|286:218,1,168,2|0,0:0|3:0,0:0:0:0:
417,267,86804,1,8,0:0:0:0:
377,155,86981,2,0,P|297:170|233:121,1,168,2|2,0:0|0:0,0:0:0:0:
316,67,87510,1,10,0:0:0:0:
316,67,87686,1,2,0:0:0:0:
144,31,87863,6,0,L|106:194,1,168,2|8,3:2|0:0,0:0:0:0:
143,359,88392,1,0,3:0:0:0:
0,319,88569,6,0,P|36:299|77:291,1,84,2|0,0:0|3:0,0:0:0:0:
194,211,88922,1,10,0:0:0:0:
256,383,89098,6,0,L|271:300,1,84,2|0,0:0|0:0,0:0:0:0:
377,155,89451,2,0,L|362:238,1,84,0|8,3:0|0:0,0:0:0:0:
447,372,89804,6,0,P|413:347|372:339,1,84,2|0,0:0|3:0,0:0:0:0:
194,211,90157,2,0,P|234:202|268:178,1,84,2|8,0:0|0:0,0:0:0:0:
460,212,90510,1,2,0:0:0:0:
489,46,90686,6,0,L|459:212,1,168,2|8,3:2|0:0,0:0:0:0:
283,89,91216,2,0,P|323:80|357:56,1,84,0|0,3:0|0:0,0:0:0:0:
199,0,91569,1,0,3:0:0:0:
107,206,91745,5,10,0:0:0:0:
66,42,91922,2,0,L|106:205,1,168,2|2,0:0|0:0,0:0:0:0:
36,368,92451,1,8,0:0:0:0:
180,340,92628,2,0,P|147:314|107:302,1,84,2|0,0:0|0:0,0:0:0:0:
250,189,92981,1,2,0:0:0:0:
284,352,93157,1,10,0:0:0:0:
461,277,93333,1,0,3:0:0:0:
461,277,93510,6,0,B|417:238|417:238|393:263|359:270,1,126,2|0,3:2|0:0,0:0:0:0:
333,259,93863,2,0,L|355:134,1,126.000004806519,12|2,0:0|0:0,0:0:0:0:
180,0,94216,6,0,P|134:40|141:100,1,126,2|0,3:2|0:0,0:0:0:0:
159,111,94569,2,0,L|283:88,1,126.000004806519,10|0,0:0|0:0,0:0:0:0:
332,258,94922,6,0,P|255:235|188:281,1,168,0|4,3:0|0:3,0:0:0:0:
115,226,95451,1,4,0:3:0:0:
136,365,95628,1,4,0:3:0:0:
14,211,95804,1,4,0:3:0:0:
188,282,95981,1,2,0:0:0:0:
188,282,96333,6,0,P|265:305|332:259,1,168,4|8,3:2|0:0,0:0:0:0:
440,148,96863,1,0,3:0:0:0:
507,260,97039,2,0,P|469:241|427:237,1,84,8|0,0:0|3:0,0:0:0:0:
278,114,97392,1,0,3:0:0:0:
332,258,97569,6,0,L|363:92,1,168,10|0,0:0|3:0,0:0:0:0:
200,23,98098,1,8,0:0:0:0:
200,142,98275,2,0,P|241:133|277:113,1,84,2|0,0:0|0:0,0:0:0:0:
107,63,98628,1,0,3:0:0:0:
66,183,98804,1,4,0:3:0:0:
157,266,98981,1,4,0:3:0:0:
3,316,99157,6,0,P|73:271|156:265,1,168,2|8,3:2|0:0,0:0:0:0:
345,367,99686,2,0,L|362:284,1,84,0|8,3:0|0:0,0:0:0:0:
241,176,100039,1,4,0:3:0:0:
266,309,100216,1,4,0:3:0:0:
439,219,100392,6,0,L|456:301,1,84,2|0,0:0|3:0,0:0:0:0:
312,89,100745,1,2,0:0:0:0:
451,25,100922,1,8,0:0:0:0:
292,100,101098,6,0,B|237:82|237:82|138:130,1,168,0|8,3:0|0:3,0:0:0:0:
81,21,101628,1,8,0:0:0:0:
40,171,101804,6,0,P|99:227|181:226,1,168,4|8,3:2|0:0,0:0:0:0:
292,100,102333,1,0,3:0:0:0:
428,254,102510,6,0,P|353:215|271:200,1,168,4|0,3:2|3:0,0:0:0:0:
199,38,103039,1,8,0:0:0:0:
391,132,103216,6,0,P|401:91|420:54,1,84,4|0,3:2|0:0,0:0:0:0:
271,200,103569,1,0,3:0:0:0:
199,38,103745,1,8,0:0:0:0:
391,132,103922,1,2,3:2:0:0:
320,0,104098,5,8,0:0:0:0:
271,200,104275,1,2,3:2:0:0:
270,200,104628,6,0,P|189:206|123:156,1,168,12|8,0:0|0:0,0:0:0:0:
61,20,105157,2,0,L|36:100,1,84,8|0,0:0|3:0,0:0:0:0:
96,235,105510,2,0,P|114:197|123:156,1,84,8|2,0:0|0:0,0:0:0:0:
0,277,105863,1,0,3:0:0:0:
141,326,106039,6,0,P|222:306|305:293,1,168,14|8,0:1|0:0,0:0:0:0:
481,223,106569,1,8,0:0:0:0:
413,352,106745,1,0,3:0:0:0:
358,199,106922,2,0,L|371:159,2,42,8|8|0,0:0|0:0|3:0,0:0:0:0:
183,54,107275,1,8,0:0:0:0:
142,43,107363,1,8,0:0:0:0:
101,48,107451,1,0,3:0:0:0:
64,68,107539,1,0,3:0:0:0:
36,100,107628,6,0,P|48:191|61:283,1,184.800005639649,4|10,3:2|0:0,0:0:0:0:
214,179,108157,2,0,P|176:154|131:145,1,92.4000028198243,2|0,0:0|3:0,0:0:0:0:
290,114,108510,1,2,3:2:0:0:
140,234,108686,1,8,0:0:0:0:
305,293,108863,6,0,B|361:281|361:281|394:297|394:297|440:297|476:264,1,184.800005639649,2|0,0:0|3:0,0:0:0:0:
321,202,109392,1,8,0:0:0:0:
462,91,109569,1,0,3:0:0:0:
462,91,109657,1,0,3:0:0:0:
462,90,109745,2,0,P|439:130|425:174,1,92.4000028198243,2|0,0:0|3:0,0:0:0:0:
305,293,110098,2,0,L|214:272,1,92.4000028198243,10|0,0:0|0:0,0:0:0:0:
36,100,110451,6,0,B|64:125|64:125|97:89|152:79,1,138.600004229736,2|0,3:2|0:0,0:0:0:0:
152,79,110804,1,10,0:0:0:0:
214,272,110981,6,0,P|175:246|130:239,1,92.4000028198243,2|0,0:0|3:0,0:0:0:0:
352,62,111333,2,0,P|326:100|321:146,1,92.4000028198243,2|10,3:2|0:0,0:0:0:0:
386,313,111686,2,0,L|424:132,1,184.800005639649,2|0,0:0|3:0,0:0:0:0:
483,247,112216,1,8,0:0:0:0:
323,211,112392,1,0,0:0:0:0:
243,367,112569,5,2,0:0:0:0:
130,238,112745,1,0,3:0:0:0:
130,238,112833,1,0,3:0:0:0:
130,238,112922,2,0,L|108:327,1,92.4000028198243,8|2,0:0|0:0,0:0:0:0:
33,194,113275,6,0,P|99:134|186:152,1,184.800005639649,6|8,3:2|0:0,0:0:0:0:
266,46,113804,1,2,0:0:0:0:
323,211,113981,2,0,L|349:122,1,92.4000028198243,2|0,3:2|0:0,0:0:0:0:
465,86,114333,1,8,0:0:0:0:
509,289,114510,1,8,0:3:0:0:
434,190,114686,6,0,L|407:278,1,92.4000028198243,4|4,0:3|0:3,0:0:0:0:
509,289,115039,1,4,0:3:0:0:
323,211,115216,6,0,B|255:194|255:194|200:221|174:273,1,184.800005639649,6|0,3:2|3:0,0:0:0:0:
43,76,115745,2,0,P|80:103|126:106,1,92.4000028198243,14|0,0:0|0:0,0:0:0:0:
265,79,116098,5,8,0:3:0:0:
63,205,116275,1,4,0:3:0:0:
63,205,116363,1,4,0:3:0:0:
63,205,116451,1,4,0:3:0:0:
109,22,116628,6,0,L|62:210,1,189.000007209778,14|0,0:0|0:0,0:0:0:0:
50,254,116981,1,2,3:2:0:0:
323,211,117157,2,0,P|282:190|236:189,1,92.4000028198243,10|2,0:0|0:0,0:0:0:0:
203,316,117510,5,0,3:0:0:0:
170,120,117686,1,0,3:0:0:0:
170,120,117775,1,8,0:0:0:0:
170,120,117863,1,8,0:0:0:0:
368,288,118039,6,0,B|423:252|402:179|402:179|435:200,1,163.799992501831,2|8,3:2|0:0,0:0:0:0:
453,310,118392,2,0,P|413:287|367:288,1,92.4000028198243,6|0,3:1|3:0,0:0:0:0:
236,188,118745,1,0,3:0:0:0:
146,374,118922,6,0,L|108:192,1,184.800005639649,4|8,3:2|0:0,0:0:0:0:
188,11,119451,1,0,0:0:0:0:
75,95,119628,2,0,P|120:94|164:110,1,92.4000028198243,2|0,0:0|3:0,0:0:0:0:
271,205,119981,1,10,0:0:0:0:
328,43,120157,1,2,0:0:0:0:
512,163,120333,6,0,B|456:184|456:184|394:174|341:135,1,184.800005639649,2|8,3:2|0:0,0:0:0:0:
183,200,120863,2,0,P|176:154|163:110,1,92.4000028198243,2|2,0:0|3:2,0:0:0:0:
237,297,121216,1,2,3:2:0:0:
79,250,121392,1,8,0:0:0:0:
274,316,121569,6,0,L|363:294,1,92.4000028198243,2|0,0:0|3:0,0:0:0:0:
341,136,121922,2,0,P|311:170|299:215,1,92.4000028198243,2|8,0:0|0:0,0:0:0:0:
474,343,122275,6,0,L|511:162,1,184.800005639649,2|0,0:0|3:0,0:0:0:0:
434,53,122804,1,8,0:0:0:0:
299,215,122981,6,0,B|224:201|181:144|181:144|168:185,1,184.800005639649,2|0,3:2|3:0,0:0:0:0:
60,340,123510,2,0,L|78:249,1,92.4000028198243,10|0,0:0|3:0,0:0:0:0:
17,146,123863,5,2,3:2:0:0:
168,185,124039,1,10,0:0:0:0:
244,22,124216,1,10,0:0:0:0:
244,22,124569,6,0,P|283:75|350:72,1,138.600004229736,10|0,0:0|0:0,0:0:0:0:
445,33,124922,2,0,L|417:138,1,109.199995001221,4|0,3:2|0:0,0:0:0:0:
474,343,125275,2,0,P|423:270|334:276,1,184.800005639649,2|8,3:2|0:0,0:0:0:0:
151,234,125804,5,2,0:0:0:0:
151,234,125892,1,2,0:0:0:0:
151,234,125981,2,0,L|60:214,1,92.4000028198243,10|2,0:2|0:0,0:0:0:0:
60,384,126333,1,4,3:1:0:0:
203,310,126510,2,0,B|245:283|256:224|229:187|229:187|240:143,1,184.800005639649,10|2,0:0|0:0,0:0:0:0:
173,19,127039,1,8,0:0:0:0:
79,117,127216,1,0,3:0:0:0:
329,17,127392,6,0,B|347:86|347:86|328:121|328:121|346:192,1,184.800005639649,4|10,3:2|0:0,0:0:0:0:
469,65,127922,1,2,0:0:0:0:
441,224,128098,2,0,L|417:134,1,92.4000028198243,0|0,3:0|3:0,0:0:0:0:
296,319,128451,2,0,P|336:296|381:289,1,92.4000028198243,10|0,0:0|0:0,0:0:0:0:
236,139,128804,6,0,B|180:182|197:244|197:244|178:276|143:273,1,184.800005639649,2|8,3:2|0:0,0:0:0:0:
0,32,129333,2,0,P|67:90|154:72,1,184.800005639649,2|0,3:2|3:0,0:0:0:0:
368,191,129863,2,0,L|278:215,1,92.4000028198243,10|0,0:0|0:0,0:0:0:0:
455,284,130216,5,4,3:2:0:0:
510,109,130392,1,2,0:0:0:0:
471,313,130569,2,0,L|381:289,1,92.4000028198243,8|2,0:0|0:0,0:0:0:0:
182,226,130922,5,2,3:2:0:0:
319,378,131098,1,2,0:0:0:0:
307,172,131275,1,8,0:0:0:0:
181,351,131451,6,0,P|110:296|22:314,1,184.800005639649,4|8,3:2|0:0,0:0:0:0:
182,226,131981,1,0,3:0:0:0:
95,60,132157,2,0,L|77:150,1,92.4000028198243,2|0,3:2|3:0,0:0:0:0:
76,150,132422,1,8,0:0:0:0:
76,150,132510,2,0,P|95:136|116:127,1,46.2000014099122,10|0,0:0|3:0,0:0:0:0:
222,55,132686,2,0,P|242:64|261:78,1,46.2000014099122,0|0,3:0|3:0,0:0:0:0:
369,191,132863,5,0,3:0:0:0:
369,191,132951,1,0,3:0:0:0:
369,191,133039,2,0,L|403:9,1,184.800005639649,6|10,3:2|0:0,0:0:0:0:
512,246,133569,2,0,P|466:254|425:275,1,92.4000028198243,2|0,0:0|3:0,0:0:0:0:
259,164,133922,2,0,L|276:255,1,92.4000028198243,2|8,0:0|0:0,0:0:0:0:
181,351,134275,6,0,P|92:351|43:277,1,184.800005639649,2|2,0:0|3:2,0:0:0:0:
161,195,134804,1,10,0:0:0:0:
0,133,134981,1,0,3:0:0:0:
147,24,135157,2,0,P|122:63|110:107,1,92.4000028198243,2|0,3:2|0:0,0:0:0:0:
275,254,135510,2,0,P|325:208|334:141,1,138.600004229736,10|0,0:0|0:0,0:0:0:0:
259,164,135863,6,0,L|276:255,1,92.4000028198243,2|0,3:2|0:0,0:0:0:0:
432,77,136216,2,0,P|343:87|276:27,1,184.800005639649,10|0,0:0|3:0,0:0:0:0:
161,195,136745,1,2,0:0:0:0:
0,133,136922,1,8,0:0:0:0:
119,28,137098,6,0,P|88:115|72:206,1,184.800005639649,2|0,0:0|3:0,0:0:0:0:
178,365,137628,1,8,0:0:0:0:
44,311,137804,2,0,L|134:292,1,92.4000028198243,2|0,0:0|3:0,0:0:0:0:
262,168,138157,5,2,0:0:0:0:
379,241,138333,2,0,L|289:259,1,92.4000028198243,12|0,0:0|0:1,0:0:0:0:
197,236,138686,6,0,B|151:183|178:126|178:126|178:86|152:67,1,184.800005639649,2|10,3:2|0:0,0:0:0:0:
178,365,139216,2,0,P|224:366|267:380,1,92.4000028198243,2|0,0:0|3:0,0:0:0:0:
383,274,139569,2,0,P|339:288|293:289,1,92.4000028198243,2|8,0:0|0:0,0:0:0:0:
488,202,139922,6,0,L|456:385,1,184.800005639649,2|0,0:0|3:0,0:0:0:0:
488,202,140451,1,10,0:0:0:0:
323,109,140628,1,0,3:0:0:0:
450,12,140804,2,0,P|447:58|433:101,1,92.4000028198243,2|0,3:2|0:0,0:0:0:0:
243,185,141157,2,0,L|107:155,1,138.600004229736,10|0,0:0|0:0,0:0:0:0:
37,200,141510,6,0,B|-27:151|24:67|24:67|49:91,1,184.800005639649,2|10,3:2|0:0,0:0:0:0:
116,246,142039,1,2,0:0:0:0:
0,354,142216,2,0,P|41:334|87:330,1,92.4000028198243,0|2,3:0|0:0,0:0:0:0:
243,185,142569,1,8,0:0:0:0:
211,367,142745,6,0,L|243:184,1,184.800005639649,6|8,0:0|0:0,0:0:0:0:
107,155,143275,1,8,0:0:0:0:
222,11,143451,2,0,P|200:51|191:96,1,92.4000028198243,0|8,3:0|0:0,0:0:0:0:
355,203,143804,5,0,3:0:0:0:
290,106,143981,2,0,L|379:84,1,92.4000028198243,12|0,0:0|0:0,0:0:0:0:
472,233,144333,6,0,P|407:241|354:202,1,134.4,8|0,0:3|0:0,0:0:0:0:
266,316,144863,1,8,0:3:0:0:
266,316,145039,2,0,L|242:183,1,134.4,4|8,0:3|0:0,0:0:0:0:
191,96,145569,1,0,0:0:0:0:
93,133,145745,1,8,0:3:0:0:
33,21,145922,6,0,P|22:52|19:86,1,67.2,4|0,0:3|0:0,0:0:0:0:
73,269,146275,2,0,L|96:136,1,134.4,4|0,0:3|0:0,0:0:0:0:
73,269,146804,1,8,0:0:0:0:
44,366,146981,1,0,0:0:0:0:
143,335,147157,5,12,0:3:0:0:
277,382,147333,2,0,L|265:315,1,67.2,4|0,0:3|0:0,0:0:0:0:
354,202,147686,2,0,P|407:241|472:233,1,134.4,4|4,0:3|0:3,0:0:0:0:
491,135,148216,2,0,L|427:155,1,67.2,8|0,0:0|0:0,0:0:0:0:
332,114,148569,5,8,0:3:0:0:
347,48,148745,2,0,L|332:113,1,67.2,4|0,0:3|0:0,0:0:0:0:
162,227,149098,2,0,L|190:95,1,134.4,4|0,0:3|3:0,0:0:0:0:
79,152,149628,1,8,0:0:0:0:
60,45,149804,1,8,0:0:0:0:
30,255,149981,6,0,L|161:226,1,134.4,0|0,3:0|3:0,0:0:0:0:
279,356,150510,1,8,0:3:0:0:
188,373,150686,2,0,L|202:307,1,67.2,0|0,3:0|0:0,0:0:0:0:
313,215,151039,5,8,0:0:0:0:
313,215,151216,1,4,0:3:0:0:
381,317,151392,1,2,0:0:0:0:
483,257,151569,2,0,L|497:191,1,67.2,0|8,0:0|0:3,0:0:0:0:
427,60,151922,2,0,L|412:125,1,67.2,8|0,0:0|3:0,0:0:0:0:
313,215,152275,5,8,0:0:0:0:
341,25,152451,1,8,0:0:0:0:
130,77,152628,6,0,B|180:58|180:58|225:104|292:123,1,184.800005639649,4|8,3:2|0:0,0:0:0:0:
164,164,153157,1,0,3:0:0:0:
56,0,153333,6,0,L|20:181,1,184.800005639649,12|0,0:0|3:0,0:0:0:0:
30,357,153863,1,0,3:0:0:0:
175,310,154039,6,0,B|134:281|134:281|60:293|30:359,1,184.800005639649,12|0,0:0|3:0,0:0:0:0:
244,217,154569,5,8,0:0:0:0:
266,353,154745,1,0,3:0:0:0:
353,182,154922,5,8,0:3:0:0:
377,366,155098,1,4,0:3:0:0:
377,366,155451,6,0,L|353:182,1,184.800005639649,4|0,3:2|0:0,0:0:0:0:
506,302,155981,2,0,P|466:279|420:274,1,92.4000028198243,0|0,3:0|0:0,0:0:0:0:
262,128,156333,1,8,0:3:0:0:
365,91,156510,2,0,L|353:182,1,92.4000028198243,4|4,0:3|0:3,0:0:0:0:
492,28,156863,6,0,B|427:40|378:-1|378:-1|341:-5|320:17,1,184.800005639649,12|0,0:1|3:0,0:0:0:0:
164,164,157392,2,0,L|143:73,1,92.4000028198243,8|0,0:0|3:0,0:0:0:0:
68,286,157745,5,8,0:0:0:0:
235,233,157922,1,8,0:0:0:0:
164,381,158098,1,0,3:0:0:0:
341,317,158275,1,12,0:0:0:0:
341,317,158628,5,8,0:0:0:0:
256,143,158804,2,0,L|234:233,1,92.4000028198243,8|4,0:3|0:3,0:0:0:0:
381,177,159157,5,8,0:0:0:0:
152,93,159333,1,0,3:0:0:0:
373,27,159510,1,0,3:0:0:0:
234,232,159686,5,10,0:0:0:0:
256,192,159775,12,2,162686,0:0:0:0:
224,225,171157,6,0,P|161:199|93:187,1,138.600004229736,2|0,3:2|0:0,0:0:0:0:
54,205,171510,1,0,3:0:0:0:
281,318,171686,6,0,B|352:271|322:179|322:179|368:218,1,218.399990002442,12|2,0:0|3:2,0:0:0:0:
490,329,172216,2,0,L|512:239,1,92.4000028198243,8|2,0:2|0:2,0:0:0:0:
465,123,172569,5,8,0:3:0:0:
368,218,172745,2,0,L|380:262,2,46.2000014099122,0|4|4,3:0|0:3|0:3,0:0:0:0:
334,74,173098,6,0,P|255:82|197:27,1,163.799992501831,8|8,0:0|0:0,0:0:0:0:
177,10,173451,2,0,P|160:31|149:56,1,54.5999975006105,6|0,0:1|0:0,0:0:0:0:
19,153,173628,1,0,3:0:0:0:
10,193,173716,1,0,3:0:0:0:
16,233,173804,1,0,3:0:0:0:
37,268,173892,1,0,3:0:0:0:
70,292,173981,6,0,P|160:273|250:253,1,184.800005639649,4|8,3:2|0:0,0:0:0:0:
330,312,174510,1,2,0:0:0:0:
269,162,174686,2,0,L|250:252,1,92.4000028198243,2|2,3:2|0:0,0:0:0:0:
334,74,175039,1,10,0:0:0:0:
512,156,175216,6,0,B|478:100|409:112|409:112|388:144|359:153,1,184.800005639649,2|0,0:0|0:0,0:0:0:0:
197,108,175745,1,8,0:0:0:0:
320,0,175922,1,2,0:0:0:0:
320,0,176010,1,2,0:0:0:0:
319,0,176098,2,0,P|299:41|289:86,1,92.4000028198243,2|2,3:2|0:0,0:0:0:0:
173,200,176451,1,10,0:0:0:0:
110,78,176628,6,0,P|151:97|196:107,1,92.4000028198243,2|0,0:0|3:0,0:0:0:0:
57,308,176981,1,0,3:0:0:0:
22,148,177157,1,8,0:0:0:0:
40,340,177333,6,0,P|81:321|126:311,1,92.4000028198243,2|0,0:0|3:0,0:0:0:0:
196,107,177686,2,0,L|216:197,1,92.4000028198243,2|8,0:0|0:0,0:0:0:0:
319,332,178039,6,0,L|359:151,1,184.800005639649,2|0,0:0|3:0,0:0:0:0:
512,303,178569,2,0,P|476:273|432:263,1,92.4000028198243,10|0,0:0|3:0,0:0:0:0:
216,197,178922,1,2,3:2:0:0:
83,40,179098,1,10,0:0:0:0:
37,242,179275,1,10,0:0:0:0:
37,242,179628,6,0,P|125:214|215:196,1,184.800005639649,8|12,0:0|0:1,0:0:0:0:
264,87,180157,1,0,3:0:0:0:
432,263,180333,6,0,P|375:331|287:322,1,184.800005639649,10|8,0:0|0:0,0:0:0:0:
355,160,180863,1,0,3:0:0:0:
355,160,180951,1,0,3:0:0:0:
354,160,181039,2,0,P|345:205|341:251,1,92.4000028198243,10|10,0:0|0:0,0:0:0:0:
474,173,181392,1,8,3:0:0:0:
264,87,181569,2,0,L|130:122,1,138.600004229736,10|0,0:0|0:0,0:0:0:0:
86,99,181922,5,10,0:0:0:0:
210,194,182098,1,4,0:3:0:0:
45,262,182275,1,4,0:3:0:0:
239,344,182451,6,0,P|304:282|393:292,1,184.800005639649,4|8,3:2|0:0,0:0:0:0:
512,173,182981,1,2,0:0:0:0:
411,100,183157,2,0,P|396:143|392:189,1,92.4000028198243,2|0,3:2|0:0,0:0:0:0:
466,350,183510,2,0,P|480:306|484:260,1,92.4000028198243,10|0,0:0|0:0,0:0:0:0:
306,129,183863,6,0,B|240:97|240:97|198:130|140:145,1,184.800005639649,2|8,3:2|0:0,0:0:0:0:
116,325,184392,2,0,B|173:340|215:373|215:373|281:341,1,184.800005639649,2|0,3:2|0:0,0:0:0:0:
243,188,184922,2,0,P|230:233|222:278,1,92.4000028198243,8|0,0:0|0:0,0:0:0:0:
146,204,185275,5,4,3:2:0:0:
320,246,185451,2,0,P|364:233|409:225,1,92.4000028198243,2|10,0:0|0:0,0:0:0:0:
258,98,185804,1,2,0:0:0:0:
384,32,185981,6,0,P|371:76|363:121,1,92.4000028198243,0|2,3:0|0:0,0:0:0:0:
496,144,186333,1,10,0:0:0:0:
512,287,186510,6,0,P|423:281|367:350,1,184.800005639649,2|2,0:0|0:0,0:0:0:0:
243,188,187039,1,8,0:0:0:0:
132,299,187216,2,0,P|176:286|221:278,1,92.4000028198243,2|0,0:0|3:2,0:0:0:0:
341,135,187569,1,2,0:0:0:0:
185,20,187745,1,10,0:0:0:0:
185,20,188098,6,0,B|160:82|85:92|85:92|72:66|44:56,1,184.800005639649,6|10,3:2|0:0,0:0:0:0:
138,164,188628,1,2,0:0:0:0:
7,262,188804,2,0,P|49:244|95:238,1,92.4000028198243,2|0,3:2|0:0,0:0:0:0:
206,369,189157,1,8,0:0:0:0:
243,188,189333,6,0,P|217:276|205:368,1,184.800005639649,2|0,0:0|3:0,0:0:0:0:
117,250,189863,1,8,0:0:0:0:
317,303,190039,2,0,L|407:285,1,92.4000028198243,2|0,0:0|3:0,0:0:0:0:
490,135,190392,1,0,3:0:0:0:
366,183,190569,1,10,0:0:0:0:
366,183,190922,5,4,3:2:0:0:
192,124,191098,1,2,0:0:0:0:
234,291,191275,2,0,P|242:245|259:202,1,92.4000028198243,10|2,0:0|0:0,0:0:0:0:
166,35,191628,6,0,P|183:77|191:123,1,92.4000028198243,0|2,3:0|0:0,0:0:0:0:
63,228,191981,1,10,0:0:0:0:
234,291,192157,6,0,L|414:253,1,184.800005639649,6|8,3:2|0:0,0:0:0:0:
318,36,192686,1,8,0:3:0:0:
318,36,192775,1,8,0:3:0:0:
318,35,192863,2,0,P|301:77|298:123,1,92.4000028198243,8|4,0:3|0:3,0:0:0:0:
412,298,193216,1,8,0:0:0:0:
388,289,193304,1,8,0:0:0:0:
365,265,193392,5,0,3:0:0:0:
331,271,193480,1,0,3:0:0:0:
299,278,193568,1,0,3:0:0:0:
267,284,193656,1,0,3:0:0:0:
234,291,193744,5,4,3:2:0:0:
50,241,193922,1,2,0:0:0:0:
50,241,194010,1,2,0:0:0:0:
50,241,194098,1,10,0:0:0:0:
109,316,194275,6,0,B|161:265|135:203|135:203|135:177|149:163,1,168,2|2,0:0|3:2,0:0:0:0:
50,241,194804,1,10,0:0:0:0:
105,72,194981,6,0,P|163:128|244:121,1,168,2|2,3:2|0:0,0:0:0:0:
319,10,195510,1,10,0:0:0:0:
465,55,195686,1,2,0:0:0:0:
389,181,195863,2,0,L|371:99,1,84,0|2,3:0|0:0,0:0:0:0:
340,283,196216,1,10,0:0:0:0:
495,236,196392,1,2,0:0:0:0:
331,305,196569,6,0,P|293:285|252:279,1,84,0|2,3:0|0:0,0:0:0:0:
192,194,196922,1,8,0:0:0:0:
120,384,197098,6,0,L|85:219,1,168,6|2,0:0|0:0,0:0:0:0:
14,136,197628,5,10,0:0:0:0:
192,194,197804,2,0,P|248:135|241:54,1,168,2|2,0:0|3:2,0:0:0:0:
192,194,198333,1,10,0:0:0:0:
73,83,198510,2,0,P|115:86|155:100,1,84,2|0,0:0|3:0,0:0:0:0:
192,194,198863,1,6,0:0:0:0:
102,301,199039,2,0,L|85:219,1,84,10|0,0:0|0:0,0:0:0:0:
241,54,199392,6,0,P|276:74|318:76,1,84,0|2,3:0|0:0,0:0:0:0:
389,181,199745,1,10,0:0:0:0:
426,18,199922,2,0,L|389:181,1,168,2|2,0:0|3:2,0:0:0:0:
352,331,200451,1,10,0:0:0:0:
489,313,200628,6,0,P|457:285|418:269,1,84,2|0,0:0|0:0,0:0:0:0:
277,384,200981,1,2,3:2:0:0:
227,221,201157,2,0,L|208:303,1,84,10|2,0:0|0:0,0:0:0:0:
315,238,201510,5,0,3:0:0:0:
315,238,201686,1,2,0:0:0:0:
125,368,201863,2,0,L|106:285,1,84,10|2,0:0|0:0,0:0:0:0:
153,101,202216,5,2,3:2:0:0:
10,144,202392,2,0,P|46:163|88:165,1,84,2|8,0:0|0:0,0:0:0:0:
132,22,202745,2,0,P|151:58|153:100,1,84,2|0,0:0|3:0,0:0:0:0:
227,221,203098,6,0,P|228:179|248:142,1,84,2|8,3:2|0:0,0:0:0:0:
479,236,203451,2,0,L|314:204,1,168,2|8,0:0|0:0,0:0:0:0:
479,236,203981,1,8,0:0:0:0:
369,349,204157,1,0,3:0:0:0:
247,142,204333,6,0,P|227:179|227:221,1,84,8|4,0:0|0:0,0:0:0:0:
246,258,204598,1,0,0:0:0:0:
246,258,204686,2,0,L|163:274,1,84,2|2,0:0|0:0,0:0:0:0:
0,122,205039,6,0,B|12:146|42:158|42:158|86:105|151:99,1,184.800005639649,4|8,3:2|0:0,0:0:0:0:
370,286,205569,2,0,B|335:299|335:299|306:264|245:257,1,138.600004229736,2|0,0:0|0:0,0:0:0:0:
245,257,205922,1,2,3:2:0:0:
456,353,206098,2,0,L|476:262,1,92.4000028198243,10|0,0:0|0:0,0:0:0:0:
346,197,206451,5,2,3:2:0:0:
415,62,206628,2,0,L|435:152,1,92.4000028198243,2|8,0:0|0:0,0:0:0:0:
370,286,206981,5,2,0:0:0:0:
247,142,207157,2,0,B|172:120|119:181|119:181|95:178|81:162,1,184.800005639649,2|10,3:2|0:0,0:0:0:0:
39,73,207686,1,2,0:0:0:0:
9,235,207863,6,0,P|76:294|163:273,1,184.800005639649,2|8,3:2|0:0,0:0:0:0:
346,197,208392,1,0,3:0:0:0:
290,343,208569,5,2,0:0:0:0:
228,182,208745,2,0,P|238:137|237:90,1,92.4000028198243,2|10,3:2|0:0,0:0:0:0:
136,55,209098,5,0,3:0:0:0:
293,16,209275,1,2,0:0:0:0:
346,197,209451,1,2,3:2:0:0:
237,90,209628,1,8,0:0:0:0:
478,23,209804,6,0,P|455:112|440:203,1,184.800005639649,2|2,0:0|0:0,0:0:0:0:
332,107,210333,1,14,0:0:0:0:
332,107,210510,1,2,0:0:0:0:
512,270,210686,6,0,P|452:335|365:320,1,184.800005639649,2|10,3:2|0:0,0:0:0:0:
228,182,211216,2,0,B|197:168|197:168|162:186|162:186|103:217|57:179,1,184.800005639649,2|0,0:0|3:0,0:0:0:0:
202,260,211745,1,10,0:0:0:0:
110,114,211922,6,0,P|149:35|237:32,1,184.800005639649,2|0,0:0|3:0,0:0:0:0:
322,154,212451,1,8,0:0:0:0:
414,15,212628,2,0,P|429:58|431:104,1,92.4000028198243,2|0,0:0|3:0,0:0:0:0:
335,237,212981,1,2,0:0:0:0:
501,326,213157,1,8,0:0:0:0:
501,326,213510,6,0,P|461:302|415:296,1,92.4000028198243,8|4,0:3|0:3,0:0:0:0:
310,337,213863,1,4,0:3:0:0:
159,234,214039,2,0,P|176:167|183:98,1,138.600004229736,10|0,0:0|0:0,0:0:0:0:
165,66,214392,1,14,0:1:0:0:
13,282,214569,6,0,B|116:254|83:349|198:322,1,201.6,4|8,0:0|0:0,0:0:0:0:
338,160,215275,5,8,0:0:0:0:
159,234,215451,1,8,0:0:0:0:
310,337,215628,1,8,0:0:0:0:
310,337,215981,5,6,3:2:0:0:
179,102,216157,1,6,3:2:0:0:
256,192,216245,12,4,222333,0:3:0:0:
