osu file format v14

[General]
AudioFilename: audio.mp3
AudioLeadIn: 0
PreviewTime: 47531
Countdown: 0
SampleSet: Soft
StackLeniency: 0.7
Mode: 0
LetterboxInBreaks: 0
WidescreenStoryboard: 0

[Editor]
DistanceSpacing: 1.3
BeatDivisor: 4
GridSize: 32
TimelineZoom: 2.1

[Metadata]
Title:Rainbow Days
TitleUnicode:Rainbow Days
Artist:Ceui
ArtistUnicode:Ceui
Creator:Garden
Version:Hard
Source:月の彼方で逢いましょう SweetSummerRainbow
Tags:_lai Remapper ImpurePug tsuki no kanata de aimashou opening tone work's japanese video game eroge visual novel
BeatmapID:2256635
BeatmapSetID:1078381

[Difficulty]
HPDrainRate:5
CircleSize:4
OverallDifficulty:6
ApproachRate:7.5
SliderMultiplier:1.3
SliderTickRate:1

[Events]
//Background and Video events
0,0,"rein1.jpg",0,0
//Break Periods
//Storyboard Layer 0 (Background)
//Storyboard Layer 1 (Fail)
//Storyboard Layer 2 (Pass)
//Storyboard Layer 3 (Foreground)
//Storyboard Layer 4 (Overlay)
//Storyboard Sound Samples

[TimingPoints]
424,352.941176470588,4,2,1,60,1,0
10041,-100,4,2,1,40,0,0
11718,-100,4,2,1,60,0,0
20541,-80,4,2,1,60,0,0
20806,-80,4,2,1,10,0,0
20894,-100,4,2,1,60,0,0
21247,-80,4,2,1,60,0,0
21512,-80,4,2,1,10,0,0
21600,-100,4,2,1,60,0,0
23012,-100,4,2,1,50,0,0
24423,-100,4,2,1,40,0,0
25482,-100,4,2,1,60,0,0
39776,-100,4,2,1,65,0,0
48423,-90.9090909090909,4,2,1,70,0,1
79482,-100,4,2,1,70,0,0
90776,-100,4,2,1,50,0,0
96600,-100,4,2,1,35,0,0

[Colours]
Combo1 : 255,185,185
Combo2 : 128,255,255
Combo3 : 255,255,128
Combo4 : 128,255,128

[HitObjects]
421,371,424,6,0,P|351:348|284:332,1,130,12|2,0:0|0:0,0:0:0:0:
220,372,953,2,0,P|261:323|246:244,1,130,10|2,0:0|0:0,0:0:0:0:
425,253,1659,2,0,P|384:204|399:125,1,130,12|2,0:0|0:0,0:0:0:0:
440,73,2188,1,2,0:0:0:0:
440,73,2365,2,0,P|474:77|510:85,2,65,10|0|2,0:0|0:0|0:0,0:0:0:0:
381,12,2894,2,0,P|348:9|294:0,1,65,2|0,3:2|0:0,0:0:0:0:
280,81,3247,5,10,0:0:0:0:
280,81,3423,2,0,P|289:119|294:156,1,65,2|0,0:0|0:0,0:0:0:0:
235,206,3776,2,0,P|161:207|117:165,1,130,10|0,0:0|0:0,0:0:0:0:
113,87,4306,1,10,0:0:0:0:
35,120,4482,2,0,B|12:162|12:162|40:241,1,130,8|8,0:3|0:0,0:0:0:0:
48,324,5012,2,0,P|78:313|110:304,1,65,8|0,0:3|0:0,0:0:0:0:
231,344,5365,2,0,P|200:354|169:363,1,65,2|10,0:0|0:0,0:0:0:0:
166,238,5718,2,0,P|197:228|228:218,1,65,8|10,0:3|0:0,0:0:0:0:
316,228,6071,5,12,0:0:0:0:
316,228,6247,2,0,P|307:271|300:315,1,65,0|2,0:0|0:0,0:0:0:0:
362,352,6600,2,0,P|434:345|472:299,1,130,10|8,0:0|0:0,0:0:0:0:
491,222,7129,1,8,0:0:0:0:
491,222,7306,2,0,P|419:215|381:169,1,130,12|2,0:0|0:0,0:0:0:0:
341,100,7835,1,2,3:2:0:0:
341,100,8012,2,0,P|346:74|360:27,2,65,2|0|2,3:2|0:0|3:2,0:0:0:0:
263,134,8541,2,0,P|256:169|245:200,1,65,4|0,3:2|0:0,0:0:0:0:
206,274,8894,5,10,0:0:0:0:
151,203,9071,2,0,P|117:193|70:187,1,65,10|0,0:0|1:0,0:0:0:0:
206,274,9423,2,0,P|283:276|321:239,1,130,10|0,0:0|1:0,0:0:0:0:
349,162,9953,1,12,0:0:0:0:
256,192,10041,12,0,11321,0:0:0:0:
27,258,11718,6,0,P|92:274|164:283,1,130,12|0,0:0|1:0,0:0:0:0:
235,257,12247,1,2,0:0:0:0:
235,257,12423,2,0,P|242:294|248:343,2,65,8|10|0,0:0|0:0|1:0,0:0:0:0:
320,259,12953,6,0,P|357:209|328:127,1,130,2|0,0:0|0:0,0:0:0:0:
431,129,13482,1,0,1:0:0:0:
431,129,13659,2,0,P|406:71|320:56,1,130,10|10,0:0|0:0,0:0:0:0:
274,95,14188,2,0,P|242:101|199:108,1,65,2|0,1:2|0:0,0:0:0:0:
136,64,14541,5,10,0:0:0:0:
34,198,14894,1,0,1:0:0:0:
136,64,15247,2,0,P|128:107|124:145,1,65,10|10,0:0|0:0,0:0:0:0:
180,192,15600,1,0,1:2:0:0:
180,192,15776,6,0,P|202:249|159:304,1,130,10|10,0:0|0:0,0:0:0:0:
90,342,16306,1,0,1:0:0:0:
90,342,16482,2,0,P|170:355|230:373,1,130,2|10,0:0|0:0,0:0:0:0:
301,379,17012,2,0,P|306:350|319:307,1,65,0|0,1:0|0:0,0:0:0:0:
319,231,17365,6,0,P|406:215|429:181,2,130,10|0|8,0:0|1:0|0:0,0:0:0:0:
235,250,18247,1,8,0:0:0:0:
235,250,18423,2,0,P|235:217|246:172,1,65,2|0,1:2|0:0,0:0:0:0:
201,110,18776,6,0,P|145:148|73:130,1,130,10|0,0:0|1:0,0:0:0:0:
16,43,19306,2,0,P|47:50|80:55,1,65,10|0,0:0|0:0,0:0:0:0:
155,13,19659,2,0,P|194:19|244:25,1,65,10|0,0:0|1:0,0:0:0:0:
302,6,20012,6,0,P|318:80|334:134,1,130,2|0,0:0|0:0,0:0:0:0:
501,219,20541,6,0,P|469:182|395:203,1,121.875,4|0,1:2|0:0,0:0:0:0:
391,213,20894,2,0,P|355:223|325:234,1,65,10|8,0:0|0:0,0:0:0:0:
215,101,21247,6,0,B|215:100|278:117|340:133,1,121.875,4|0,1:2|0:0,0:0:0:0:
356,131,21600,2,0,P|348:100|344:64,1,65,10|0,0:0|0:0,0:0:0:0:
274,19,21953,6,0,P|242:12|196:1,1,65,0|0,1:0|0:0,0:0:0:0:
180,24,22218,1,8,0:0:0:0:
180,24,22306,1,0,1:0:0:0:
215,101,22482,1,2,0:0:0:0:
140,141,22659,2,0,P|108:134|62:123,1,65,12|0,0:0|0:0,0:0:0:0:
28,57,23012,5,10,0:0:0:0:
207,242,24423,2,0,P|303:170|387:201,1,195,2|2,0:0|0:0,0:0:0:0:
501,290,25306,1,0,0:0:0:0:
436,343,25482,2,0,L|365:335,1,65,2|0,0:0|0:0,0:0:0:0:
298,291,25835,6,0,P|258:343|170:340,1,130,12|0,0:0|1:0,0:0:0:0:
116,324,26365,1,2,0:0:0:0:
116,324,26541,2,0,L|127:249,1,65,10|8,0:0|0:0,0:0:0:0:
54,212,26894,2,0,L|65:137,1,65,0|2,1:0|0:0,0:0:0:0:
142,117,27247,5,10,0:0:0:0:
6,16,27600,1,0,1:0:0:0:
142,117,27953,2,0,L|235:102,1,65,0|10,0:0|0:0,0:0:0:0:
268,49,28306,1,0,1:0:0:0:
268,49,28482,6,0,P|353:56|382:98,1,130,2|0,0:0|0:0,0:0:0:0:
462,92,29012,1,0,1:0:0:0:
462,92,29188,2,0,L|449:175,1,65,2|8,0:0|0:0,0:0:0:0:
369,176,29541,2,0,L|356:259,1,65,8|0,0:0|1:0,0:0:0:0:
399,314,29894,6,0,P|353:276|270:292,1,130,2|2,0:0|0:0,0:0:0:0:
210,320,30423,1,0,1:2:0:0:
38,376,30776,2,0,L|29:312,1,65,10|8,0:0|0:0,0:0:0:0:
110,235,31129,2,0,L|119:299,1,65,2|0,1:2|0:0,0:0:0:0:
197,203,31482,6,0,P|212:142|177:89,1,130,10|0,0:0|1:0,0:0:0:0:
8,69,32188,1,10,0:0:0:0:
66,6,32365,2,0,L|141:21,1,65,8|0,0:0|1:0,0:0:0:0:
177,89,32718,6,0,P|241:75|309:64,1,130,10|0,0:0|1:0,0:0:0:0:
389,63,33247,2,0,P|380:101|373:141,1,65,10|8,0:0|0:0,0:0:0:0:
302,170,33600,1,0,1:0:0:0:
347,240,33776,1,10,0:0:0:0:
272,280,33953,2,0,P|247:274|204:267,1,65,12|0,0:0|0:0,0:0:0:0:
324,384,34306,5,12,0:0:0:0:
510,285,34835,1,8,0:0:0:0:
510,285,35012,2,0,P|506:252|500:220,1,65,10|0,0:0|1:0,0:0:0:0:
419,197,35365,1,2,0:0:0:0:
419,197,35541,2,0,P|409:142|459:80,1,130,10|10,0:0|0:0,0:0:0:0:
303,0,36247,2,0,P|313:55|263:117,1,130,10|8,0:0|0:0,0:0:0:0:
177,125,36776,2,0,P|183:99|200:46,1,65,2|0,0:0|0:0,0:0:0:0:
316,194,37129,5,12,0:0:0:0:
130,367,37659,1,8,0:0:0:0:
130,367,37835,2,0,P|138:334|151:286,1,65,10|0,0:0|1:0,0:0:0:0:
182,227,38188,1,10,0:0:0:0:
182,227,38365,2,0,P|121:272|47:253,1,130,10|10,0:0|0:0,0:0:0:0:
220,345,39071,2,0,P|281:300|355:319,1,130,10|8,0:0|0:0,0:0:0:0:
399,355,39600,1,10,0:0:0:0:
471,312,39776,6,0,B|493:272|493:272|462:182,1,130,12|8,0:0|0:0,0:0:0:0:
477,104,40306,1,8,0:0:0:0:
477,104,40482,2,0,P|401:124|376:184,1,130,12|8,0:0|0:0,0:0:0:0:
383,250,41012,1,2,0:0:0:0:
383,250,41188,2,0,P|327:234|238:218,1,130,12|10,0:0|0:0,0:0:0:0:
181,261,41718,1,8,0:0:0:0:
181,261,41894,2,0,P|221:208|205:131,1,130,2|0,0:0|0:0,0:0:0:0:
169,76,42423,1,2,0:0:0:0:
169,76,42776,6,0,L|85:89,1,65,12|0,0:0|1:0,0:0:0:0:
63,160,43129,2,0,L|-24:172,1,65,0|8,1:0|0:0,0:0:0:0:
111,234,43482,1,0,1:0:0:0:
111,234,43659,2,0,L|96:304,1,65,8|8,0:0|0:0,0:0:0:0:
156,358,44012,6,0,P|223:315|290:333,1,130,12|0,0:0|1:0,0:0:0:0:
335,268,44541,2,0,P|367:275|408:283,2,65,0|8|0,1:0|0:0|1:0,0:0:0:0:
261,224,45071,1,10,0:0:0:0:
261,224,45247,2,0,P|253:189|248:147,1,65,10|8,0:0|0:0,0:0:0:0:
283,82,45600,5,10,0:0:0:0:
362,110,45776,1,0,1:0:0:0:
397,33,45953,2,0,P|364:20|327:6,1,65,8|4,0:3|0:3,0:0:0:0:
204,32,46306,5,2,1:2:0:0:
165,106,46482,1,8,0:3:0:0:
231,158,46659,1,10,0:0:0:0:
192,232,46835,1,10,0:0:0:0:
192,232,48423,6,0,P|119:233|68:183,1,143.000004364014,12|0,0:0|1:0,0:0:0:0:
11,114,48953,2,0,P|48:104|90:90,1,71.5000021820069,2|8,0:0|0:0,0:0:0:0:
121,10,49306,2,0,P|154:21|189:29,1,71.5000021820069,8|0,0:0|1:0,0:0:0:0:
282,19,49659,6,0,B|236:38|236:38|212:99|264:140,1,143.000004364014,10|8,0:0|0:0,0:0:0:0:
327,174,50188,1,0,1:0:0:0:
455,39,50541,2,0,P|445:73|435:111,1,71.5000021820069,2|8,0:0|0:0,0:0:0:0:
499,175,50894,2,0,L|473:263,1,71.5000021820069,2|0,1:2|0:0,0:0:0:0:
449,333,51247,6,0,P|377:335|306:344,1,143.000004364014,12|0,0:0|1:0,0:0:0:0:
217,370,51776,2,0,P|221:334|227:299,1,71.5000021820069,2|8,0:0|0:0,0:0:0:0:
146,253,52129,2,0,P|153:219|161:168,1,71.5000021820069,10|0,0:0|1:0,0:0:0:0:
184,92,52482,6,0,P|133:145|40:139,1,143.000004364014,10|8,0:0|0:0,0:0:0:0:
24,67,53012,2,0,P|74:13|167:19,1,143.000004364014,0|8,1:0|0:0,0:0:0:0:
231,28,53541,1,10,0:0:0:0:
231,28,53718,2,0,P|220:77|217:110,1,71.5000021820069,0|2,1:0|0:0,0:0:0:0:
293,153,54071,6,0,B|373:163|348:93|447:124,1,143.000004364014,12|0,0:0|1:0,0:0:0:0:
481,46,54600,1,10,0:0:0:0:
481,46,54776,2,0,P|466:121|459:194,1,143.000004364014,10|0,0:0|1:0,0:0:0:0:
497,272,55306,1,2,0:0:0:0:
497,272,55482,6,0,P|459:285|413:304,1,71.5000021820069,2|8,1:2|0:0,0:0:0:0:
340,269,55835,1,8,0:0:0:0:
272,333,56012,2,0,B|235:297|235:297|259:202,1,143.000004364014,12|8,0:0|0:0,0:0:0:0:
370,180,56541,1,4,1:2:0:0:
370,180,56894,6,0,L|353:249,1,71.5000021820069,10|4,0:0|0:3,0:0:0:0:
340,269,57159,1,4,0:3:0:0:
340,269,57247,1,10,0:0:0:0:
257,208,57423,2,0,L|274:133,1,71.5000021820069,4|0,1:2|0:0,0:0:0:0:
221,60,57776,2,0,P|151:54|95:96,1,143.000004364014,10|10,0:0|0:0,0:0:0:0:
98,191,58306,6,0,P|138:185|168:145,1,71.5000021820069,8|8,0:3|0:0,0:0:0:0:
180,146,58571,1,0,1:0:0:0:
180,146,58659,1,0,1:0:0:0:
15,165,58835,2,0,P|4:201|0:237,1,71.5000021820069,4|0,0:3|0:0,0:0:0:0:
0,272,59100,1,0,1:0:0:0:
0,272,59188,2,0,B|80:258|60:323|138:306,1,143.000004364014,10|10,0:0|0:0,0:0:0:0:
224,328,59718,6,0,P|219:300|212:247,1,71.5000021820069,12|0,0:0|0:0,0:0:0:0:
301,229,60071,2,0,P|296:201|289:148,1,71.5000021820069,0|0,1:0|0:0,0:0:0:0:
215,103,60423,1,10,0:0:0:0:
215,103,60600,2,0,P|190:86|139:80,1,71.5000021820069,8|0,0:0|1:0,0:0:0:0:
282,39,60953,6,0,B|322:79|322:79|373:87|411:67,1,143.000004364014,2|0,0:0|0:0,0:0:0:0:
476,18,61482,1,0,1:0:0:0:
476,18,61659,2,0,P|453:97|441:167,1,143.000004364014,10|8,0:0|0:0,0:0:0:0:
367,212,62188,1,0,1:0:0:0:
441,267,62365,6,0,P|480:261|525:257,1,71.5000021820069,2|10,0:0|0:0,0:0:0:0:
367,212,62718,2,0,P|331:215|296:221,1,71.5000021820069,2|0,0:0|1:0,0:0:0:0:
245,300,63071,2,0,P|180:305|123:251,1,143.000004364014,10|8,0:0|0:0,0:0:0:0:
149,165,63600,1,0,1:0:0:0:
35,233,63776,6,0,P|48:176|62:85,1,143.000004364014,12|8,0:0|0:0,0:0:0:0:
171,6,64306,2,0,P|161:40|155:75,1,71.5000021820069,2|8,1:2|0:0,0:0:0:0:
232,128,64659,1,10,0:0:0:0:
290,56,64835,1,0,1:0:0:0:
368,106,65012,2,0,P|407:102|439:73,1,71.5000021820069,2|0,1:2|0:0,0:0:0:0:
353,202,65365,6,0,P|287:205|217:252,1,143.000004364014,4|8,1:2|0:0,0:0:0:0:
268,326,65894,1,10,0:0:0:0:
187,372,66071,2,0,P|116:367|57:329,1,143.000004364014,4|8,1:2|0:0,0:0:0:0:
21,242,66600,1,10,0:0:0:0:
21,242,66776,6,0,P|26:208|35:171,2,71.5000021820069,4|0|10,1:2|0:0|0:0,0:0:0:0:
121,210,67306,2,0,P|135:127|90:89,1,143.000004364014,4|8,1:2|0:0,0:0:0:0:
67,2,67835,2,0,P|26:17|-18:27,1,71.5000021820069,2|8,1:2|0:0,0:0:0:0:
191,53,68188,6,0,P|260:32|331:12,1,143.000004364014,12|0,0:0|1:0,0:0:0:0:
421,20,68718,1,2,0:0:0:0:
421,20,68894,2,0,P|404:63|392:104,1,71.5000021820069,10|8,0:0|0:0,0:0:0:0:
311,124,69247,6,0,P|359:117|434:174,2,143.000004364014,0|10|0,1:0|0:0|1:0,0:0:0:0:
247,192,70129,2,0,P|267:256|281:332,1,143.000004364014,10|8,0:0|0:0,0:0:0:0:
200,379,70659,1,0,1:0:0:0:
200,379,71012,5,12,0:0:0:0:
124,325,71188,2,0,P|84:337|37:344,2,71.5000021820069,2|0|2,0:0|1:0|0:0,0:0:0:0:
200,271,71718,2,0,P|213:228|198:186,1,71.5000021820069,10|8,0:0|0:0,0:0:0:0:
122,165,72071,1,0,1:2:0:0:
141,74,72247,6,0,B|165:39|165:39|213:11|278:36,1,143.000004364014,10|8,0:0|0:0,0:0:0:0:
353,13,72776,1,0,1:0:0:0:
353,13,72953,2,0,P|341:51|328:106,1,71.5000021820069,10|8,0:0|0:0,0:0:0:0:
411,151,73306,1,8,0:0:0:0:
411,151,73394,1,8,0:0:0:0:
411,151,73482,2,0,P|453:139|491:133,1,71.5000021820069,2|0,1:2|0:0,0:0:0:0:
442,239,73835,6,0,P|384:190|300:210,1,143.000004364014,12|0,0:0|1:0,0:0:0:0:
228,183,74365,1,2,0:0:0:0:
228,183,74541,2,0,P|238:220|246:267,1,71.5000021820069,10|8,0:0|0:0,0:0:0:0:
310,318,74894,1,0,1:0:0:0:
236,375,75071,6,0,B|158:380|187:320|88:337,1,143.000004364014,10|8,0:0|0:0,0:0:0:0:
18,296,75600,1,0,1:0:0:0:
18,296,75776,2,0,P|104:289|141:235,1,143.000004364014,10|8,0:0|0:0,0:0:0:0:
159,156,76306,1,0,1:0:0:0:
159,156,76659,5,12,0:0:0:0:
86,98,76835,2,0,P|51:91|11:82,1,71.5000021820069,2|0,0:0|1:0,0:0:0:0:
157,36,77188,1,2,0:0:0:0:
157,36,77365,2,0,P|192:43|232:52,1,71.5000021820069,10|8,0:0|0:0,0:0:0:0:
292,117,77718,1,0,1:0:0:0:
374,73,77894,6,0,B|397:120|397:120|351:228,1,143.000004364014,12|8,0:0|0:3,0:0:0:0:
281,251,78423,2,0,L|266:205,2,35.7500010910034,10|0|0,0:0|1:0|1:0,0:0:0:0:
327,331,78776,2,0,P|374:340|411:351,1,71.5000021820069,8|8,0:3|0:3,0:0:0:0:
431,360,79041,1,8,0:3:0:0:
431,360,79129,2,0,L|473:343,3,35.7500010910034,8|8|8|8,0:0|0:0|0:0|0:0,0:0:0:0:
500,346,79482,6,0,P|464:306|475:218,1,130,12|0,0:0|1:0,0:0:0:0:
505,157,80012,2,0,P|465:121|377:132,1,130,10|8,0:0|0:0,0:0:0:0:
325,70,80541,1,0,1:0:0:0:
260,124,80718,6,0,P|242:197|231:270,1,130,2|2,0:0|0:0,0:0:0:0:
267,335,81247,1,0,1:0:0:0:
267,335,81423,2,0,P|220:292|153:294,1,130,10|10,0:0|0:0,0:0:0:0:
91,237,81953,2,0,P|59:248|18:256,1,65,2|0,1:2|0:0,0:0:0:0:
148,170,82306,5,12,0:0:0:0:
148,170,82482,2,0,P|161:126|159:101,1,65,2|0,0:0|1:0,0:0:0:0:
236,71,82835,2,0,P|226:47|222:2,2,65,12|2|8,0:0|0:0|0:0,0:0:0:0:
293,133,83365,1,2,1:2:0:0:
369,98,83541,6,0,P|450:120|472:184,1,130,2|2,0:0|0:0,0:0:0:0:
437,235,84071,1,2,1:2:0:0:
503,287,84247,1,0,0:0:0:0:
461,360,84423,2,0,L|384:347,1,65,10|10,0:0|0:0,0:0:0:0:
341,285,84776,2,0,L|276:295,1,65,0|10,1:0|0:0,0:0:0:0:
208,246,85129,5,12,0:0:0:0:
135,292,85306,2,0,L|124:377,1,65,2|0,0:0|1:0,0:0:0:0:
208,246,85659,2,0,P|212:178|137:140,1,130,10|8,0:0|0:0,0:0:0:0:
84,127,86188,1,0,1:0:0:0:
119,49,86365,6,0,B|164:36|164:36|262:69,1,130,10|10,0:0|0:0,0:0:0:0:
296,136,86894,1,2,1:2:0:0:
296,136,87071,2,0,P|364:124|448:115,1,130,10|10,0:0|0:0,0:0:0:0:
498,158,87600,2,0,P|487:188|478:219,1,65,0|10,1:0|0:0,0:0:0:0:
331,251,87953,5,8,1:3:0:0:
412,273,88129,2,0,P|400:312|385:355,1,65,2|10,0:0|0:0,0:0:0:0:
321,381,88482,2,0,P|273:343|185:357,1,130,8|0,1:3|1:0,0:0:0:0:
231,251,89012,6,0,P|164:323|58:322,1,195,12|8,0:0|0:0,0:0:0:0:
1,280,89718,1,8,0:0:0:0:
16,197,89894,1,8,0:0:0:0:
93,163,90071,1,0,1:0:0:0:
256,192,90423,5,12,0:0:0:0:
256,192,90600,1,12,0:0:0:0:
256,192,90688,12,8,96600,0:3:0:0:
