osu file format v14

[General]
AudioFilename: Kaze no Naka no Primrose.mp3
AudioLeadIn: 0
PreviewTime: 50379
Countdown: 0
SampleSet: None
StackLeniency: 0.7
Mode: 0
LetterboxInBreaks: 0
WidescreenStoryboard: 1

[Editor]
Bookmarks: 59273,70423
DistanceSpacing: 1.1
BeatDivisor: 4
GridSize: 4
TimelineZoom: 2.6

[Metadata]
Title:Kaze no Naka no Primrose
TitleUnicode:風のなかのプリムローズ
Artist:Ceui
ArtistUnicode:Ceui
Creator:fdfdfdf
Version:Hard
Source:恋と選挙とチョコレート
Tags:koichoko sprite 蒼の彼方のフォーリズム ceui
BeatmapID:823318
BeatmapSetID:373659

[Difficulty]
HPDrainRate:5
CircleSize:4
OverallDifficulty:5
ApproachRate:7
SliderMultiplier:1.4
SliderTickRate:1

[Events]
//Background and Video events
0,0,"2012070820130861a.png",0,0
//Break Periods
//Storyboard Layer 0 (Background)
//Storyboard Layer 1 (Fail)
//Storyboard Layer 2 (Pass)
//Storyboard Layer 3 (Foreground)
//Storyboard Sound Samples

[TimingPoints]
4185,530.973451327434,4,2,1,30,1,0
50910,-100,4,2,1,40,0,1
66839,-100,4,2,1,40,0,0
67901,-100,4,2,1,40,0,1
84892,-100,4,2,1,40,0,0
91397,-100,4,3,1,5,0,0

[Colours]
Combo1 : 255,128,255
Combo2 : 128,255,255
Combo3 : 255,255,128
Combo4 : 128,128,255

[HitObjects]
120,184,4185,6,0,L|48:184,2,70,4|0|0,0:0|0:0|0:0,0:0:0:0:
176,228,4981,2,0,L|316:228,1,140
364,96,6043,5,0,0:0:0:0:
364,96,6308,2,0,L|284:96,2,70
416,40,7105,2,0,P|376:100|408:152,1,140
488,284,8167,5,0,0:0:0:0:
488,284,8300,1,0,0:0:0:0:
488,284,8432,2,0,P|452:288|416:284,1,70
352,244,8963,1,0,0:0:0:0:
344,168,9229,2,0,P|284:208|280:272,1,140
128,356,10291,1,0,0:0:0:0:
128,356,10556,6,0,P|184:312|192:248,1,140
144,184,11353,1,0,0:0:0:0:
144,184,11485,1,0,0:0:0:0:
144,184,11618,2,0,L|256:92,1,140
460,288,12680,6,0,P|424:296|392:288,1,70
332,240,13211,2,0,P|298:232|264:240,1,70,2|0,0:0|0:0,0:0:0:0:
264,239,13609,2,0,L|156:239,1,105
92,196,14273,6,0,P|84:160|92:124,1,70,2|0,0:0|0:0,0:0:0:0:
90,127,14671,2,0,L|188:76,1,105
256,104,15335,6,0,P|288:112|324:104,1,70,2|0,0:0|0:0,0:0:0:0:
323,104,15733,2,0,L|396:180,1,105
447,237,16397,1,2,0:0:0:0:
408,304,16662,1,0,0:0:0:0:
332,288,16928,6,0,P|296:276|252:276,1,70
204,324,17459,2,0,P|168:336|124:336,1,70,2|0,0:0|0:0,0:0:0:0:
136,337,17857,2,0,B|108:288|108:288|96:236,1,105
88,164,18521,1,2,0:0:0:0:
116,92,18786,1,0,0:0:0:0:
78,24,19052,2,0,B|142:48|218:20,1,140,0|2,0:0|0:0,0:0:0:0:
288,48,19848,2,0,B|361:21|425:45,1,140
396,320,21176,6,0,L|324:320,1,70
256,284,21707,2,0,P|220:276|188:284,1,70,2|0,0:0|0:0,0:0:0:0:
188,283,22105,2,0,P|140:260|120:216,1,105
120,136,22769,6,0,P|148:120|168:88,1,70,2|0,0:0|0:0,0:0:0:0:
167,88,23167,2,0,P|216:76|268:88,1,105
332,132,23831,6,0,P|368:140|400:132,1,70,2|0,0:0|0:0,0:0:0:0:
399,132,24229,2,0,P|420:184|404:232,1,105
360,288,24892,1,2,0:0:0:0:
284,308,25158,1,0,0:0:0:0:
212,276,25423,6,0,P|160:260|112:276,2,105
160,332,26485,2,0,P|110:347|61:331,2,105
236,328,27547,2,0,P|272:328|304:340,1,70
380,324,28078,2,0,P|412:335|447:335,1,70
496,276,28609,1,0,0:0:0:0:
464,204,28875,1,0,0:0:0:0:
464,204,29008,1,0,0:0:0:0:
464,204,29140,2,0,L|392:204,1,70
252,152,29671,6,0,L|264:220,1,70
196,260,30202,2,0,L|184:192,1,70,8|0,0:0|0:0,0:0:0:0:
183,191,30600,2,0,P|176:136|200:96,1,105
260,48,31264,1,8,0:0:0:0:
332,76,31530,2,0,B|332:128|332:128|352:164|352:164|352:216,1,140
384,280,32326,1,8,0:0:0:0:
336,340,32592,1,0,0:0:0:0:
260,320,32857,6,0,P|232:304|192:296,1,70
156,300,33255,1,0,0:0:0:0:
156,300,33388,2,0,P|121:293|91:276,1,70,8|0,0:0|0:0,0:0:0:0:
56,208,33919,6,0,P|40:176|36:136,2,70,0|0|8,0:0|0:0|0:0,0:0:0:0:
132,208,34715,2,0,P|164:144|152:80,1,140
76,56,35512,1,8,0:0:0:0:
92,132,35777,2,0,P|156:156|220:128,1,140
284,88,36574,2,0,P|316:80|352:88,1,70,8|0,0:0|0:0,0:0:0:0:
404,144,37105,1,0,0:0:0:0:
368,212,37370,1,0,0:0:0:0:
368,212,37503,1,0,0:0:0:0:
368,212,37636,2,0,P|333:218|300:210,1,70,8|0,0:0|0:0,0:0:0:0:
184,168,38167,6,0,P|152:180|124:204,1,70
124,280,38698,2,0,P|150:302|183:314,1,70,8|0,0:0|0:0,0:0:0:0:
183,314,39096,2,0,L|291:314,1,105
336,256,39760,1,8,0:0:0:0:
412,272,40025,2,0,P|388:200|332:180,1,140
264,220,40822,2,0,P|228:228|196:220,1,70,8|0,0:0|0:0,0:0:0:0:
76,96,41618,5,0,0:0:0:0:
148,120,41884,1,8,0:0:0:0:
224,104,42149,1,0,0:0:0:0:
264,36,42415,2,0,P|328:28|384:72,1,140,0|8,0:0|0:0,0:0:0:0:
348,140,43211,1,0,0:0:0:0:
392,204,43477,2,0,B|408:236|408:236|408:276,1,70
444,340,44008,2,0,B|408:328|376:340,1,70,8|0,0:0|0:0,0:0:0:0:
300,352,44538,6,0,P|236:364|164:348,1,140,0|8,0:0|0:0,0:0:0:0:
92,316,45335,2,0,P|152:272|212:288,1,140
288,296,46131,2,0,P|324:288|352:272,1,70,8|0,0:0|0:0,0:0:0:0:
392,204,46662,5,0,0:0:0:0:
324,164,46928,1,0,0:0:0:0:
260,204,47193,1,8,0:0:0:0:
196,164,47459,1,0,0:0:0:0:
132,204,47724,2,0,P|96:192|72:168,1,70
72,92,48255,2,0,P|108:104|132:128,1,70,8|0,0:0|0:0,0:0:0:0:
132,204,48786,5,0,0:0:0:0:
84,264,49052,1,0,0:0:0:0:
192,296,49317,1,8,0:0:0:0:
228,364,49583,1,0,0:0:0:0:
300,264,49848,1,0,0:0:0:0:
300,264,49981,1,0,0:0:0:0:
300,264,50114,1,0,0:0:0:0:
300,264,50246,1,0,0:0:0:0:
300,264,50379,2,0,L|384:264,1,70
312,124,50910,6,0,P|276:120|240:124,1,70,4|0,0:0|0:0,0:0:0:0:
242,123,51308,2,0,P|204:126|170:123,1,70,2|0,0:0|0:0,0:0:0:0:
172,123,51707,2,0,P|96:116|36:144,1,140
16,216,52503,1,2,0:0:0:0:
68,272,52769,1,0,0:0:0:0:
140,240,53034,6,0,P|168:220|204:212,1,70
202,212,53432,2,0,P|232:228|268:232,1,70,2|0,0:0|0:0,0:0:0:0:
267,232,53831,2,0,P|328:212|400:236,1,140
456,284,54627,1,2,0:0:0:0:
424,356,54892,1,0,0:0:0:0:
348,348,55158,6,0,P|280:328|216:348,1,140,0|2,0:0|0:0,0:0:0:0:
152,304,55954,2,0,P|85:324|19:304,1,140
4,228,56751,1,2,0:0:0:0:
80,244,57016,1,0,0:0:0:0:
156,220,57282,2,0,P|192:216|228:200,1,70
222,203,57680,2,0,P|254:189|288:186,1,70,2|0,0:0|0:0,0:0:0:0:
288,186,58078,2,0,P|356:204|424:188,1,140
472,128,58875,1,2,0:0:0:0:
440,56,59140,5,0,0:0:0:0:
440,56,59273,1,0,0:0:0:0:
440,56,59406,2,0,P|408:68|372:72,1,70
372,71,59804,2,0,P|336:67|300:71,1,70,2|0,0:0|0:0,0:0:0:0:
302,70,60202,2,0,P|235:91|164:84,1,140
112,28,60999,1,2,0:0:0:0:
44,64,61264,1,0,0:0:0:0:
56,140,61530,6,0,P|68:176|92:200,1,70
89,198,61928,2,0,P|120:220|140:248,1,70,2|0,0:0|0:0,0:0:0:0:
139,246,62326,1,0,0:0:0:0:
352,344,62857,5,0,0:0:0:0:
308,280,63123,1,2,0:0:0:0:
328,204,63388,1,0,0:0:0:0:
396,164,63654,2,0,P|408:96|368:40,1,140,0|2,0:0|0:0,0:0:0:0:
369,40,64450,1,0,0:0:0:0:
216,48,64981,5,0,0:0:0:0:
176,116,65246,1,2,0:0:0:0:
192,192,65512,1,0,0:0:0:0:
260,228,65777,2,0,P|260:268|244:300,1,70
176,324,66308,2,0,P|140:324|108:312,1,70,2|0,0:0|0:0,0:0:0:0:
72,244,66839,1,0,0:0:0:0:
72,244,66972,1,0,0:0:0:0:
72,244,67105,1,0,0:0:0:0:
72,244,67238,1,0,0:0:0:0:
72,244,67370,2,0,L|72:172,1,70,2|0,0:0|0:0,0:0:0:0:
180,56,67901,6,0,L|180:128,1,70
180,126,68300,2,0,P|180:164|192:196,1,70,2|0,0:0|0:0,0:0:0:0:
190,193,68698,2,0,P|216:264|200:328,1,140
128,344,69494,1,2,0:0:0:0:
60,308,69760,5,0,0:0:0:0:
60,308,69892,1,0,0:0:0:0:
60,308,70025,2,0,L|60:236,1,70
60,238,70423,2,0,P|60:200|68:168,1,70,2|0,0:0|0:0,0:0:0:0:
67,169,70822,2,0,P|108:112|176:88,1,140
240,124,71618,2,0,P|276:132|308:124,1,70,2|0,0:0|0:0,0:0:0:0:
376,84,72149,6,0,P|384:124|380:156,1,70
380,152,72547,2,0,P|376:192|384:224,1,70,2|0,0:0|0:0,0:0:0:0:
382,221,72946,2,0,P|400:292|360:344,1,140
296,304,73742,1,2,0:0:0:0:
220,304,74008,1,0,0:0:0:0:
152,344,74273,2,0,P|164:248|264:240,1,210,0|2,0:0|0:0,0:0:0:0:
408,120,75600,6,0,L|408:40,2,70
408,196,76397,2,0,P|336:200|280:164,1,140,2|0,0:0|0:0,0:0:0:0:
240,100,77193,1,0,0:0:0:0:
240,100,77326,1,0,0:0:0:0:
240,100,77459,2,0,P|172:80|104:100,1,140,2|0,0:0|0:0,0:0:0:0:
52,152,78255,1,0,0:0:0:0:
52,228,78521,6,0,P|52:284|72:328,2,105,2|0|0,0:0|0:0|0:0,0:0:0:0:
124,260,79583,2,0,P|143:312|176:347,2,105,2|0|0,0:0|0:0|0:0,0:0:0:0:
204,272,80645,2,0,P|268:292|340:276,1,140,2|0,0:0|0:0,0:0:0:0:
400,232,81441,5,0,0:0:0:0:
400,232,81574,1,0,0:0:0:0:
400,232,81707,2,0,P|419:168|404:96,1,140,2|0,0:0|0:0,0:0:0:0:
336,60,82503,5,0,0:0:0:0:
336,60,82636,1,0,0:0:0:0:
336,60,82769,2,0,P|272:40|200:56,1,140,2|0,0:0|0:0,0:0:0:0:
152,112,83565,5,0,0:0:0:0:
152,112,83698,1,0,0:0:0:0:
152,112,83831,2,0,P|136:164|148:216,1,105,2|0,0:0|0:0,0:0:0:0:
304,316,84892,6,0,L|376:316,1,70
448,300,85423,2,0,P|468:276|476:236,1,70,2|0,0:0|0:0,0:0:0:0:
440,172,85954,1,0,0:0:0:0:
460,96,86220,1,0,0:0:0:0:
500,32,86485,2,0,P|464:40|432:32,1,70,2|0,0:0|0:0,0:0:0:0:
356,32,87016,2,0,P|288:16|220:32,1,140,0|2,0:0|0:0,0:0:0:0:
176,92,87813,1,0,0:0:0:0:
100,64,88078,2,0,P|92:104|104:136,1,70
168,168,88609,2,0,P|176:208|164:240,1,70,2|0,0:0|0:0,0:0:0:0:
88,268,89140,6,0,P|140:316|208:312,1,140,0|2,0:0|0:0,0:0:0:0:
268,264,89937,1,0,0:0:0:0:
328,313,90202,2,0,L|404:313,1,70
396,236,90733,2,0,L|324:236,1,70,2|0,0:0|0:0,0:0:0:0:
248,236,91264,1,0,0:0:0:0:
256,192,91397,12,0,92857,0:0:0:0:
