osu file format v14

[General]
AudioFilename: Kaze no Naka no Primrose.mp3
AudioLeadIn: 0
PreviewTime: 58418
Countdown: 0
SampleSet: Soft
StackLeniency: 0.7
Mode: 0
LetterboxInBreaks: 1
EpilepsyWarning: 1
WidescreenStoryboard: 1

[Editor]
Bookmarks: 239744
DistanceSpacing: 1.5
BeatDivisor: 4
GridSize: 4
TimelineZoom: 2.1

[Metadata]
Title:Kaze no Naka no Primrose
TitleUnicode:風のなかのプリムローズ
Artist:Ceui
ArtistUnicode:Ceui
Creator:Yumeno Himiko
Version:Hard
Source:恋と選挙とチョコレート
Tags:love election koichoco ending strong wind Koi to Senkyo to Chocolate kotaro odaka visual novel eroge [CSGA]Ar3sgice ids ignorethis Nardoxyribonucleic Lavender examination
BeatmapID:842711
BeatmapSetID:158376

[Difficulty]
HPDrainRate:6
CircleSize:4
OverallDifficulty:6
ApproachRate:7
SliderMultiplier:1.5
SliderTickRate:1

[Events]
//Background and Video events
0,0,"BG.jpg",0,0
//Break Periods
2,96848,108757
2,215782,223180
//Storyboard Layer 0 (Background)
//Storyboard Layer 1 (Fail)
//Storyboard Layer 2 (Pass)
//Storyboard Layer 3 (Foreground)
//Storyboard Sound Samples

[TimingPoints]
676,530.973451327434,4,2,1,50,1,0
9171,-100,4,2,1,40,0,0
9702,-100,4,2,1,30,0,0
10233,-100,4,2,1,20,0,0
10499,-100,4,2,1,10,0,0
10764,-100,4,2,1,5,0,0
11693,530.973451327434,4,2,1,50,1,0
37179,-100,4,2,1,60,0,0
54170,-100,4,2,1,40,0,0
56294,-100,4,2,1,60,0,0
56560,-100,4,2,1,65,0,0
56825,-100,4,2,1,70,0,0
57091,-100,4,2,1,75,0,0
57356,-100,4,2,1,80,0,0
57622,-100,4,2,1,85,0,0
57887,-100,4,2,1,90,0,0
58153,-100,4,2,1,95,0,0
58418,-100,4,2,1,100,0,1
66648,-100,4,2,1,80,0,1
75409,-100,4,2,1,100,0,1
92400,-100,4,2,1,100,0,0
96648,-100,4,2,1,5,0,0
109657,-100,4,2,1,50,0,0
115516,530.973451327434,4,2,1,25,1,0
116606,530.973451327434,4,2,1,25,1,0
117136,-133.333333333333,4,2,1,25,0,0
117883,530.973451327434,4,2,1,50,1,0
126378,-100,4,2,1,60,0,0
127838,-100,4,2,1,5,0,0
127971,-100,4,2,1,60,0,0
143369,-100,4,2,1,50,0,0
145493,-100,4,2,1,60,0,0
145758,-100,4,2,1,65,0,0
146024,-100,4,2,1,70,0,0
146289,-100,4,2,1,75,0,0
146555,-100,4,2,1,80,0,0
146820,-100,4,2,1,85,0,0
147086,-100,4,2,1,90,0,0
147351,-100,4,2,1,95,0,0
147617,-100,4,2,1,100,0,1
155847,-100,4,2,1,80,0,1
162484,-100,4,2,1,70,0,1
163546,-100,4,2,1,60,0,1
164342,-100,4,2,1,100,0,1
181599,-100,4,3,1,60,0,0
184785,-100,4,3,1,65,0,0
185050,-100,4,3,1,70,0,0
185316,-100,4,3,1,75,0,0
185448,-80,4,2,1,100,0,0
193280,-80,4,3,1,40,0,0
193546,-80,4,3,1,60,0,0
193811,-80,4,3,1,80,0,0
193944,-80,4,2,1,100,0,0
200714,-80,4,2,1,75,0,0
202041,-80,4,2,1,100,0,0
203900,-80,4,2,1,80,0,0
204431,-80,4,2,1,60,0,0
204962,-80,4,2,1,40,0,0
205493,-80,4,2,1,20,0,0
206024,-80,4,2,1,5,0,0
206289,-80,4,2,1,60,0,0
206820,-133.333333333333,4,2,1,60,0,0
207351,-133.333333333333,4,2,1,40,0,0
208147,-133.333333333333,4,2,1,20,0,0
209209,-133.333333333333,4,2,1,5,0,0
209740,-133.333333333333,4,2,1,60,0,0
211333,-133.333333333333,4,2,1,50,0,0
213988,-100,4,2,1,30,0,0
214519,-100,4,2,1,20,0,0
215050,-100,4,2,1,10,0,0
215581,-100,4,2,1,5,0,0
221957,555.555555555556,4,2,1,50,1,0
223550,530.973451327434,4,2,1,100,1,0
224081,530.973451327434,4,2,1,100,1,0
224081,-100,4,2,1,20,0,0
227797,-100,4,2,1,30,0,0
228328,-100,4,2,1,20,0,0
232311,-100,4,2,1,30,0,0
233373,-200,4,2,1,40,0,0
233904,-100,4,2,1,40,0,0
235496,-200,4,2,1,40,0,0
236027,-100,4,2,1,50,0,0
238948,-100,4,2,1,40,0,0
240010,-100,4,2,1,60,0,0
240142,-100,4,2,1,70,0,0
240275,-100,4,2,1,80,0,0
240408,-100,4,2,1,90,0,0
240541,-100,4,2,1,100,0,0
241072,-66.6666666666667,4,2,1,100,0,1
248771,-66.6666666666667,4,2,1,80,0,1
258063,-66.6666666666667,4,2,1,100,0,0
259125,-66.6666666666667,4,2,1,90,0,0
260187,-66.6666666666667,4,2,1,80,0,0
261249,-66.6666666666667,4,2,1,70,0,0
262311,-66.6666666666667,4,2,1,60,0,0
263373,-66.6666666666667,4,2,1,50,0,0
264434,-66.6666666666667,4,2,1,40,0,0
266558,-100,4,2,1,100,0,0
273728,-66.6666666666667,4,2,1,80,0,0
274524,-66.6666666666667,4,2,1,60,0,0
275319,-66.6666666666667,4,2,1,40,0,0
276117,-66.6666666666667,4,2,1,20,0,0
276648,-66.6666666666667,4,2,1,5,0,0

[Colours]
Combo1 : 255,173,113
Combo2 : 247,136,136
Combo3 : 138,230,253
Combo4 : 142,255,159
Combo5 : 254,242,160
SliderBorder : 255,255,255

[HitObjects]
256,192,7047,12,0,10764,0:0:0:0:
412,92,11693,6,0,L|312:104,1,75,0|0,0:0|0:0,0:0:0:0:
212,116,12223,1,0,0:0:0:0:
212,116,12489,1,0,0:0:0:0:
96,256,13020,6,0,L|252:276,1,150,0|0,0:0|0:0,0:0:0:0:
284,356,13816,6,0,P|324:320|340:280,1,75,0|0,0:0|0:0,0:0:0:0:
348,176,14347,1,0,0:0:0:0:
348,176,14613,1,0,0:0:0:0:
88,300,15675,5,0,0:0:0:0:
96,256,15808,1,0,0:0:0:0:
104,212,15940,2,0,L|120:128,1,75,0|0,0:0|0:0,0:0:0:0:
240,96,16471,1,0,0:0:0:0:
88,300,16737,1,0,0:0:0:0:
264,328,17268,6,0,P|320:320|352:304,2,75,0|0|0,0:0|0:0|0:0,0:0:0:0:
180,232,18064,1,0,0:0:0:0:
416,100,18861,1,0,0:0:0:0:
372,84,18993,1,0,0:0:0:0:
328,68,19126,1,0,0:0:0:0:
152,76,19657,1,0,0:0:0:0:
152,76,20188,5,0,0:0:0:0:
100,148,20454,2,0,P|92:208|100:244,1,75,0|0,0:0|0:0,0:0:0:0:
140,300,20985,1,0,0:0:0:0:
160,260,21117,2,0,P|220:232|288:232,1,112.5,0|0,0:0|0:0,0:0:0:0:
336,284,21781,6,0,P|304:312|272:320,1,75,0|0,0:0|0:0,0:0:0:0:
232,308,22179,2,0,L|192:192,1,112.5,0|0,0:0|0:0,0:0:0:0:
160,120,22843,1,0,0:0:0:0:
248,132,23108,2,0,L|308:124,1,37.5,0|0,0:0|0:0,0:0:0:0:
420,108,23639,1,0,0:0:0:0:
420,108,24436,5,0,0:0:0:0:
376,188,24701,2,0,P|332:216|288:224,1,75,0|0,0:0|0:0,0:0:0:0:
220,208,25232,1,0,0:0:0:0:
244,168,25365,2,0,P|268:120|276:44,1,112.5,0|0,0:0|0:0,0:0:0:0:
192,28,26029,1,0,0:0:0:0:
108,60,26294,6,0,P|144:100|184:116,1,75,0|0,0:0|0:0,0:0:0:0:
252,96,26825,1,0,0:0:0:0:
192,28,27091,1,0,0:0:0:0:
108,60,27356,2,0,L|124:228,1,150,0|0,0:0|0:0,0:0:0:0:
132,300,28153,1,0,0:0:0:0:
216,204,28418,1,0,0:0:0:0:
224,292,28684,5,0,0:0:0:0:
312,308,28949,2,0,P|360:300|388:280,1,75
440,220,29480,1,0,0:0:0:0:
396,208,29613,2,0,P|336:180|284:136,1,112.5,0|0,0:0|0:0,0:0:0:0:
328,68,30277,6,0,P|376:60|428:68,1,75
448,72,30675,2,0,P|460:136|444:192,1,112.5
368,216,31339,1,0,0:0:0:0:
280,220,31604,1,0,0:0:0:0:
280,220,31737,1,0,0:0:0:0:
168,144,32666,5,0,0:0:0:0:
168,144,32799,1,0,0:0:0:0:
168,144,32931,2,0,P|232:132|272:104,1,112.5,0|0,0:0|0:0,0:0:0:0:
364,8,33728,1,0,0:0:0:0:
364,8,33993,6,0,P|372:68|408:132,1,112.5,0|0,0:0|0:0,0:0:0:0:
480,220,34790,1,0,0:0:0:0:
436,300,35055,6,0,L|352:328,1,75,0|0,0:0|0:0,0:0:0:0:
280,292,35586,2,0,L|196:320,1,75,0|0,0:0|0:0,0:0:0:0:
392,184,36117,2,0,L|308:212,1,75,0|0,0:0|0:0,0:0:0:0:
280,184,36516,1,0,0:0:0:0:
241,161,36648,2,0,L|157:189,1,75,0|0,0:0|0:0,0:0:0:0:
84,213,37179,5,0,0:0:0:0:
108,104,37445,2,0,L|188:76,1,75,0|2,0:0|0:0,0:0:0:0:
288,48,37976,1,0,0:0:0:0:
260,96,38108,2,0,P|256:156|284:204,1,112.5,0|0,0:0|0:0,0:0:0:0:
376,260,38772,1,2,0:0:0:0:
272,308,39038,6,0,P|208:328|128:388,1,150,0|0,0:0|0:0,0:0:0:0:
176,268,39834,2,0,P|184:216|176:176,1,75,2|0,0:0|0:0,0:0:0:0:
124,96,40365,1,0,0:0:0:0:
87,202,40631,1,0,0:0:0:0:
87,202,40763,1,0,0:0:0:0:
87,202,40896,1,2,0:0:0:0:
188,248,41162,6,0,L|272:240,1,75
344,160,41693,2,0,L|252:144,1,75,0|2,0:0|0:0,0:0:0:0:
160,128,42223,2,0,P|176:64|264:48,1,150
352,88,43020,1,2,0:0:0:0:
440,160,43285,6,0,P|444:216|424:256,1,75
328,264,43816,2,0,P|295:245|276:208,1,75,0|2,0:0|0:0,0:0:0:0:
256,104,44347,2,0,P|192:72|120:136,1,150
132,220,45144,1,0,0:0:0:0:
228,280,45409,1,0,0:0:0:0:
228,280,45542,1,0,0:0:0:0:
228,280,45675,5,4,0:0:0:0:
236,168,45940,2,0,L|320:152,1,75,0|2,0:0|0:0,0:0:0:0:
368,252,46471,1,0,0:0:0:0:
336,300,46604,2,0,P|300:332|240:360,1,112.5,0|0,0:0|0:0,0:0:0:0:
128,360,47268,1,2,0:0:0:0:
128,360,47533,6,0,L|144:196,1,150,0|0,0:0|0:0,0:0:0:0:
208,120,48330,2,0,P|272:120|308:108,1,75,2|0,0:0|0:0,0:0:0:0:
68,188,49126,6,0,P|44:144|52:116,1,75,0|2,0:0|0:0,0:0:0:0:
132,44,49657,1,0,0:0:0:0:
240,20,49923,2,0,L|248:200,1,150,0|2,0:0|0:0,0:0:0:0:
252,284,50719,1,0,0:0:0:0:
364,292,50985,2,0,P|412:280|440:260,2,75,0|0|2,0:0|0:0|0:0,0:0:0:0:
252,284,51781,6,0,L|168:296,1,75,0|0,0:0|0:0,0:0:0:0:
64,308,52312,1,0,0:0:0:0:
112,204,52577,2,0,P|120:156|116:112,1,75,2|0,0:0|0:0,0:0:0:0:
72,28,53108,1,0,0:0:0:0:
120,132,53374,2,0,P|160:140|212:124,1,75,0|2,0:0|0:0,0:0:0:0:
248,36,53905,1,0,0:0:0:0:
344,92,54170,5,0,0:0:0:0:
388,256,54569,1,0,0:0:0:0:
388,256,54701,1,0,0:0:0:0:
280,224,54967,1,0,0:0:0:0:
196,296,55232,2,0,L|112:316,1,75,0|0,0:0|0:0,0:0:0:0:
16,276,55763,2,0,L|52:196,1,75,0|0,0:0|0:0,0:0:0:0:
88,104,56294,5,0,0:0:0:0:
176,176,56560,1,0,0:0:0:0:
284,148,56825,1,0,0:0:0:0:
328,44,57091,1,0,0:0:0:0:
212,104,57356,1,0,0:0:0:0:
220,132,57488,1,0,0:0:0:0:
232,160,57621,1,0,0:0:0:0:
244,188,57754,1,0,0:0:0:0:
260,216,57887,6,0,P|312:264|400:256,1,150,0|4,0:0|0:0,0:0:0:0:
436,160,58684,6,0,L|418:106,1,37.5,0|0,0:0|0:0,0:0:0:0:
324,44,59082,1,0,0:0:0:0:
264,60,59215,2,0,P|196:80|100:76,1,150,0|0,0:0|0:0,0:0:0:0:
76,200,60011,2,0,L|160:236,1,75,2|0,0:0|0:0,0:0:0:0:
264,184,60542,6,0,P|328:180|396:248,1,150,0|2,0:0|0:0,0:0:0:0:
440,352,61339,1,0,0:0:0:0:
404,344,61471,1,0,0:0:0:0:
368,336,61604,2,0,L|276:316,1,75
168,296,62135,2,0,L|128:212,1,75,2|0,0:0|0:0,0:0:0:0:
96,108,62666,5,4,0:0:0:0:
208,44,62931,2,0,L|260:44,1,37.5
308,44,63197,1,2,0:0:0:0:
424,44,63462,2,0,L|408:216,1,150,0|0,0:0|0:0,0:0:0:0:
400,320,64259,2,0,P|348:312|308:292,1,75,2|0,0:0|0:0,0:0:0:0:
216,244,64790,5,0,0:0:0:0:
100,196,65055,1,0,0:0:0:0:
64,248,65188,2,0,P|68:304|100:352,1,112.5,0|0,0:0|0:0,0:0:0:0:
140,352,65719,1,0,0:0:0:0:
184,344,65852,1,0,0:0:0:0:
264,236,66117,1,0,0:0:0:0:
328,112,66383,1,2,0:0:0:0:
412,208,66648,5,0,0:0:0:0:
412,208,66781,1,0,0:0:0:0:
412,208,66914,2,0,P|360:212|320:204,1,75,0|0,0:0|0:0,0:0:0:0:
284,176,67312,2,0,P|246:172|209:176,1,75,0|0,0:0|0:0,0:0:0:0:
156,208,67710,2,0,B|118:212|80:208|80:208|60:112,1,150,0|0,0:0|0:0,0:0:0:0:
40,8,68507,1,2,0:0:0:0:
152,68,68772,5,0,0:0:0:0:
152,68,68905,1,0,0:0:0:0:
152,68,69038,2,0,L|232:112,1,75,0|0,0:0|0:0,0:0:0:0:
276,132,69436,2,0,P|264:200|240:224,1,75,0|0,0:0|0:0,0:0:0:0:
196,208,69834,2,0,B|168:248|172:296|172:296|232:316,1,150,0|0,0:0|0:0,0:0:0:0:
348,348,70631,1,2,0:0:0:0:
420,244,70896,5,0,0:0:0:0:
420,244,71029,1,0,0:0:0:0:
420,244,71162,2,0,B|388:176|388:176|300:180,1,150,0|2,0:0|0:0,0:0:0:0:
184,188,71958,1,0,0:0:0:0:
184,188,72091,1,0,0:0:0:0:
184,188,72223,2,0,L|152:92,1,75,0|0,0:0|0:0,0:0:0:0:
284,92,72754,2,0,L|340:28,1,75,2|0,0:0|0:0,0:0:0:0:
412,136,73285,5,0,0:0:0:0:
400,264,73551,1,0,0:0:0:0:
300,340,73816,1,0,0:0:0:0:
172,336,74082,1,0,0:0:0:0:
88,244,74347,1,0,0:0:0:0:
88,244,74480,1,0,0:0:0:0:
88,244,74613,1,0,0:0:0:0:
88,244,74746,1,0,0:0:0:0:
88,244,74878,6,0,P|152:232|132:140,1,150,0|4,0:0|0:0,0:0:0:0:
228,52,75675,5,0,0:0:0:0:
252,112,75808,2,0,P|324:148|376:156,1,112.5,0|0,0:0|0:0,0:0:0:0:
468,96,76471,2,0,L|476:180,1,75,0|0,0:0|0:0,0:0:0:0:
488,296,77002,1,2,0:0:0:0:
360,292,77268,5,0,0:0:0:0:
360,292,77400,1,0,0:0:0:0:
360,292,77533,2,0,P|288:288|268:272,1,75,0|0,0:0|0:0,0:0:0:0:
264,232,77931,2,0,P|224:224|176:236,1,75
168,284,78330,2,0,L|112:296,2,37.5
284,244,78861,1,0,0:0:0:0:
348,140,79126,1,2,0:0:0:0:
272,48,79392,5,0,0:0:0:0:
176,120,79657,2,0,L|156:220,1,75
184,248,80055,2,0,P|244:304|296:300,1,112.5
392,296,80719,1,0,0:0:0:0:
392,176,80985,2,0,P|372:132|328:112,1,75,0|2,0:0|0:0,0:0:0:0:
232,88,81516,6,0,L|168:68,1,37.5,0|0,0:0|0:0,0:0:0:0:
136,84,81781,1,0,0:0:0:0:
16,268,82312,6,0,L|112:292,1,75,2|0,0:0|0:0,0:0:0:0:
132,292,82710,1,0,0:0:0:0:
176,296,82843,1,0,0:0:0:0:
300,268,83108,2,0,L|384:248,2,75,0|2|0,0:0|0:0|0:0,0:0:0:0:
176,296,83905,6,0,L|40:228,1,150,4|2,0:0|0:0,0:0:0:0:
76,116,84701,1,0,0:0:0:0:
76,116,84834,1,0,0:0:0:0:
76,116,84967,6,0,P|108:72|204:52,1,150,0|2,0:0|0:0,0:0:0:0:
324,72,85763,2,0,L|332:132,1,37.5
336,144,86029,6,0,P|312:192|240:212,2,112.5,0|0|0,0:0|0:0|0:0,0:0:0:0:
376,264,87091,2,0,P|432:304|500:304,2,112.5,0|0|0,0:0|0:0|0:0,0:0:0:0:
472,180,88153,1,0,0:0:0:0:
472,180,88949,5,0,0:0:0:0:
456,148,89082,1,0,0:0:0:0:
440,112,89215,2,0,P|412:140|352:152,1,75
280,80,89746,1,2,0:0:0:0:
280,80,90011,5,0,0:0:0:0:
280,116,90144,1,0,0:0:0:0:
284,152,90277,2,0,B|292:224|292:224|260:260|204:268,1,150,4|2,0:0|0:0,0:0:0:0:
92,280,91073,6,0,L|52:196,1,75
144,52,91737,2,0,P|224:88|284:88,1,112.5
312,84,92268,1,0,0:0:0:0:
256,192,92400,12,0,96648,0:0:0:0:
176,168,109657,5,0,0:0:0:0:
328,68,110188,1,0,0:0:0:0:
336,112,110321,6,0,B|344:164|286:212,1,112.5,0|2,0:0|0:0,0:0:0:0:
211,254,110985,1,0,0:0:0:0:
289,209,111250,1,0,0:0:0:0:
332,216,111383,6,0,B|382:224|424:276,1,112.5,0|2,0:0|0:0,0:0:0:0:
468,356,112046,1,0,0:0:0:0:
376,356,112312,1,0,0:0:0:0:
344,324,112445,6,0,P|328:284|332:216,1,112.5,0|2,0:0|0:0,0:0:0:0:
332,215,113639,5,0,0:0:0:0:
276,144,113905,2,0,P|228:132|172:136,1,75,0|0,0:0|0:0,0:0:0:0:
124,176,114436,1,0,0:0:0:0:
144,216,114569,2,0,P|184:240|260:252,1,112.5,0|0,0:0|0:0,0:0:0:0:
332,216,115232,1,0,0:0:0:0:
380,132,115516,6,0,B|329:115|329:115|343:66|306:18,1,150,0|0,0:0|0:0,0:0:0:0:
192,20,116606,2,0,P|150:100|175:150,1,150,0|0,0:0|0:0,0:0:0:0:
288,164,117402,1,0,0:0:0:0:
172,276,117883,5,0,0:0:0:0:
172,276,118148,2,0,L|120:196,1,75,0|0,0:0|0:0,0:0:0:0:
84,136,118679,1,0,0:0:0:0:
116,104,118812,2,0,P|168:76|224:76,1,112.5,0|0,0:0|0:0,0:0:0:0:
256,156,119475,2,0,L|340:136,1,75,0|0,0:0|0:0,0:0:0:0:
376,132,119874,6,0,P|426:162|454:210,1,112.5,0|0,0:0|0:0,0:0:0:0:
444,296,120537,2,0,L|356:336,1,75,0|0,0:0|0:0,0:0:0:0:
332,344,120936,1,0,0:0:0:0:
288,360,121068,1,0,0:0:0:0:
288,360,121865,5,0,0:0:0:0:
288,360,121998,1,0,0:0:0:0:
288,360,122130,2,0,L|216:292,1,75,0|0,0:0|0:0,0:0:0:0:
296,240,122661,2,0,L|224:172,1,75,0|0,0:0|0:0,0:0:0:0:
308,124,123192,2,0,B|244:68|244:68|164:52,1,150,0|0,0:0|0:0,0:0:0:0:
92,44,123989,6,0,L|80:136,1,75,0|0,0:0|0:0,0:0:0:0:
72,208,124520,1,0,0:0:0:0:
72,208,124652,1,0,0:0:0:0:
72,208,124785,1,0,0:0:0:0:
184,204,125051,1,0,0:0:0:0:
268,280,125316,2,0,P|308:260|336:220,1,75
364,196,125714,1,0,0:0:0:0:
388,244,125847,2,0,P|408:288|436:312,1,75,0|0,0:0|0:0,0:0:0:0:
496,216,126378,5,4,0:0:0:0:
460,108,126644,2,0,L|372:96,1,75,0|2,0:0|0:0,0:0:0:0:
276,80,127175,1,0,0:0:0:0:
301,130,127307,2,0,P|306:179|237:232,1,112.5
191,142,127971,1,2,0:0:0:0:
80,163,128236,6,0,P|60:235|73:316,1,150
180,280,129033,2,0,P|240:276|276:284,1,75,2|0,0:0|0:0,0:0:0:0:
360,316,129564,1,0,0:0:0:0:
424,224,129829,1,0,0:0:0:0:
424,224,129962,1,0,0:0:0:0:
424,224,130095,1,2,0:0:0:0:
372,124,130360,6,0,L|272:136,1,75
184,148,130891,2,0,L|84:160,1,75,0|2,0:0|0:0,0:0:0:0:
196,84,131422,2,0,L|304:216,1,150
388,256,132219,1,2,0:0:0:0:
296,324,132484,6,0,L|196:324,1,75
120,276,133015,2,0,L|36:272,1,75,0|2,0:0|0:0,0:0:0:0:
136,340,133546,2,0,L|224:216,1,150
132,148,134343,1,0,0:0:0:0:
16,200,134608,6,0,L|0:256,2,37.5,0|0|4,0:0|0:0|0:0,0:0:0:0:
44,92,135139,1,0,0:0:0:0:
144,36,135405,2,0,P|184:24|236:24,1,75,2|0,0:0|0:0,0:0:0:0:
272,32,135803,2,0,L|312:140,1,112.5
344,244,136467,1,2,0:0:0:0:
248,300,136732,6,0,P|200:256|204:172,1,150
308,152,137529,1,2,0:0:0:0:
416,128,137794,1,0,0:0:0:0:
416,128,138325,6,0,P|376:96|328:80,1,75,0|2,0:0|0:0,0:0:0:0:
244,68,138856,1,0,0:0:0:0:
172,152,139121,2,0,P|120:176|40:136,1,150,0|2,0:0|0:0,0:0:0:0:
4,32,139918,1,0,0:0:0:0:
41,138,140183,2,0,P|60:192|60:220,1,75,0|0,0:0|0:0,0:0:0:0:
64,320,140714,1,2,0:0:0:0:
176,336,140980,5,0,0:0:0:0:
232,344,141113,1,0,0:0:0:0:
288,352,141245,2,0,P|332:316|320:208,1,150
264,136,142042,2,0,P|192:139|156:202,1,150
259,249,142838,2,0,P|339:269|419:249,1,150,2|0,0:0|0:0,0:0:0:0:
484,108,143767,5,0,0:0:0:0:
484,108,143900,1,2,0:0:0:0:
372,104,144166,1,0,0:0:0:0:
260,96,144431,2,0,L|168:92,1,75,0|0,0:0|0:0,0:0:0:0:
124,188,144962,2,0,L|32:184,1,75,0|0,0:0|0:0,0:0:0:0:
8,80,145493,5,0,0:0:0:0:
112,40,145759,1,0,0:0:0:0:
224,60,146024,1,0,0:0:0:0:
296,148,146290,1,0,0:0:0:0:
336,256,146555,1,0,0:0:0:0:
364,246,146688,1,0,0:0:0:0:
389,229,146821,1,0,0:0:0:0:
402,202,146953,1,0,0:0:0:0:
404,172,147086,6,0,L|376:16,1,150,0|4,0:0|0:0,0:0:0:0:
260,76,147883,6,0,L|268:132,1,37.5,0|0,0:0|0:0,0:0:0:0:
148,152,148281,1,0,0:0:0:0:
140,112,148413,2,0,P|84:88|20:148,1,150,0|0,0:0|0:0,0:0:0:0:
60,260,149210,2,0,L|152:288,1,75,2|0,0:0|0:0,0:0:0:0:
240,212,149741,6,0,P|296:240|328:244,1,75,0|0,0:0|0:0,0:0:0:0:
364,216,150139,2,0,P|399:226|431:246,1,75,0|0,0:0|0:0,0:0:0:0:
448,308,150537,2,0,L|456:348,2,37.5,0|0|0,0:0|0:0|0:0,0:0:0:0:
424,184,151068,1,0,0:0:0:0:
400,60,151334,1,2,0:0:0:0:
272,52,151599,5,0,0:0:0:0:
272,52,151732,1,0,0:0:0:0:
272,52,151865,2,0,L|128:36,1,112.5,0|0,0:0|0:0,0:0:0:0:
144,72,152396,1,2,0:0:0:0:
124,104,152529,1,0,0:0:0:0:
108,140,152661,2,0,P|120:216|188:244,1,150
264,148,153458,6,0,P|316:152|352:168,1,75,2|0,0:0|0:0,0:0:0:0:
280,256,153989,2,0,P|296:280|340:300,1,75
392,296,154387,2,0,P|424:260|492:248,1,112.5
484,246,154918,1,0,0:0:0:0:
484,246,155051,1,0,0:0:0:0:
472,136,155316,1,0,0:0:0:0:
380,68,155582,1,2,0:0:0:0:
276,88,155847,5,0,0:0:0:0:
276,88,155980,1,0,0:0:0:0:
276,88,156113,2,0,L|176:120,1,75,0|0,0:0|0:0,0:0:0:0:
204,176,156511,2,0,L|304:208,1,75,0|0,0:0|0:0,0:0:0:0:
272,264,156909,2,0,L|120:308,1,150,0|0,0:0|0:0,0:0:0:0:
48,204,157706,1,2,0:0:0:0:
136,112,157971,5,0,0:0:0:0:
136,112,158104,1,0,0:0:0:0:
136,112,158236,2,0,L|160:200,1,75,0|0,0:0|0:0,0:0:0:0:
220,184,158635,2,0,L|244:96,1,75,0|0,0:0|0:0,0:0:0:0:
304,116,159033,2,0,L|348:272,1,150,0|0,0:0|0:0,0:0:0:0:
264,336,159829,1,2,0:0:0:0:
232,228,160095,5,0,0:0:0:0:
232,228,160228,1,0,0:0:0:0:
232,228,160360,2,0,P|320:244|404:220,1,150,0|2,0:0|0:0,0:0:0:0:
428,132,161157,1,0,0:0:0:0:
428,132,161290,1,0,0:0:0:0:
428,132,161422,2,0,P|384:128|332:104,1,75
268,56,161953,2,0,P|232:44|192:48,1,75,2|0,0:0|0:0,0:0:0:0:
84,52,162484,5,0,0:0:0:0:
104,180,162750,1,0,0:0:0:0:
60,300,163015,1,0,0:0:0:0:
188,280,163281,1,0,0:0:0:0:
304,336,163546,1,0,0:0:0:0:
304,336,163679,1,0,0:0:0:0:
304,336,163812,1,0,0:0:0:0:
304,336,163944,1,0,0:0:0:0:
304,336,164077,6,0,L|472:312,1,150,0|4,0:0|0:0,0:0:0:0:
476,188,164874,5,0,0:0:0:0:
464,124,165006,2,0,L|452:56,2,37.5,0|2|0,0:0|0:0|0:0,0:0:0:0:
476,188,165405,2,0,P|380:196|308:180,1,150,0|0,0:0|0:0,0:0:0:0:
216,128,166201,1,2,0:0:0:0:
316,48,166467,5,0,0:0:0:0:
316,48,166599,1,0,0:0:0:0:
316,48,166732,2,0,L|324:136,1,75,0|0,0:0|0:0,0:0:0:0:
328,188,167130,2,0,L|336:276,1,75,0|0,0:0|0:0,0:0:0:0:
344,328,167529,2,0,L|392:336,2,37.5,0|0|0,0:0|0:0|0:0,0:0:0:0:
220,300,168059,1,0,0:0:0:0:
100,264,168325,1,2,0:0:0:0:
76,140,168590,6,0,P|140:144|168:160,1,75,0|0,0:0|0:0,0:0:0:0:
268,192,169121,1,0,0:0:0:0:
332,188,169254,2,0,P|376:172|408:144,1,75,0|0,0:0|0:0,0:0:0:0:
436,104,169652,2,0,L|448:264,1,150,0|0,0:0|0:0,0:0:0:0:
360,348,170449,2,0,P|300:344|264:336,2,75,2|0|0,0:0|0:0|0:0,0:0:0:0:
132,236,171511,6,0,L|216:220,1,75,2|0,0:0|0:0,0:0:0:0:
268,212,171909,1,0,0:0:0:0:
332,200,172042,2,0,P|352:164|360:120,1,75,0|0,0:0|0:0,0:0:0:0:
260,52,172573,2,0,P|240:88|232:132,1,75,2|0,0:0|0:0,0:0:0:0:
332,200,173104,6,0,P|392:276|416:332,1,150,4|2,0:0|0:0,0:0:0:0:
288,336,173900,1,0,0:0:0:0:
252,332,174033,1,0,0:0:0:0:
216,324,174166,2,0,P|172:336|120:328,2,75,0|0|2,0:0|0:0|0:0,0:0:0:0:
168,220,174962,1,0,0:0:0:0:
232,128,175228,2,0,P|288:104|352:96,2,112.5,0|0|0,0:0|0:0|0:0,0:0:0:0:
188,172,176157,1,0,0:0:0:0:
168,232,176290,6,0,L|144:320,1,75,0|0,0:0|0:0,0:0:0:0:
276,308,176821,2,0,L|280:384,1,75,2|0,0:0|0:0,0:0:0:0:
400,340,177352,2,0,P|464:332|476:320,2,75,4|0|2,0:0|0:0|0:0,0:0:0:0:
388,304,178015,5,0,0:0:0:0:
376,268,178148,1,0,0:0:0:0:
364,232,178281,1,0,0:0:0:0:
352,196,178413,2,0,P|288:204|276:216,2,75,0|0|2,0:0|0:0|0:0,0:0:0:0:
444,116,179210,5,0,0:0:0:0:
444,116,179343,1,0,0:0:0:0:
444,116,179475,1,4,0:0:0:0:
444,116,180272,6,0,L|432:164,1,37.5,0|0,0:0|0:0,0:0:0:0:
420,216,180537,2,0,L|404:272,3,37.5,0|2|0|0,0:0|0:0|0:0|0:0,0:0:0:0:
348,272,181068,2,0,L|288:284,3,37.5,2|0|2|2,0:0|0:0|0:0|0:0,0:0:0:0:
248,292,181599,5,4,0:0:0:0:
248,292,182661,5,0,0:0:0:0:
248,292,183723,5,2,0:0:0:0:
56,148,184254,1,2,0:0:0:0:
276,52,184785,5,2,0:0:0:0:
396,72,185051,1,2,0:0:0:0:
408,188,185316,1,2,0:0:0:0:
452,224,185449,6,0,L|496:260,2,46.875,0|2|0,0:0|0:0|0:0,0:0:0:0:
408,188,185847,1,4,0:0:0:0:
380,296,186113,1,0,0:0:0:0:
304,220,186378,1,2,0:0:0:0:
256,192,186511,6,0,L|184:192,2,46.875,0|0|2,0:0|0:0|0:0,0:0:0:0:
256,248,186909,2,0,P|224:288|176:320,1,93.75,0|0,0:0|0:0,0:0:0:0:
136,296,187307,2,0,P|117:248|113:190,1,93.75,2|0,0:0|0:0,2:0:0:0:
120,152,187706,1,0,0:0:0:0:
160,112,187838,6,0,P|220:64|296:56,1,140.625,2|0,0:0|0:0,0:0:0:0:
336,60,188369,1,2,0:0:0:0:
392,84,188502,1,2,0:0:0:0:
428,128,188635,2,0,P|432:192|408:244,1,93.75,0|0,0:0|0:0,0:0:0:0:
400,272,189033,2,0,P|348:312|304:316,1,93.75,0|0,0:0|0:0,0:0:0:0:
208,304,189564,5,2,0:0:0:0:
156,280,189697,2,0,L|84:304,2,46.875,0|0|0,0:0|0:0|0:0,0:0:0:0:
204,248,190095,2,0,P|224:192|272:160,1,93.75
376,104,190626,5,2,0:0:0:0:
324,84,190759,2,0,L|256:52,2,46.875,0|0|0,0:0|0:0|0:0,0:0:0:0:
332,140,191157,2,0,P|294:167|251:186,1,93.75,0|0,0:0|0:0,0:0:0:0:
232,56,191688,1,2,0:0:0:0:
120,96,191953,1,0,0:0:0:0:
72,200,192219,6,0,P|80:264|96:304,1,93.75,0|0,0:0|0:0,0:0:0:0:
192,224,192750,1,2,0:0:0:0:
288,288,193015,2,0,L|336:288,1,46.875,0|0,0:0|0:0,0:0:0:0:
384,260,193281,1,0,0:0:0:0:
352,152,193546,1,0,0:0:0:0:
264,80,193812,5,2,0:0:0:0:
232,100,193944,1,0,0:0:0:0:
216,132,194077,1,0,0:0:0:0:
208,168,194210,1,0,0:0:0:0:
212,204,194343,2,0,P|232:252|264:288,1,93.75,4|0,0:0|0:0,0:0:0:0:
412,220,194874,5,0,0:0:0:0:
394,187,195006,1,2,0:0:0:0:
366,160,195139,1,0,0:0:0:0:
334,142,195272,1,0,0:0:0:0:
304,128,195405,2,0,P|258:120|214:135,1,93.75,0|0,0:0|0:0,2:0:0:0:
176,176,195803,2,0,P|156:224|168:268,1,93.75,0|0,0:0|0:0,0:0:0:0:
204,304,196201,2,0,L|180:352,2,46.875,0|0|0,0:0|0:0|0:0,0:0:0:0:
256,204,196732,1,0,0:0:0:0:
328,100,196998,6,0,L|300:56,2,46.875,2|0|0,0:0|0:0|0:0,0:0:0:0:
356,144,197396,1,0,0:0:0:0:
416,240,197661,2,0,L|376:280,1,46.875,0|0,0:0|0:0,0:0:0:0:
296,348,198059,1,2,0:0:0:0:
256,307,198192,6,0,L|256:251,2,46.875,0|0|0,0:0|0:0|0:0,0:0:0:0:
218,348,198590,1,0,0:0:0:0:
112,308,198856,2,0,L|84:212,1,93.75,0|2,0:0|0:0,0:0:0:0:
152,128,199387,1,0,0:0:0:0:
264,108,199652,1,0,0:0:0:0:
360,164,199918,2,0,L|372:212,1,46.875,0|0,0:0|0:0,0:0:0:0:
260,224,200316,2,0,L|220:184,2,46.875,0|0|0,0:0|0:0|0:0,0:0:0:0:
308,268,200714,5,2,0:0:0:0:
180,300,200980,1,2,0:0:0:0:
88,208,201245,1,2,0:0:0:0:
116,80,201511,1,2,0:0:0:0:
274,59,202042,6,0,L|322:50,1,46.875,2|0,0:0|0:0,0:0:0:0:
376,44,202307,2,0,P|423:65|447:108,1,93.75,0|2,0:0|0:0,0:0:0:0:
452,155,202706,1,0,0:0:0:0:
440,208,202838,1,0,0:0:0:0:
256,192,202971,12,0,206024,0:0:0:0:
200,288,206290,6,0,P|152:248|128:208,1,93.75,0|0,0:0|0:0,0:0:0:0:
224,200,206821,2,0,L|280:152,1,56.2500021457673,0|0,0:0|0:0,0:0:0:0:
256,192,207352,12,0,209210,0:0:0:0:
360,128,209741,5,2,0:0:0:0:
232,172,210272,2,0,L|156:200,2,56.2500021457673,0|0|2,0:0|0:0|0:0,0:0:0:0:
360,128,211068,1,0,0:0:0:0:
256,192,211334,12,0,215582,0:0:0:0:
148,96,224080,5,0,0:0:0:0:
184,196,224346,1,0,0:0:0:0:
80,176,224611,1,0,0:0:0:0:
148,96,224877,1,0,0:0:0:0:
256,292,226204,5,0,0:0:0:0:
360,352,226470,1,0,0:0:0:0:
360,232,226735,1,0,0:0:0:0:
256,292,227001,1,0,0:0:0:0:
156,356,227797,5,0,0:0:0:0:
48,140,228328,5,0,0:0:0:0:
152,84,228594,1,0,0:0:0:0:
268,120,228859,1,0,0:0:0:0:
376,64,229125,1,0,0:0:0:0:
164,180,229656,6,0,L|236:236,1,75,0|0,0:0|0:0,0:0:0:0:
420,364,230452,5,0,0:0:0:0:
448,248,230718,1,0,0:0:0:0:
360,168,230983,1,0,0:0:0:0:
384,52,231249,1,0,0:0:0:0:
384,52,232311,5,2,0:0:0:0:
384,52,232443,1,2,0:0:0:0:
356,104,232576,2,0,P|304:124|260:124,1,75,0|0,0:0|0:0,0:0:0:0:
236,92,232974,2,0,L|204:184,1,75,0|0,0:0|0:0,0:0:0:0:
164,128,233373,6,0,P|127:133|93:149,1,75,0|0,0:0|0:0,0:0:0:0:
12,236,234169,5,2,0:0:0:0:
56,348,234434,1,0,0:0:0:0:
56,348,234567,1,2,0:0:0:0:
56,348,234700,2,0,L|144:336,1,75,0|0,0:0|0:0,0:0:0:0:
152,280,235098,2,0,L|240:268,1,75,0|0,0:0|0:0,0:0:0:0:
248,212,235496,6,0,L|336:200,1,75,0|0,0:0|0:0,0:0:0:0:
440,184,236293,5,0,0:0:0:0:
404,68,236558,1,0,0:0:0:0:
404,68,236691,1,0,0:0:0:0:
404,68,236824,2,0,P|340:76|312:72,1,75,4|0,0:0|0:0,0:0:0:0:
216,40,237355,1,2,0:0:0:0:
216,40,237620,6,0,L|204:208,1,150,4|0,0:0|0:0,0:0:0:0:
200,312,238417,1,0,0:0:0:0:
88,272,238682,1,0,0:0:0:0:
88,272,238815,1,0,0:0:0:0:
88,272,238948,6,0,L|48:192,1,75,4|0,0:0|0:0,0:0:0:0:
28,152,239346,2,0,P|80:112|152:108,1,112.5,0|4,0:0|0:0,0:0:0:0:
172,216,240010,5,0,0:0:0:0:
201,221,240142,1,0,0:0:0:0:
230,226,240275,1,0,0:0:0:0:
259,230,240408,1,0,0:0:0:0:
288,235,240541,6,0,L|434:182,1,150,0|4,0:0|0:0,0:0:0:0:
352,72,241337,6,0,L|296:124,1,56.2500021457673
184,60,241735,1,0,0:0:0:0:
116,52,241868,2,0,P|84:172|0:168,1,225.000008583069,0|0,0:0|0:0,0:0:0:0:
48,40,242665,1,2,0:0:0:0:
88,168,242930,6,0,L|108:224,1,56.2500021457673,0|0,0:0|0:0,0:0:0:0:
136,284,243196,2,0,P|204:296|240:272,1,112.500004291535,0|0,0:0|0:0,0:0:0:0:
248,208,243594,2,0,L|256:136,2,56.2500021457673,0|2|0,0:0|0:0|0:0,0:0:0:0:
237,274,243992,1,0,0:0:0:0:
284,324,244125,1,0,0:0:0:0:
352,328,244257,2,0,P|412:300|452:244,1,112.500004291535,0|0,0:0|0:0,0:0:0:0:
468,132,244788,1,2,0:0:0:0:
340,176,245054,5,0,0:0:0:0:
340,176,245187,1,0,0:0:0:0:
340,176,245319,2,0,P|268:140|248:88,1,112.500004291535
276,52,245718,2,0,L|300:0,2,56.2500021457673,0|2|0,0:0|0:0|0:0,0:0:0:0:
252,116,246116,2,0,P|172:156|56:104,1,225.000008583069
156,16,246912,5,2,0:0:0:0:
56,108,247178,2,0,L|64:184,1,56.2500021457673
72,232,247443,2,0,P|88:276|152:320,1,112.500004291535
272,292,247974,5,2,0:0:0:0:
372,200,248240,2,0,L|284:188,1,56.2500021457673
260,184,248505,1,0,0:0:0:0:
156,100,248771,1,0,0:0:0:0:
292,88,249036,2,0,L|408:76,1,112.500004291535,2|0,0:0|0:0,0:0:0:0:
444,208,249567,6,0,L|473:339,2,112.500004291535,0|0|2,0:0|0:0|0:0,0:0:0:0:
314,249,250364,1,0,0:0:0:0:
272,260,250496,1,0,0:0:0:0:
228,268,250629,6,0,L|107:255,2,112.500004291535,0|0|2,0:0|0:0|0:0,0:0:0:0:
182,148,251426,1,0,0:0:0:0:
193,108,251558,1,0,0:0:0:0:
208,68,251691,6,0,P|272:116|360:120,1,168.750006437302,0|0,0:0|0:0,0:0:0:0:
424,100,252222,2,0,L|440:232,1,112.500004291535,2|0,0:0|0:0,0:0:0:0:
324,288,252753,6,0,P|268:256|188:320,1,168.750006437302,0|0,0:0|0:0,0:0:0:0:
124,320,253284,2,0,L|116:208,1,112.500004291535,2|0,0:0|0:0,0:0:0:0:
104,72,253815,1,4,0:0:0:0:
104,72,254611,5,0,0:0:0:0:
148,75,254744,1,0,0:0:0:0:
193,77,254877,1,0,0:0:0:0:
104,72,255673,5,0,0:0:0:0:
148,75,255806,1,0,0:0:0:0:
193,77,255939,1,4,0:0:0:0:
104,72,256735,5,0,0:0:0:0:
148,75,256868,1,0,0:0:0:0:
193,77,257001,2,0,P|205:149|345:149,1,225.000008583069,0|2,0:0|0:0,0:0:0:0:
377,143,257665,1,0,0:0:0:0:
389,186,257797,1,0,0:0:0:0:
400,229,257930,1,0,0:0:0:0:
414,271,258063,5,4,0:0:0:0:
256,192,258196,12,0,265496,0:0:0:0:
136,84,266558,6,0,P|132:152|204:200,1,150,4|2,0:0|0:0,0:0:0:0:
292,152,267355,5,0,0:0:0:0:
348,168,267488,1,0,0:0:0:0:
388,208,267620,2,0,L|404:312,1,75
288,280,268151,2,0,L|272:376,2,75,2|0|0,0:0|0:0|0:0,0:0:0:0:
68,328,269213,5,2,0:0:0:0:
80,272,269346,1,0,0:0:0:0:
96,216,269479,2,0,L|192:204,1,75
284,196,270010,1,0,0:0:0:0:
188,88,270275,2,0,L|176:180,1,75,2|0,0:0|0:0,0:0:0:0:
380,92,270806,5,4,0:0:0:0:
380,92,271337,1,2,0:0:0:0:
408,140,271470,1,0,0:0:0:0:
404,196,271603,2,0,P|328:244|256:232,1,150,4|0,0:0|0:0,0:0:0:0:
188,160,272399,6,0,L|85:157,2,75,0|0|4,0:0|0:0|0:0,0:0:0:0:
256,192,273063,12,0,276912,0:0:0:0:
