osu file format v14

[General]
AudioFilename: Kaze no Naka no Primrose.mp3
AudioLeadIn: 0
PreviewTime: 58418
Countdown: 0
SampleSet: Soft
StackLeniency: 0.7
Mode: 0
LetterboxInBreaks: 1
EpilepsyWarning: 1
WidescreenStoryboard: 1

[Editor]
DistanceSpacing: 1
BeatDivisor: 4
GridSize: 4
TimelineZoom: 1.1

[Metadata]
Title:Kaze no Naka no Primrose
TitleUnicode:風のなかのプリムローズ
Artist:Ceui
ArtistUnicode:Ceui
Creator:Yumeno Himiko
Version:Easy
Source:恋と選挙とチョコレート
Tags:love election koichoco ending strong wind Koi to Senkyo to Chocolate kotaro odaka visual novel eroge [CSGA]Ar3sgice ids ignorethis Nardoxyribonucleic Lavender examination
BeatmapID:842710
BeatmapSetID:158376

[Difficulty]
HPDrainRate:1
CircleSize:3
OverallDifficulty:2
ApproachRate:3
SliderMultiplier:1
SliderTickRate:1

[Events]
//Background and Video events
0,0,"BG.jpg",0,0
//Break Periods
2,96848,107952
2,206224,231136
//Storyboard Layer 0 (Background)
//Storyboard Layer 1 (Fail)
//Storyboard Layer 2 (Pass)
//Storyboard Layer 3 (Foreground)
//Storyboard Sound Samples

[TimingPoints]
676,530.973451327434,4,2,1,50,1,0
10764,-100,4,2,1,5,0,0
11693,530.973451327434,4,2,1,50,1,0
37179,-100,4,2,1,60,0,0
54701,-100,4,2,1,70,0,0
56294,-100,4,2,1,75,0,0
56825,-100,4,2,1,80,0,0
57356,-100,4,2,1,85,0,0
57887,-100,4,2,1,90,0,0
58418,-100,4,2,1,100,0,1
92400,-100,4,2,1,100,0,0
94524,-100,4,2,1,80,0,0
95055,-100,4,2,1,60,0,0
95586,-100,4,2,1,40,0,0
96117,-100,4,2,1,20,0,0
96648,-100,4,2,1,5,0,0
109392,-100,4,2,1,50,0,0
115516,530.973451327434,4,2,1,50,1,0
116606,530.973451327434,4,2,1,5,1,0
117883,530.973451327434,4,2,1,50,1,0
126378,-100,4,2,1,60,0,0
143369,-100,4,2,1,70,0,0
145493,-100,4,2,1,75,0,0
146024,-100,4,2,1,80,0,0
146555,-100,4,2,1,85,0,0
147086,-100,4,2,1,90,0,0
147617,-100,4,2,1,100,0,1
181599,-100,4,2,1,100,0,0
182666,-100,4,2,1,80,0,0
183197,-100,4,2,1,60,0,0
183728,-100,4,2,1,40,0,0
184259,-100,4,2,1,20,0,0
184790,-100,4,2,1,5,0,0
185847,-100,4,2,1,100,0,0
204436,-100,4,2,1,60,0,0
204967,-100,4,2,1,40,0,0
205498,-100,4,2,1,20,0,0
206024,-100,4,2,1,5,0,0
221957,555.555555555556,4,2,1,50,1,0
223550,530.973451327434,4,2,1,100,1,0
224081,530.973451327434,4,2,1,100,1,0
224081,-100,4,2,1,25,0,0
232576,-100,4,2,1,60,0,0
238948,-100,4,2,1,75,0,0
239479,-100,4,2,1,80,0,0
240010,-100,4,2,1,85,0,0
240541,-100,4,2,1,90,0,0
241072,-100,4,2,1,100,0,1
258063,-100,4,2,1,100,0,0
260188,-100,4,2,1,80,0,0
260719,-100,4,2,1,60,0,0
261250,-100,4,2,1,40,0,0
261781,-100,4,2,1,20,0,0
262312,-100,4,2,1,5,0,0

[Colours]
Combo1 : 255,173,113
Combo2 : 247,136,136
Combo3 : 138,230,253
Combo4 : 142,255,159
Combo5 : 254,242,160
SliderBorder : 255,255,255

[HitObjects]
168,56,11693,6,0,P|132:104|116:192,1,150,0|0,0:0|0:0,0:0:0:0:
136,288,13020,2,0,L|216:364,1,100
251,323,13816,6,0,P|323:307|395:335,1,150
376,132,15675,2,0,L|496:116,2,100
284,92,17268,2,0,L|128:76,1,150
108,224,18861,2,0,L|124:288,1,50
212,312,19657,1,0,0:0:0:0:
128,368,20188,6,0,P|64:352|32:312,1,100
44,280,20985,2,0,L|60:116,1,150
168,60,22312,6,0,L|272:48,1,100,0|0,0:0|0:0,0:0:0:0:
316,44,23108,2,0,L|432:32,1,100,0|0,0:0|0:0,0:0:0:0:
488,164,24436,6,0,L|504:224,2,50,0|0|0,0:0|0:0|0:0,0:0:0:0:
476,116,25232,2,0,B|384:112|384:112|336:172,1,150,0|0,0:0|0:0,0:0:0:0:
292,240,26560,6,0,L|224:256,2,50,0|0|0,0:0|0:0|0:0,0:0:0:0:
340,228,27356,2,0,P|416:276|400:344,1,150,0|0,0:0|0:0,0:0:0:0:
320,364,28684,2,0,P|260:348|200:352,1,100
172,344,29480,2,0,L|160:176,1,150
156,96,30808,6,0,L|44:64,1,100
16,96,31604,1,0,0:0:0:0:
240,216,32931,6,0,L|328:208,2,75,0|0|0,0:0|0:0|0:0,0:0:0:0:
204,252,33993,2,0,L|120:296,2,75,0|0|0,0:0|0:0|0:0,0:0:0:0:
196,204,35055,6,0,B|144:120|144:120|32:136,1,200,0|0,0:0|0:0,0:0:0:0:
40,236,36648,2,0,L|112:224,1,50,0|0,0:0|0:0,0:0:0:0:
140,220,37179,5,0,0:0:0:0:
240,208,37710,2,0,L|352:196,1,100,2|0,0:0|0:0,0:0:0:0:
376,104,38772,2,0,L|432:100,2,50,2|0|0,0:0|0:0|0:0,0:0:0:0:
276,116,39834,1,2,0:0:0:0:
176,128,40365,2,0,L|72:92,1,100,0|2,0:0|0:0,0:0:0:0:
72,196,41427,6,0,L|60:300,1,100,0|2,0:0|0:0,0:0:0:0:
152,340,42489,1,0,0:0:0:0:
168,240,43020,2,0,L|176:180,2,50,2|0|0,0:0|0:0|0:0,0:0:0:0:
256,288,44082,1,2,0:0:0:0:
272,188,44613,2,0,L|292:68,1,100
384,128,45675,5,4,0:0:0:0:
392,228,46206,2,0,L|288:256,1,100,2|0,0:0|0:0,0:0:0:0:
200,280,47268,2,0,L|152:296,2,50,2|0|0,0:0|0:0|0:0,0:0:0:0:
204,180,48330,1,2,0:0:0:0:
108,204,48861,2,0,L|0:232,1,100,0|2,0:0|0:0,0:0:0:0:
20,328,49923,6,0,P|84:360|208:336,1,200,0|0,0:0|0:0,0:0:0:0:
236,240,51516,1,2,0:0:0:0:
180,160,52046,6,0,L|340:148,1,150,0|0,0:0|0:0,0:0:0:0:
396,224,53374,2,0,P|412:284|376:320,1,100
352,344,54170,6,0,L|280:380,2,75
344,296,55232,1,0,0:0:0:0:
244,280,55763,2,0,L|172:272,1,50
144,268,56294,6,0,L|136:160,1,100
232,196,57356,2,0,L|256:88,1,100
344,56,58418,6,0,L|500:44,1,150,4|0,0:0|0:0,0:0:0:0:
476,144,59746,2,0,L|456:256,1,100
444,288,60542,6,0,P|332:288|300:312,1,150,0|0,0:0|0:0,0:0:0:0:
244,228,61869,2,0,L|200:204,2,50,0|2|0,0:0|0:0|0:0,0:0:0:0:
292,244,62666,6,0,L|452:228,1,150
404,136,63993,2,0,L|288:108,1,100
260,96,64790,6,0,P|192:96|100:132,1,150,0|0,0:0|0:0,0:0:0:0:
64,208,66117,2,0,L|24:256,2,50,0|2|0,0:0|0:0|0:0,0:0:0:0:
112,196,66914,6,0,P|188:192|256:224,1,150
324,292,68241,2,0,L|224:320,1,100
180,296,69038,6,0,P|144:228|188:160,1,150
252,100,70365,2,0,L|208:52,2,50,0|2|0,0:0|0:0|0:0,0:0:0:0:
300,88,71162,6,0,B|400:68|400:68|468:160,1,200,0|0,0:0|0:0,0:0:0:0:
360,168,72754,2,0,L|292:180,2,50,2|0|0,0:0|0:0|0:0,0:0:0:0:
404,260,73816,1,0,0:0:0:0:
344,340,74347,2,0,P|288:368|244:360,1,100,0|0,0:0|0:0,0:0:0:0:
160,324,75409,6,0,L|112:172,1,150,4|0,0:0|0:0,0:0:0:0:
80,88,76737,2,0,L|176:32,1,100
216,36,77533,6,0,P|260:56|288:120,1,100,0|2,0:0|0:0,0:0:0:0:
280,148,78330,2,0,P|304:196|408:204,1,150,0|2,0:0|0:0,0:0:0:0:
452,132,79657,6,0,P|496:176|476:268,1,150,0|0,0:0|0:0,0:0:0:0:
392,288,80985,2,0,L|332:304,2,50,0|2|0,0:0|0:0|0:0,0:0:0:0:
440,276,81781,6,0,L|448:104,1,150,0|0,0:0|0:0,0:0:0:0:
352,96,83108,2,0,L|288:96,1,50,0|2,0:0|0:0,0:0:0:0:
204,124,83905,6,0,P|148:152|128:284,1,200,4|0,0:0|0:0,0:0:0:0:
172,368,85498,1,2,0:0:0:0:
268,348,86029,6,0,L|356:328,2,75,0|0|0,0:0|0:0|0:0,0:0:0:0:
224,324,87091,2,0,L|136:316,2,75,0|0|0,0:0|0:0|0:0,0:0:0:0:
248,280,88153,6,0,L|288:176,1,100,0|2,0:0|0:0,0:0:0:0:
184,188,89215,2,0,L|224:84,1,100,0|2,0:0|0:0,0:0:0:0:
320,80,90277,1,4,0:0:0:0:
256,192,91339,12,0,96648,0:0:0:0:
416,104,109392,6,0,L|208:116,1,200,0|0,0:0|0:0,0:0:0:0:
80,264,111516,1,0,0:0:0:0:
180,316,113639,6,0,L|148:112,1,200,0|0,0:0|0:0,0:0:0:0:
352,132,115781,1,0,0:0:0:0:
352,132,117883,6,0,L|440:144,2,75,0|0|0,0:0|0:0|0:0,0:0:0:0:
252,116,119210,2,0,L|140:100,1,100
104,96,120006,6,0,P|116:200|100:304,1,200,0|0,0:0|0:0,0:0:0:0:
264,176,122130,5,0,0:0:0:0:
272,276,122661,2,0,L|336:288,2,50
456,204,124254,6,0,L|348:216,1,100
312,192,125051,2,0,L|268:152,1,50
92,80,126378,6,0,L|68:248,1,150,4|0,0:0|0:0,0:0:0:0:
56,328,127706,2,0,P|104:360|164:348,1,100
196,348,128502,6,0,L|312:332,1,100,0|2,0:0|0:0,0:0:0:0:
344,328,129298,2,0,L|504:304,1,150,0|2,0:0|0:0,0:0:0:0:
456,212,130626,6,0,L|505:217,2,50,0|0|2,0:0|0:0|0:0,0:0:0:0:
408,204,131422,1,0,0:0:0:0:
348,124,131953,2,0,L|372:12,1,100
416,12,132750,6,0,P|472:36|480:124,1,150,0|0,0:0|0:0,0:0:0:0:
392,156,134077,2,0,P|328:160|276:152,1,100,0|0,0:0|0:0,0:0:0:0:
244,140,134874,6,0,L|160:280,1,150,4|0,0:0|0:0,0:0:0:0:
76,312,136201,2,0,L|12:220,1,100
32,180,136998,6,0,P|76:160|180:180,1,150,0|0,0:0|0:0,0:0:0:0:
252,240,138325,2,0,L|232:296,2,50,0|2|0,0:0|0:0|0:0,0:0:0:0:
220,204,139121,6,0,P|216:128|272:76,1,150
360,64,140449,2,0,L|412:16,2,50,0|2|0,0:0|0:0|0:0,0:0:0:0:
360,116,141245,6,0,L|416:264,1,150,0|0,0:0|0:0,0:0:0:0:
328,308,142573,1,0,0:0:0:0:
228,328,143104,2,0,L|160:328,1,50,0|0,0:0|0:0,0:0:0:0:
60,236,144166,6,0,L|128:236,1,50,0|0,0:0|0:0,0:0:0:0:
208,236,144962,2,0,L|272:236,1,50,0|0,0:0|0:0,0:0:0:0:
308,236,145493,6,0,P|380:232|288:128,1,300,0|0,0:0|0:0,0:0:0:0:
196,116,147617,6,0,L|36:112,1,150,4|0,0:0|0:0,0:0:0:0:
88,204,148944,2,0,L|44:308,1,100
72,340,149741,6,0,P|128:368|232:344,1,150,0|0,0:0|0:0,0:0:0:0:
220,256,151068,2,0,L|172:208,2,50,0|2|0,0:0|0:0|0:0,0:0:0:0:
256,288,151865,6,0,P|364:280|408:252,1,150,0|0,0:0|0:0,0:0:0:0:
448,172,153192,2,0,L|440:64,1,100
404,36,153989,6,0,P|348:16|248:40,1,150,0|0,0:0|0:0,0:0:0:0:
228,128,155316,2,0,L|156:136,2,50,0|2|0,0:0|0:0|0:0,0:0:0:0:
276,144,156113,6,0,P|308:196|240:264,1,150,0|0,0:0|0:0,0:0:0:0:
196,336,157440,2,0,L|312:364,1,100
344,368,158236,6,0,P|408:368|484:304,1,150,0|0,0:0|0:0,0:0:0:0:
484,220,159564,2,0,L|488:156,2,50,0|2|0,0:0|0:0|0:0,0:0:0:0:
436,232,160360,6,0,P|388:248|276:212,1,150,0|0,0:0|0:0,0:0:0:0:
248,136,161688,2,0,L|156:212,1,100
132,232,162484,6,0,L|28:228,1,100,0|0,0:0|0:0,0:0:0:0:
32,128,163546,2,0,L|136:132,1,100,0|0,0:0|0:0,0:0:0:0:
220,88,164608,6,0,L|260:248,1,150,4|0,0:0|0:0,0:0:0:0:
224,328,165936,2,0,L|120:380,1,100
84,368,166732,6,0,P|40:356|32:264,1,150,0|0,0:0|0:0,0:0:0:0:
72,172,168059,2,0,L|4:164,2,50,0|2|0,0:0|0:0|0:0,0:0:0:0:
120,160,168856,6,0,P|184:108|176:40,1,150
80,60,170183,1,0,0:0:0:0:
28,144,170714,2,0,L|28:204,1,50,0|0,0:0|0:0,0:0:0:0:
120,228,171511,6,0,L|120:156,1,50,2|0,0:0|0:0,0:0:0:0:
192,108,172307,2,0,L|308:88,1,100
340,88,173104,6,0,P|384:128|368:260,1,200,4|0,0:0|0:0,0:0:0:0:
272,276,174697,1,2,0:0:0:0:
192,216,175228,6,0,L|96:232,2,75,0|0|0,0:0|0:0|0:0,0:0:0:0:
228,180,176290,2,0,L|312:192,2,75,0|0|0,0:0|0:0|0:0,0:0:0:0:
204,136,177352,6,0,P|200:92|248:44,1,100,4|2,0:0|0:0,0:0:0:0:
332,32,178413,2,0,P|384:32|444:56,1,100,0|2,0:0|0:0,0:0:0:0:
512,100,179475,1,4,0:0:0:0:
256,192,180537,12,0,184785,0:0:0:0:
144,120,185847,6,0,L|256:108,1,100,4|2,0:0|0:0,0:0:0:0:
320,176,186909,2,0,L|428:164,2,100,0|2|0,0:0|0:0|0:0,0:0:0:0:
236,228,188502,1,2,0:0:0:0:
184,316,189033,2,0,P|208:368|256:384,1,100,0|2,0:0|0:0,0:0:0:0:
344,364,190095,6,0,L|372:256,1,100,0|2,0:0|0:0,0:0:0:0:
304,192,191157,2,0,L|336:84,2,100,0|2|0,0:0|0:0|0:0,0:0:0:0:
216,236,192750,1,2,0:0:0:0:
120,256,193281,2,0,P|64:244|28:200,1,100,0|2,0:0|0:0,0:0:0:0:
0,120,194343,6,0,L|88:44,1,100,4|0,0:0|0:0,0:0:0:0:
168,92,195405,2,0,L|243:26,2,100,0|2|0,0:0|0:0|0:0,0:0:0:0:
196,188,196998,1,2,0:0:0:0:
232,280,197529,2,0,P|280:304|340:304,1,100,0|2,0:0|0:0,0:0:0:0:
408,248,198590,6,0,L|496:176,1,100,0|2,0:0|0:0,0:0:0:0:
428,100,199652,2,0,L|516:28,2,100,0|2|2,0:0|0:0|0:0,0:0:0:0:
328,116,201245,2,0,L|260:116,1,50,2|2,0:0|0:0,0:0:0:0:
144,188,202307,6,0,L|116:292,1,100,0|0,0:0|0:0,0:0:0:0:
256,192,203369,12,0,206024,0:0:0:0:
224,136,232576,6,0,L|396:124,1,150,0|0,0:0|0:0,0:0:0:0:
444,196,233904,2,0,L|512:204,2,50,0|2|0,0:0|0:0|0:0,0:0:0:0:
400,224,234700,6,0,P|336:272|248:280,1,150,0|0,0:0|0:0,0:0:0:0:
184,232,236027,2,0,L|80:272,1,100
40,280,236824,6,0,L|40:116,1,150,4|4,0:0|0:0,0:0:0:0:
108,56,238151,2,0,L|60:34,2,50
152,76,238948,6,0,P|156:124|248:152,1,150,4|4,0:0|0:0,0:0:0:0:
324,96,240275,2,0,L|384:88,2,50,0|0|0,0:0|0:0|0:0,0:0:0:0:
276,84,241072,6,0,L|232:252,1,150,4|0,0:0|0:0,0:0:0:0:
144,192,242399,2,0,L|64:260,1,100
56,304,243196,6,0,P|112:360|200:352,1,150,0|0,0:0|0:0,0:0:0:0:
224,272,244523,2,0,L|212:216,2,50,0|2|0,0:0|0:0|0:0,0:0:0:0:
256,312,245319,6,0,L|408:340,1,150,0|0,0:0|0:0,0:0:0:0:
460,256,246647,2,0,L|452:144,1,100
420,120,247443,6,0,L|416:56,2,50,0|0|2,0:0|0:0|0:0,0:0:0:0:
396,164,248240,2,0,P|332:208|248:188,1,150,0|2,0:0|0:0,0:0:0:0:
196,124,249567,6,0,L|136:328,1,200,0|0,0:0|0:0,0:0:0:0:
224,368,251160,1,2,0:0:0:0:
320,348,251691,6,0,L|408:332,2,75,0|0|0,0:0|0:0|0:0,0:0:0:0:
280,316,252753,2,0,L|184:312,2,75,0|0|0,0:0|0:0|0:0,0:0:0:0:
300,272,253815,6,0,L|340:168,1,100,4|2,0:0|0:0,0:0:0:0:
256,120,254877,2,0,L|220:213,1,100,0|2,0:0|0:0,0:0:0:0:
184,308,255939,1,4,0:0:0:0:
256,192,257001,12,0,262311,0:0:0:0:
