osu file format v14

[General]
AudioFilename: Hoshi.mp3
AudioLeadIn: 0
PreviewTime: -1
Countdown: 1
SampleSet: Soft
StackLeniency: 0.7
Mode: 3
LetterboxInBreaks: 0
SpecialStyle: 0
WidescreenStoryboard: 0

[Editor]
Bookmarks: 11538,22572,33607,44641,50159,57055,72228,74986,80504
DistanceSpacing: 1
BeatDivisor: 4
GridSize: 32
TimelineZoom: 1

[Metadata]
Title:Hoshi Ori Yume Mirai
TitleUnicode:星織ユメミライ
Artist:Ceui
ArtistUnicode:Ceui
Creator:TvSize225
Version:Normal
Source:VN(Hoshi Ori Yume Mirai)
Tags:visual novel eroge tone work
BeatmapID:997420
BeatmapSetID:465960

[Difficulty]
HPDrainRate:6
CircleSize:4
OverallDifficulty:6
ApproachRate:5
SliderMultiplier:1.4
SliderTickRate:1

[Events]
//Background and Video events
Video,0,"Hoshi.avi"
0,0,"NMBG.jpg",0,0
//Break Periods
//Storyboard Layer 0 (Background)
//Storyboard Layer 1 (Fail)
//Storyboard Layer 2 (Pass)
//Storyboard Layer 3 (Foreground)
//Storyboard Sound Samples

[TimingPoints]
504,344.827586206897,4,2,0,45,1,0
58262,-100,4,2,0,45,0,1
80504,-100,4,2,0,45,0,0

[HitObjects]
64,192,504,128,0,1797:0:0:0:0:
192,192,504,1,0,0:0:0:0:
320,192,676,1,0,0:0:0:0:
192,192,848,1,0,0:0:0:0:
448,192,1021,128,0,1366:0:0:0:0:
192,192,1366,1,0,0:0:0:0:
320,192,1710,1,0,0:0:0:0:
64,192,1883,128,0,3176:0:0:0:0:
192,192,1883,1,0,0:0:0:0:
320,192,2055,1,0,0:0:0:0:
192,192,2228,1,0,0:0:0:0:
448,192,2400,128,0,2745:0:0:0:0:
192,192,2745,1,0,0:0:0:0:
320,192,3090,1,0,0:0:0:0:
64,192,3262,128,0,4555:0:0:0:0:
192,192,3262,1,0,0:0:0:0:
320,192,3435,1,0,0:0:0:0:
192,192,3607,1,0,0:0:0:0:
448,192,3779,128,0,4124:0:0:0:0:
192,192,4124,1,0,0:0:0:0:
320,192,4469,1,0,0:0:0:0:
64,192,4641,128,0,5935:0:0:0:0:
192,192,4641,1,0,0:0:0:0:
320,192,4814,1,0,0:0:0:0:
192,192,4986,1,0,0:0:0:0:
448,192,5159,1,0,0:0:0:0:
320,192,5331,1,0,0:0:0:0:
320,192,5504,1,0,0:0:0:0:
192,192,5676,1,0,0:0:0:0:
320,192,5848,1,0,0:0:0:0:
192,192,6021,1,0,0:0:0:0:
320,192,6021,1,0,0:0:0:0:
320,192,6538,1,0,0:0:0:0:
448,192,6538,1,0,0:0:0:0:
64,192,7055,1,0,0:0:0:0:
192,192,7055,1,0,0:0:0:0:
192,192,7572,1,0,0:0:0:0:
320,192,7572,1,0,0:0:0:0:
320,192,8090,1,0,0:0:0:0:
192,192,8090,1,0,0:0:0:0:
64,192,8435,1,0,0:0:0:0:
320,192,8435,1,0,0:0:0:0:
192,192,8779,1,0,0:0:0:0:
64,192,8779,1,0,0:0:0:0:
64,192,9124,1,0,0:0:0:0:
320,192,9124,1,0,0:0:0:0:
64,192,9297,1,0,0:0:0:0:
192,192,9297,1,0,0:0:0:0:
64,192,9641,1,0,0:0:0:0:
448,192,9641,1,0,0:0:0:0:
64,192,9986,1,0,0:0:0:0:
320,192,9986,1,0,0:0:0:0:
64,192,10504,1,0,0:0:0:0:
192,192,10504,1,0,0:0:0:0:
320,192,10504,1,0,0:0:0:0:
64,192,10676,1,0,0:0:0:0:
192,192,10676,1,0,0:0:0:0:
448,192,10676,1,0,0:0:0:0:
64,192,11021,1,0,0:0:0:0:
320,192,11021,1,0,0:0:0:0:
448,192,11021,1,0,0:0:0:0:
64,192,11193,1,0,0:0:0:0:
192,192,11193,1,0,0:0:0:0:
320,192,11193,1,0,0:0:0:0:
192,192,11279,1,0,0:0:0:0:
320,192,11366,1,0,0:0:0:0:
448,192,11452,1,0,0:0:0:0:
448,192,11538,128,0,12572:0:0:0:0:
64,192,12572,128,0,12917:0:0:0:0:
448,192,12917,128,0,13435:0:0:0:0:
320,192,13435,128,0,13952:0:0:0:0:
192,192,13952,128,0,14297:0:0:0:0:
64,192,14297,128,0,14986:0:0:0:0:
192,192,14986,128,0,15159:0:0:0:0:
320,192,15159,128,0,15676:0:0:0:0:
192,192,15676,128,0,16366:0:0:0:0:
64,192,16366,128,0,16797:0:0:0:0:
64,192,16883,128,0,16969:0:0:0:0:
192,192,16969,128,0,17055:0:0:0:0:
320,192,17055,128,0,17228:0:0:0:0:
448,192,17228,128,0,17400:0:0:0:0:
320,192,17400,128,0,17572:0:0:0:0:
192,192,17572,128,0,17917:0:0:0:0:
448,192,17917,128,0,18090:0:0:0:0:
320,192,18090,128,0,18262:0:0:0:0:
192,192,18262,128,0,18607:0:0:0:0:
64,192,18607,128,0,18779:0:0:0:0:
192,192,18779,128,0,18952:0:0:0:0:
320,192,18952,128,0,19297:0:0:0:0:
64,192,19297,128,0,19469:0:0:0:0:
192,192,19469,128,0,19641:0:0:0:0:
320,192,19641,128,0,20331:0:0:0:0:
448,192,20331,128,0,20676:0:0:0:0:
320,192,20676,128,0,21021:0:0:0:0:
192,192,21021,128,0,21107:0:0:0:0:
192,192,21193,1,0,0:0:0:0:
320,192,21193,1,0,0:0:0:0:
448,192,21366,1,0,0:0:0:0:
320,192,21538,1,0,0:0:0:0:
320,192,21710,1,0,0:0:0:0:
192,192,21883,1,0,0:0:0:0:
64,192,22055,1,0,0:0:0:0:
448,192,22228,1,0,0:0:0:0:
192,192,22400,1,0,0:0:0:0:
320,192,22572,128,0,22917:0:0:0:0:
64,192,22572,128,0,22917:0:0:0:0:
64,192,23090,1,0,0:0:0:0:
192,192,23262,1,0,0:0:0:0:
320,192,23435,128,0,23779:0:0:0:0:
192,192,23779,128,0,24297:0:0:0:0:
448,192,23779,128,0,24297:0:0:0:0:
64,192,24297,1,0,0:0:0:0:
192,192,24469,128,0,24814:0:0:0:0:
448,192,24814,128,0,25331:0:0:0:0:
320,192,25331,128,0,25848:0:0:0:0:
192,192,25331,128,0,25848:0:0:0:0:
64,192,25848,1,0,0:0:0:0:
192,192,26021,1,0,0:0:0:0:
448,192,26193,128,0,26538:0:0:0:0:
320,192,26538,128,0,27055:0:0:0:0:
64,192,26538,128,0,27055:0:0:0:0:
192,192,26883,1,0,0:0:0:0:
448,192,27055,1,0,0:0:0:0:
192,192,27228,1,0,0:0:0:0:
320,192,27228,1,0,0:0:0:0:
64,192,27400,1,0,0:0:0:0:
192,192,27572,1,0,0:0:0:0:
320,192,27745,1,0,0:0:0:0:
448,192,27917,1,0,0:0:0:0:
448,192,28090,128,0,28693:0:0:0:0:
320,192,28090,128,0,28693:0:0:0:0:
448,192,28779,128,0,29383:0:0:0:0:
320,192,28779,128,0,29383:0:0:0:0:
192,192,29469,128,0,29986:0:0:0:0:
448,192,29469,128,0,30245:0:0:0:0:
64,192,29986,128,0,30245:0:0:0:0:
448,192,30331,128,0,30762:0:0:0:0:
320,192,30331,128,0,30762:0:0:0:0:
192,192,30848,128,0,31452:0:0:0:0:
320,192,30848,128,0,31452:0:0:0:0:
192,192,31538,128,0,32141:0:0:0:0:
320,192,31538,128,0,32141:0:0:0:0:
192,192,32228,128,0,32659:0:0:0:0:
320,192,32228,128,0,32659:0:0:0:0:
192,192,32745,128,0,33004:0:0:0:0:
320,192,32745,128,0,33004:0:0:0:0:
192,192,33090,128,0,33521:0:0:0:0:
448,192,33090,128,0,33521:0:0:0:0:
320,192,33607,128,0,33952:0:0:0:0:
64,192,33607,128,0,33952:0:0:0:0:
192,192,33779,1,0,0:0:0:0:
448,192,33952,1,0,0:0:0:0:
64,192,34124,1,0,0:0:0:0:
192,192,34297,1,0,0:0:0:0:
320,192,34469,128,0,34814:0:0:0:0:
192,192,34814,128,0,34986:0:0:0:0:
448,192,34814,128,0,34986:0:0:0:0:
320,192,34986,1,0,0:0:0:0:
192,192,35159,1,0,0:0:0:0:
448,192,35159,1,0,0:0:0:0:
64,192,35331,1,0,0:0:0:0:
192,192,35504,128,0,35848:0:0:0:0:
320,192,35676,1,0,0:0:0:0:
448,192,35848,128,0,36366:0:0:0:0:
64,192,36193,1,0,0:0:0:0:
320,192,36366,128,0,36883:0:0:0:0:
192,192,36366,128,0,36883:0:0:0:0:
64,192,36710,1,0,0:0:0:0:
64,192,36883,1,0,0:0:0:0:
192,192,37055,1,0,0:0:0:0:
448,192,37228,128,0,37572:0:0:0:0:
320,192,37572,128,0,38090:0:0:0:0:
64,192,37572,128,0,38090:0:0:0:0:
192,192,37917,1,0,0:0:0:0:
448,192,38090,1,0,0:0:0:0:
192,192,38090,1,0,0:0:0:0:
320,192,38435,1,0,0:0:0:0:
192,192,38435,1,0,0:0:0:0:
192,192,38779,1,0,0:0:0:0:
64,192,38779,1,0,0:0:0:0:
448,192,38779,1,0,0:0:0:0:
64,192,39124,1,0,0:0:0:0:
192,192,39124,1,0,0:0:0:0:
448,192,39124,1,0,0:0:0:0:
192,192,39469,1,0,0:0:0:0:
320,192,39814,1,0,0:0:0:0:
192,192,39814,1,0,0:0:0:0:
448,192,39814,1,0,0:0:0:0:
192,192,40159,1,0,0:0:0:0:
64,192,40504,1,0,0:0:0:0:
320,192,40504,1,0,0:0:0:0:
448,192,40504,1,0,0:0:0:0:
192,192,40762,1,0,0:0:0:0:
320,192,40848,1,0,0:0:0:0:
320,192,41193,1,0,0:0:0:0:
448,192,41193,1,0,0:0:0:0:
448,192,41366,1,0,0:0:0:0:
320,192,41710,128,0,42572:0:0:0:0:
64,192,43090,1,0,0:0:0:0:
192,192,43090,1,0,0:0:0:0:
448,192,43262,1,0,0:0:0:0:
320,192,43262,1,0,0:0:0:0:
320,192,43435,1,0,0:0:0:0:
192,192,43435,1,0,0:0:0:0:
192,192,43607,1,0,0:0:0:0:
64,192,43607,1,0,0:0:0:0:
192,192,43779,1,0,0:0:0:0:
320,192,43779,1,0,0:0:0:0:
320,192,44124,128,0,44641:0:0:0:0:
448,192,44124,128,0,44641:0:0:0:0:
64,192,44641,128,0,46021:0:0:0:0:
192,192,44641,128,0,45331:0:0:0:0:
320,192,45331,128,0,45848:0:0:0:0:
448,192,45848,128,0,47400:0:0:0:0:
192,192,46538,1,0,0:0:0:0:
320,192,46624,1,0,0:0:0:0:
192,192,46710,1,0,0:0:0:0:
64,192,46883,1,0,0:0:0:0:
320,192,47055,1,0,0:0:0:0:
192,192,47228,1,0,0:0:0:0:
320,192,47400,128,0,48607:0:0:0:0:
64,192,47400,128,0,50072:0:0:0:0:
192,192,48607,128,0,48952:0:0:0:0:
320,192,48952,128,0,49124:0:0:0:0:
448,192,49124,128,0,49297:0:0:0:0:
320,192,49297,128,0,49641:0:0:0:0:
192,192,49641,128,0,50072:0:0:0:0:
64,192,50159,1,0,0:0:0:0:
192,192,50159,1,0,0:0:0:0:
192,192,50331,1,0,0:0:0:0:
320,192,50331,1,0,0:0:0:0:
320,192,50504,1,0,0:0:0:0:
448,192,50504,1,0,0:0:0:0:
64,192,50676,1,0,0:0:0:0:
192,192,50676,1,0,0:0:0:0:
192,192,51021,1,0,0:0:0:0:
320,192,51021,1,0,0:0:0:0:
320,192,51193,1,0,0:0:0:0:
448,192,51193,1,0,0:0:0:0:
192,192,51366,1,0,0:0:0:0:
320,192,51366,1,0,0:0:0:0:
64,192,51710,1,0,0:0:0:0:
448,192,51710,1,0,0:0:0:0:
64,192,51883,1,0,0:0:0:0:
320,192,51883,1,0,0:0:0:0:
64,192,52055,1,0,0:0:0:0:
192,192,52055,1,0,0:0:0:0:
64,192,52400,1,0,0:0:0:0:
192,192,52400,1,0,0:0:0:0:
192,192,52572,1,0,0:0:0:0:
320,192,52572,1,0,0:0:0:0:
64,192,52745,1,0,0:0:0:0:
192,192,52745,1,0,0:0:0:0:
448,192,52917,1,0,0:0:0:0:
320,192,52917,1,0,0:0:0:0:
320,192,53262,1,0,0:0:0:0:
192,192,53262,1,0,0:0:0:0:
192,192,53435,128,0,54297:0:0:0:0:
320,192,53435,128,0,54297:0:0:0:0:
64,192,54641,128,0,54986:0:0:0:0:
192,192,54641,128,0,54986:0:0:0:0:
320,192,54986,128,0,55331:0:0:0:0:
448,192,54986,128,0,55331:0:0:0:0:
64,192,55331,128,0,55676:0:0:0:0:
192,192,55676,128,0,56021:0:0:0:0:
320,192,55676,128,0,56021:0:0:0:0:
448,192,56021,1,0,0:0:0:0:
64,192,56021,1,0,0:0:0:0:
64,192,56193,128,0,56538:0:0:0:0:
448,192,56193,128,0,56538:0:0:0:0:
192,192,56538,1,0,0:0:0:0:
320,192,56538,1,0,0:0:0:0:
192,192,56710,128,0,57055:0:0:0:0:
320,192,56710,128,0,57055:0:0:0:0:
64,192,57055,1,0,0:0:0:0:
448,192,57055,1,0,0:0:0:0:
192,192,57228,1,0,0:0:0:0:
320,192,57228,1,0,0:0:0:0:
192,192,57400,1,0,0:0:0:0:
320,192,57400,1,0,0:0:0:0:
64,192,57572,1,0,0:0:0:0:
448,192,57572,1,0,0:0:0:0:
448,192,57745,1,0,0:0:0:0:
320,192,57831,1,0,0:0:0:0:
192,192,57917,1,0,0:0:0:0:
64,192,58004,1,0,0:0:0:0:
192,192,58090,1,0,0:0:0:0:
320,192,58176,1,0,0:0:0:0:
448,192,58262,1,0,0:0:0:0:
64,192,58262,1,0,0:0:0:0:
64,192,58607,1,0,0:0:0:0:
320,192,58607,1,0,0:0:0:0:
64,192,58779,1,0,0:0:0:0:
64,192,58952,1,0,0:0:0:0:
192,192,58952,1,0,0:0:0:0:
320,192,59124,1,0,0:0:0:0:
448,192,59124,1,0,0:0:0:0:
320,192,59297,1,0,0:0:0:0:
192,192,59297,1,0,0:0:0:0:
320,192,59469,1,0,0:0:0:0:
64,192,59469,1,0,0:0:0:0:
192,192,59641,1,0,0:0:0:0:
448,192,59641,1,0,0:0:0:0:
192,192,59986,1,0,0:0:0:0:
320,192,59986,1,0,0:0:0:0:
192,192,60159,1,0,0:0:0:0:
320,192,60159,1,0,0:0:0:0:
192,192,60331,1,0,0:0:0:0:
448,192,60504,1,0,0:0:0:0:
448,192,60676,1,0,0:0:0:0:
448,192,60848,1,0,0:0:0:0:
320,192,60848,1,0,0:0:0:0:
448,192,61021,1,0,0:0:0:0:
64,192,61193,1,0,0:0:0:0:
192,192,61193,1,0,0:0:0:0:
64,192,61366,1,0,0:0:0:0:
320,192,61366,1,0,0:0:0:0:
64,192,61538,1,0,0:0:0:0:
448,192,61538,1,0,0:0:0:0:
320,192,61710,1,0,0:0:0:0:
448,192,61710,1,0,0:0:0:0:
320,192,61883,1,0,0:0:0:0:
192,192,62055,1,0,0:0:0:0:
64,192,62055,1,0,0:0:0:0:
192,192,62228,1,0,0:0:0:0:
448,192,62400,1,0,0:0:0:0:
320,192,62400,1,0,0:0:0:0:
448,192,62572,1,0,0:0:0:0:
320,192,62745,1,0,0:0:0:0:
64,192,62745,1,0,0:0:0:0:
320,192,62917,1,0,0:0:0:0:
192,192,62917,1,0,0:0:0:0:
64,192,63090,1,0,0:0:0:0:
448,192,63090,1,0,0:0:0:0:
64,192,63262,1,0,0:0:0:0:
64,192,63435,1,0,0:0:0:0:
192,192,63607,1,0,0:0:0:0:
320,192,63779,1,0,0:0:0:0:
448,192,63779,1,0,0:0:0:0:
64,192,63952,1,0,0:0:0:0:
192,192,63952,1,0,0:0:0:0:
64,192,64124,1,0,0:0:0:0:
64,192,64297,1,0,0:0:0:0:
448,192,64297,1,0,0:0:0:0:
448,192,64469,1,0,0:0:0:0:
192,192,64469,1,0,0:0:0:0:
448,192,64641,1,0,0:0:0:0:
320,192,64814,1,0,0:0:0:0:
192,192,64814,1,0,0:0:0:0:
320,192,64986,1,0,0:0:0:0:
192,192,65159,1,0,0:0:0:0:
448,192,65159,1,0,0:0:0:0:
64,192,65331,1,0,0:0:0:0:
64,192,65504,1,0,0:0:0:0:
192,192,65504,1,0,0:0:0:0:
64,192,65676,1,0,0:0:0:0:
448,192,65676,1,0,0:0:0:0:
448,192,65848,1,0,0:0:0:0:
320,192,65848,1,0,0:0:0:0:
448,192,66021,1,0,0:0:0:0:
448,192,66193,1,0,0:0:0:0:
448,192,66366,1,0,0:0:0:0:
448,192,66538,1,0,0:0:0:0:
192,192,66538,1,0,0:0:0:0:
64,192,66710,1,0,0:0:0:0:
448,192,66710,1,0,0:0:0:0:
64,192,66883,1,0,0:0:0:0:
64,192,67055,1,0,0:0:0:0:
320,192,67055,1,0,0:0:0:0:
64,192,67228,1,0,0:0:0:0:
320,192,67228,1,0,0:0:0:0:
64,192,67400,1,0,0:0:0:0:
64,192,67572,1,0,0:0:0:0:
192,192,67572,1,0,0:0:0:0:
64,192,67745,1,0,0:0:0:0:
320,192,67745,1,0,0:0:0:0:
192,192,67917,1,0,0:0:0:0:
448,192,67917,1,0,0:0:0:0:
192,192,68090,1,0,0:0:0:0:
192,192,68262,1,0,0:0:0:0:
192,192,68435,1,0,0:0:0:0:
192,192,68607,1,0,0:0:0:0:
448,192,68779,1,0,0:0:0:0:
64,192,68779,1,0,0:0:0:0:
320,192,68866,1,0,0:0:0:0:
192,192,68952,1,0,0:0:0:0:
64,192,69038,1,0,0:0:0:0:
192,192,69124,1,0,0:0:0:0:
320,192,69210,1,0,0:0:0:0:
448,192,69297,1,0,0:0:0:0:
64,192,69297,1,0,0:0:0:0:
64,192,69469,1,0,0:0:0:0:
192,192,69641,1,0,0:0:0:0:
320,192,69641,1,0,0:0:0:0:
320,192,69814,1,0,0:0:0:0:
448,192,69986,1,0,0:0:0:0:
64,192,69986,1,0,0:0:0:0:
64,192,70159,1,0,0:0:0:0:
448,192,70159,1,0,0:0:0:0:
320,192,70331,1,0,0:0:0:0:
192,192,70331,1,0,0:0:0:0:
448,192,70504,1,0,0:0:0:0:
64,192,70504,1,0,0:0:0:0:
192,192,70676,1,0,0:0:0:0:
448,192,70676,1,0,0:0:0:0:
320,192,70848,1,0,0:0:0:0:
448,192,71021,1,0,0:0:0:0:
192,192,71021,1,0,0:0:0:0:
64,192,71193,1,0,0:0:0:0:
192,192,71193,1,0,0:0:0:0:
192,192,71366,1,0,0:0:0:0:
320,192,71538,1,0,0:0:0:0:
192,192,71710,1,0,0:0:0:0:
448,192,71883,1,0,0:0:0:0:
320,192,71883,1,0,0:0:0:0:
320,192,72055,1,0,0:0:0:0:
64,192,72228,1,0,0:0:0:0:
192,192,72228,1,0,0:0:0:0:
192,192,72400,1,0,0:0:0:0:
320,192,72400,1,0,0:0:0:0:
192,192,72572,1,0,0:0:0:0:
448,192,72572,1,0,0:0:0:0:
320,192,72745,1,0,0:0:0:0:
448,192,72745,1,0,0:0:0:0:
64,192,73090,1,0,0:0:0:0:
192,192,73090,1,0,0:0:0:0:
320,192,73435,1,0,0:0:0:0:
192,192,73435,1,0,0:0:0:0:
192,192,73779,1,0,0:0:0:0:
64,192,73779,1,0,0:0:0:0:
192,192,74124,1,0,0:0:0:0:
320,192,74124,1,0,0:0:0:0:
320,192,74469,1,0,0:0:0:0:
448,192,74469,1,0,0:0:0:0:
448,192,74814,1,0,0:0:0:0:
448,192,74986,128,0,75331:0:0:0:0:
320,192,75331,1,0,0:0:0:0:
320,192,75504,128,0,75848:0:0:0:0:
192,192,75848,128,0,76021:0:0:0:0:
192,192,76193,128,0,76366:0:0:0:0:
64,192,76538,1,0,0:0:0:0:
320,192,76710,5,0,0:0:0:0:
192,192,76883,1,0,0:0:0:0:
64,192,77228,128,0,77572:0:0:0:0:
192,192,77745,5,0,0:0:0:0:
320,192,77745,1,0,0:0:0:0:
192,192,77917,1,0,0:0:0:0:
320,192,77917,1,0,0:0:0:0:
192,192,78090,1,0,0:0:0:0:
320,192,78090,1,0,0:0:0:0:
192,192,78262,1,0,0:0:0:0:
320,192,78262,1,0,0:0:0:0:
192,192,78435,1,0,0:0:0:0:
320,192,78435,1,0,0:0:0:0:
192,192,78607,1,0,0:0:0:0:
320,192,78607,1,0,0:0:0:0:
192,192,78779,1,0,0:0:0:0:
320,192,78779,1,0,0:0:0:0:
192,192,78952,1,0,0:0:0:0:
320,192,78952,1,0,0:0:0:0:
64,192,79124,1,0,0:0:0:0:
448,192,79124,1,0,0:0:0:0:
64,192,79297,1,0,0:0:0:0:
448,192,79297,1,0,0:0:0:0:
64,192,79469,1,0,0:0:0:0:
448,192,79469,1,0,0:0:0:0:
64,192,79641,1,0,0:0:0:0:
448,192,79641,1,0,0:0:0:0:
64,192,80504,128,0,83176:0:0:0:0:
192,192,80504,128,0,81883:0:0:0:0:
448,192,81883,128,0,82400:0:0:0:0:
320,192,82400,128,0,82917:0:0:0:0:
192,192,82917,128,0,83176:0:0:0:0:
64,192,83262,128,0,86021:0:0:0:0:
320,192,83262,128,0,83952:0:0:0:0:
192,192,83952,128,0,84124:0:0:0:0:
448,192,84124,128,0,84641:0:0:0:0:
320,192,84641,128,0,85331:0:0:0:0:
192,192,85331,128,0,85676:0:0:0:0:
320,192,85676,1,0,0:0:0:0:
320,192,85848,1,0,0:0:0:0:
192,192,85848,1,0,0:0:0:0:
192,192,86021,1,0,0:0:0:0:
320,192,86021,1,0,0:0:0:0:
448,192,86193,1,0,0:0:0:0:
320,192,86193,1,0,0:0:0:0:
320,192,86366,1,0,0:0:0:0:
192,192,86366,1,0,0:0:0:0:
192,192,86538,1,0,0:0:0:0:
64,192,86538,1,0,0:0:0:0:
448,192,86883,1,0,0:0:0:0:
320,192,86883,1,0,0:0:0:0:
320,192,87055,1,0,0:0:0:0:
192,192,87055,1,0,0:0:0:0:
192,192,87228,1,0,0:0:0:0:
64,192,87228,1,0,0:0:0:0:
64,192,87572,1,0,0:0:0:0:
192,192,87572,1,0,0:0:0:0:
192,192,87745,1,0,0:0:0:0:
320,192,87745,1,0,0:0:0:0:
320,192,87917,1,0,0:0:0:0:
448,192,87917,1,0,0:0:0:0:
64,192,88262,1,0,0:0:0:0:
192,192,88262,1,0,0:0:0:0:
192,192,88435,1,0,0:0:0:0:
320,192,88435,1,0,0:0:0:0:
192,192,88607,128,0,90159:0:0:0:0:
320,192,88607,128,0,89297:0:0:0:0:
448,192,89297,128,0,89641:0:0:0:0:
320,192,89641,128,0,89986:0:0:0:0:
64,192,89986,128,0,90159:0:0:0:0:
320,192,90159,5,0,0:0:0:0:
448,192,90331,1,0,0:0:0:0:
320,192,90504,1,0,0:0:0:0:
320,192,90676,1,0,0:0:0:0:
192,192,90848,1,0,0:0:0:0:
64,192,91021,1,0,0:0:0:0:
64,192,91193,5,0,0:0:0:0:
448,192,91193,1,0,0:0:0:0:
192,192,91366,128,0,96021:0:0:0:0:
320,192,91366,128,0,96021:0:0:0:0:
64,192,96366,1,0,0:0:0:0:
192,192,96366,1,0,0:0:0:0:
320,192,96366,1,0,0:0:0:0:
448,192,96366,1,0,0:0:0:0:
