osu file format v14

[General]
AudioFilename: Hoshi.mp3
AudioLeadIn: 0
PreviewTime: -1
Countdown: 1
SampleSet: Soft
StackLeniency: 0.7
Mode: 3
LetterboxInBreaks: 0
SpecialStyle: 0
WidescreenStoryboard: 1

[Editor]
Bookmarks: 11538,22572,33607,44641,50159,57055,72228,74986,80504
DistanceSpacing: 1
BeatDivisor: 8
GridSize: 32
TimelineZoom: 2.3

[Metadata]
Title:Hoshi Ori Yume Mirai
TitleUnicode:星織ユメミライ
Artist:Ceui
ArtistUnicode:Ceui
Creator:TvSize225
Version:Insane
Source:VN(Hoshi Ori Yume Mirai)
Tags:visual novel eroge tone work
BeatmapID:997419
BeatmapSetID:465960

[Difficulty]
HPDrainRate:8
CircleSize:4
OverallDifficulty:8
ApproachRate:5
SliderMultiplier:1.4
SliderTickRate:1

[Events]
//Background and Video events
Video,0,"Hoshi.avi"
0,0,"InsaneBG.jpg",0,0
//Break Periods
//Storyboard Layer 0 (Background)
//Storyboard Layer 1 (Fail)
//Storyboard Layer 2 (Pass)
//Storyboard Layer 3 (Foreground)
//Storyboard Sound Samples

[TimingPoints]
504,344.827586206897,4,2,0,30,1,0
58262,-100,4,2,0,30,0,1
80504,-100,4,2,0,30,0,0

[HitObjects]
320,192,504,128,0,1883:0:0:0:0:
64,192,504,1,0,0:0:0:0:
448,192,676,1,0,0:0:0:0:
192,192,848,1,0,0:0:0:0:
448,192,1021,128,0,1366:0:0:0:0:
64,192,1366,128,0,1710:0:0:0:0:
192,192,1710,128,0,1883:0:0:0:0:
64,192,1883,128,0,3262:0:0:0:0:
320,192,2055,1,0,0:0:0:0:
192,192,2228,1,0,0:0:0:0:
448,192,2400,128,0,2745:0:0:0:0:
192,192,2745,128,0,3090:0:0:0:0:
320,192,3090,128,0,3262:0:0:0:0:
192,192,3262,128,0,4641:0:0:0:0:
320,192,3435,1,0,0:0:0:0:
64,192,3607,1,0,0:0:0:0:
448,192,3779,128,0,4124:0:0:0:0:
64,192,4124,128,0,4469:0:0:0:0:
448,192,4469,128,0,4641:0:0:0:0:
320,192,4641,128,0,6021:0:0:0:0:
448,192,4814,1,0,0:0:0:0:
64,192,4986,1,0,0:0:0:0:
192,192,5159,1,0,0:0:0:0:
64,192,5331,128,0,5676:0:0:0:0:
448,192,5504,1,0,0:0:0:0:
192,192,5676,1,0,0:0:0:0:
448,192,5848,1,0,0:0:0:0:
64,192,6021,1,0,0:0:0:0:
192,192,6021,1,0,0:0:0:0:
64,192,6366,1,0,0:0:0:0:
320,192,6538,1,0,0:0:0:0:
448,192,6538,1,0,0:0:0:0:
64,192,6710,1,0,0:0:0:0:
64,192,7055,1,0,0:0:0:0:
192,192,7055,1,0,0:0:0:0:
64,192,7400,1,0,0:0:0:0:
192,192,7572,1,0,0:0:0:0:
320,192,7572,1,0,0:0:0:0:
64,192,7745,1,0,0:0:0:0:
64,192,8090,1,0,0:0:0:0:
192,192,8090,1,0,0:0:0:0:
64,192,8435,1,0,0:0:0:0:
320,192,8435,1,0,0:0:0:0:
192,192,8607,1,0,0:0:0:0:
64,192,8779,1,0,0:0:0:0:
192,192,8779,1,0,0:0:0:0:
64,192,9124,1,0,0:0:0:0:
448,192,9124,1,0,0:0:0:0:
320,192,9124,1,0,0:0:0:0:
320,192,9297,1,0,0:0:0:0:
192,192,9297,1,0,0:0:0:0:
64,192,9469,1,0,0:0:0:0:
192,192,9641,1,0,0:0:0:0:
64,192,9641,1,0,0:0:0:0:
64,192,9814,1,0,0:0:0:0:
64,192,9986,1,0,0:0:0:0:
448,192,9986,1,0,0:0:0:0:
64,192,10159,1,0,0:0:0:0:
192,192,10159,1,0,0:0:0:0:
320,192,10245,1,0,0:0:0:0:
448,192,10245,1,0,0:0:0:0:
64,192,10331,1,0,0:0:0:0:
192,192,10331,1,0,0:0:0:0:
320,192,10417,1,0,0:0:0:0:
448,192,10417,1,0,0:0:0:0:
64,192,10504,1,0,0:0:0:0:
192,192,10504,1,0,0:0:0:0:
448,192,10676,1,0,0:0:0:0:
64,192,10676,1,0,0:0:0:0:
192,192,10762,1,0,0:0:0:0:
320,192,10762,1,0,0:0:0:0:
64,192,10848,1,0,0:0:0:0:
448,192,10848,1,0,0:0:0:0:
192,192,10935,1,0,0:0:0:0:
320,192,10935,1,0,0:0:0:0:
64,192,11021,1,0,0:0:0:0:
448,192,11021,1,0,0:0:0:0:
64,192,11193,1,0,0:0:0:0:
320,192,11193,1,0,0:0:0:0:
192,192,11279,1,0,0:0:0:0:
448,192,11279,1,0,0:0:0:0:
64,192,11366,1,0,0:0:0:0:
320,192,11366,1,0,0:0:0:0:
192,192,11452,1,0,0:0:0:0:
448,192,11452,1,0,0:0:0:0:
320,192,11538,1,0,0:0:0:0:
64,192,11538,1,0,0:0:0:0:
448,192,11538,128,0,12572:0:0:0:0:
192,192,11710,1,0,0:0:0:0:
64,192,11883,1,0,0:0:0:0:
320,192,11883,1,0,0:0:0:0:
192,192,12055,1,0,0:0:0:0:
64,192,12228,1,0,0:0:0:0:
320,192,12228,1,0,0:0:0:0:
192,192,12400,1,0,0:0:0:0:
64,192,12572,128,0,12917:0:0:0:0:
320,192,12572,1,0,0:0:0:0:
192,192,12745,1,0,0:0:0:0:
448,192,12745,1,0,0:0:0:0:
448,192,12917,128,0,13435:0:0:0:0:
320,192,12917,1,0,0:0:0:0:
192,192,13090,1,0,0:0:0:0:
320,192,13262,1,0,0:0:0:0:
64,192,13262,1,0,0:0:0:0:
320,192,13435,128,0,13952:0:0:0:0:
192,192,13435,1,0,0:0:0:0:
64,192,13607,1,0,0:0:0:0:
448,192,13607,1,0,0:0:0:0:
192,192,13779,1,0,0:0:0:0:
192,192,13952,128,0,14297:0:0:0:0:
448,192,13952,1,0,0:0:0:0:
320,192,14124,1,0,0:0:0:0:
64,192,14297,128,0,14986:0:0:0:0:
448,192,14297,1,0,0:0:0:0:
320,192,14469,1,0,0:0:0:0:
192,192,14641,1,0,0:0:0:0:
448,192,14641,1,0,0:0:0:0:
320,192,14814,1,0,0:0:0:0:
192,192,14986,128,0,15159:0:0:0:0:
448,192,14986,1,0,0:0:0:0:
320,192,15159,128,0,15676:0:0:0:0:
64,192,15159,128,0,15676:0:0:0:0:
448,192,15159,1,0,0:0:0:0:
448,192,15331,1,0,0:0:0:0:
192,192,15590,1,0,0:0:0:0:
192,192,15676,128,0,16366:0:0:0:0:
448,192,15676,1,0,0:0:0:0:
448,192,16021,1,0,0:0:0:0:
320,192,16021,1,0,0:0:0:0:
64,192,16366,128,0,16710:0:0:0:0:
320,192,16366,1,0,0:0:0:0:
320,192,16538,128,0,16710:0:0:0:0:
448,192,16538,1,0,0:0:0:0:
192,192,16538,1,0,0:0:0:0:
448,192,16710,1,0,0:0:0:0:
192,192,16710,1,0,0:0:0:0:
64,192,16883,1,0,0:0:0:0:
192,192,16883,1,0,0:0:0:0:
320,192,16883,1,0,0:0:0:0:
448,192,16969,1,0,0:0:0:0:
192,192,16969,1,0,0:0:0:0:
64,192,16969,1,0,0:0:0:0:
320,192,17055,1,0,0:0:0:0:
64,192,17055,1,0,0:0:0:0:
448,192,17055,1,0,0:0:0:0:
320,192,17228,1,0,0:0:0:0:
448,192,17228,1,0,0:0:0:0:
192,192,17228,1,0,0:0:0:0:
320,192,17400,1,0,0:0:0:0:
448,192,17400,1,0,0:0:0:0:
64,192,17400,1,0,0:0:0:0:
64,192,17572,128,0,17745:0:0:0:0:
192,192,17572,128,0,17745:0:0:0:0:
448,192,17572,128,0,17745:0:0:0:0:
64,192,17917,1,0,0:0:0:0:
320,192,17917,1,0,0:0:0:0:
448,192,17917,1,0,0:0:0:0:
192,192,18090,1,0,0:0:0:0:
64,192,18090,1,0,0:0:0:0:
448,192,18090,1,0,0:0:0:0:
320,192,18262,128,0,18435:0:0:0:0:
192,192,18262,128,0,18435:0:0:0:0:
64,192,18262,128,0,18435:0:0:0:0:
320,192,18607,1,0,0:0:0:0:
192,192,18607,1,0,0:0:0:0:
64,192,18607,1,0,0:0:0:0:
64,192,18779,1,0,0:0:0:0:
192,192,18779,1,0,0:0:0:0:
448,192,18779,1,0,0:0:0:0:
192,192,18952,128,0,19124:0:0:0:0:
320,192,18952,128,0,19124:0:0:0:0:
448,192,18952,128,0,19124:0:0:0:0:
192,192,19297,1,0,0:0:0:0:
448,192,19297,1,0,0:0:0:0:
64,192,19297,1,0,0:0:0:0:
64,192,19469,1,0,0:0:0:0:
320,192,19469,1,0,0:0:0:0:
448,192,19469,1,0,0:0:0:0:
192,192,19641,128,0,21193:0:0:0:0:
64,192,19641,128,0,20331:0:0:0:0:
448,192,20331,128,0,20676:0:0:0:0:
320,192,20676,128,0,21021:0:0:0:0:
64,192,21021,1,0,0:0:0:0:
64,192,21193,1,0,0:0:0:0:
448,192,21366,1,0,0:0:0:0:
320,192,21538,1,0,0:0:0:0:
320,192,21710,1,0,0:0:0:0:
192,192,21883,1,0,0:0:0:0:
64,192,22055,1,0,0:0:0:0:
192,192,22228,1,0,0:0:0:0:
64,192,22400,1,0,0:0:0:0:
64,192,22572,1,0,0:0:0:0:
448,192,22917,128,0,23004:0:0:0:0:
64,192,22917,1,0,0:0:0:0:
448,192,23090,128,0,23176:0:0:0:0:
64,192,23090,1,0,0:0:0:0:
448,192,23262,128,0,23348:0:0:0:0:
64,192,23262,1,0,0:0:0:0:
192,192,23262,1,0,0:0:0:0:
320,192,23435,128,0,23521:0:0:0:0:
192,192,23435,1,0,0:0:0:0:
192,192,23607,128,0,23693:0:0:0:0:
64,192,23607,1,0,0:0:0:0:
448,192,23779,128,0,23952:0:0:0:0:
320,192,23779,1,0,0:0:0:0:
64,192,23952,1,0,0:0:0:0:
448,192,24124,128,0,24210:0:0:0:0:
320,192,24124,1,0,0:0:0:0:
320,192,24297,128,0,24383:0:0:0:0:
64,192,24297,1,0,0:0:0:0:
192,192,24297,1,0,0:0:0:0:
192,192,24469,128,0,24555:0:0:0:0:
64,192,24469,1,0,0:0:0:0:
64,192,24641,1,0,0:0:0:0:
320,192,24814,128,0,24900:0:0:0:0:
448,192,24814,1,0,0:0:0:0:
192,192,24986,128,0,25072:0:0:0:0:
64,192,24986,1,0,0:0:0:0:
320,192,25159,128,0,25245:0:0:0:0:
64,192,25159,1,0,0:0:0:0:
448,192,25331,128,0,25504:0:0:0:0:
64,192,25331,1,0,0:0:0:0:
192,192,25331,1,0,0:0:0:0:
320,192,25676,128,0,25762:0:0:0:0:
64,192,25676,1,0,0:0:0:0:
320,192,25848,128,0,26710:0:0:0:0:
64,192,25848,1,0,0:0:0:0:
64,192,26021,1,0,0:0:0:0:
192,192,26021,1,0,0:0:0:0:
448,192,26193,1,0,0:0:0:0:
64,192,26366,1,0,0:0:0:0:
192,192,26538,1,0,0:0:0:0:
64,192,26710,1,0,0:0:0:0:
64,192,26883,1,0,0:0:0:0:
64,192,27055,1,0,0:0:0:0:
192,192,27055,1,0,0:0:0:0:
320,192,27228,1,0,0:0:0:0:
448,192,27400,128,0,27486:0:0:0:0:
64,192,27400,1,0,0:0:0:0:
320,192,27572,128,0,27659:0:0:0:0:
448,192,27572,1,0,0:0:0:0:
192,192,27745,128,0,27831:0:0:0:0:
64,192,27745,1,0,0:0:0:0:
448,192,27917,128,0,28090:0:0:0:0:
64,192,28090,1,0,0:0:0:0:
192,192,28090,128,0,28435:0:0:0:0:
64,192,28435,1,0,0:0:0:0:
448,192,28779,128,0,28952:0:0:0:0:
64,192,28779,1,0,0:0:0:0:
192,192,28779,128,0,29124:0:0:0:0:
320,192,29124,128,0,29297:0:0:0:0:
64,192,29124,1,0,0:0:0:0:
192,192,29469,128,0,29814:0:0:0:0:
64,192,29469,1,0,0:0:0:0:
320,192,29469,128,0,29814:0:0:0:0:
64,192,29814,1,0,0:0:0:0:
64,192,29986,1,0,0:0:0:0:
192,192,30159,128,0,30504:0:0:0:0:
64,192,30159,1,0,0:0:0:0:
448,192,30331,128,0,30848:0:0:0:0:
64,192,30504,1,0,0:0:0:0:
64,192,30676,1,0,0:0:0:0:
192,192,30848,128,0,31710:0:0:0:0:
64,192,30848,1,0,0:0:0:0:
320,192,30848,128,0,31193:0:0:0:0:
64,192,31193,1,0,0:0:0:0:
64,192,31538,1,0,0:0:0:0:
320,192,31538,128,0,31883:0:0:0:0:
64,192,31710,128,0,31883:0:0:0:0:
192,192,31883,128,0,32055:0:0:0:0:
448,192,31883,1,0,0:0:0:0:
448,192,32055,128,0,32917:0:0:0:0:
64,192,32228,1,0,0:0:0:0:
320,192,32228,128,0,32572:0:0:0:0:
192,192,32314,1,0,0:0:0:0:
64,192,32400,1,0,0:0:0:0:
192,192,32486,1,0,0:0:0:0:
64,192,32572,1,0,0:0:0:0:
64,192,32745,1,0,0:0:0:0:
320,192,32745,128,0,33090:0:0:0:0:
192,192,32831,1,0,0:0:0:0:
64,192,32917,1,0,0:0:0:0:
192,192,33004,1,0,0:0:0:0:
64,192,33090,1,0,0:0:0:0:
448,192,33262,1,0,0:0:0:0:
320,192,33262,1,0,0:0:0:0:
192,192,33348,1,0,0:0:0:0:
64,192,33348,1,0,0:0:0:0:
448,192,33435,1,0,0:0:0:0:
320,192,33435,1,0,0:0:0:0:
192,192,33521,1,0,0:0:0:0:
64,192,33521,1,0,0:0:0:0:
448,192,33607,1,0,0:0:0:0:
320,192,33607,1,0,0:0:0:0:
320,192,33952,128,0,34038:0:0:0:0:
448,192,33952,1,0,0:0:0:0:
320,192,34124,128,0,34210:0:0:0:0:
320,192,34297,128,0,34383:0:0:0:0:
64,192,34297,1,0,0:0:0:0:
192,192,34469,128,0,34555:0:0:0:0:
64,192,34469,1,0,0:0:0:0:
64,192,34641,128,0,34728:0:0:0:0:
448,192,34641,1,0,0:0:0:0:
320,192,34814,128,0,34986:0:0:0:0:
64,192,34814,1,0,0:0:0:0:
192,192,34986,1,0,0:0:0:0:
64,192,35159,1,0,0:0:0:0:
192,192,35331,128,0,35417:0:0:0:0:
448,192,35331,1,0,0:0:0:0:
64,192,35504,128,0,35590:0:0:0:0:
320,192,35504,1,0,0:0:0:0:
64,192,35676,1,0,0:0:0:0:
192,192,35848,128,0,35935:0:0:0:0:
64,192,35848,1,0,0:0:0:0:
64,192,36021,128,0,36107:0:0:0:0:
448,192,36021,1,0,0:0:0:0:
192,192,36193,128,0,36279:0:0:0:0:
64,192,36193,1,0,0:0:0:0:
320,192,36366,128,0,36710:0:0:0:0:
64,192,36366,1,0,0:0:0:0:
448,192,36710,128,0,36797:0:0:0:0:
192,192,36710,1,0,0:0:0:0:
320,192,36883,128,0,36969:0:0:0:0:
192,192,36883,1,0,0:0:0:0:
64,192,37055,1,0,0:0:0:0:
192,192,37228,128,0,37314:0:0:0:0:
64,192,37228,1,0,0:0:0:0:
448,192,37400,1,0,0:0:0:0:
64,192,37572,128,0,38435:0:0:0:0:
192,192,37572,1,0,0:0:0:0:
192,192,37745,1,0,0:0:0:0:
448,192,37917,1,0,0:0:0:0:
448,192,38090,128,0,38435:0:0:0:0:
320,192,38090,1,0,0:0:0:0:
192,192,38262,1,0,0:0:0:0:
320,192,38435,128,0,38779:0:0:0:0:
192,192,38435,1,0,0:0:0:0:
192,192,38607,1,0,0:0:0:0:
192,192,38779,128,0,39124:0:0:0:0:
448,192,38779,128,0,39124:0:0:0:0:
64,192,38779,1,0,0:0:0:0:
320,192,39124,128,0,39210:0:0:0:0:
64,192,39124,128,0,39210:0:0:0:0:
192,192,39469,128,0,39555:0:0:0:0:
320,192,39469,128,0,39555:0:0:0:0:
448,192,39469,1,0,0:0:0:0:
64,192,39469,1,0,0:0:0:0:
320,192,39814,128,0,39900:0:0:0:0:
448,192,39814,128,0,39900:0:0:0:0:
64,192,39814,1,0,0:0:0:0:
64,192,39986,1,0,0:0:0:0:
320,192,40159,128,0,40245:0:0:0:0:
192,192,40159,128,0,40245:0:0:0:0:
64,192,40159,1,0,0:0:0:0:
448,192,40159,1,0,0:0:0:0:
64,192,40331,1,0,0:0:0:0:
64,192,40504,128,0,40590:0:0:0:0:
192,192,40504,128,0,40590:0:0:0:0:
320,192,40504,1,0,0:0:0:0:
448,192,40504,1,0,0:0:0:0:
64,192,40676,1,0,0:0:0:0:
192,192,40848,128,0,40935:0:0:0:0:
320,192,40848,128,0,40935:0:0:0:0:
448,192,40848,1,0,0:0:0:0:
192,192,41021,128,0,41107:0:0:0:0:
448,192,41021,128,0,41107:0:0:0:0:
64,192,41193,1,0,0:0:0:0:
64,192,41366,1,0,0:0:0:0:
448,192,41538,128,0,41624:0:0:0:0:
192,192,41538,1,0,0:0:0:0:
320,192,41538,1,0,0:0:0:0:
320,192,41710,128,0,42572:0:0:0:0:
192,192,41710,1,0,0:0:0:0:
64,192,41710,1,0,0:0:0:0:
448,192,42228,1,0,0:0:0:0:
192,192,42228,1,0,0:0:0:0:
64,192,42572,1,0,0:0:0:0:
64,192,42745,1,0,0:0:0:0:
448,192,42917,1,0,0:0:0:0:
192,192,43090,128,0,43176:0:0:0:0:
320,192,43090,128,0,43176:0:0:0:0:
320,192,43262,128,0,43348:0:0:0:0:
192,192,43262,128,0,43348:0:0:0:0:
448,192,43262,1,0,0:0:0:0:
64,192,43262,1,0,0:0:0:0:
64,192,43435,128,0,43521:0:0:0:0:
320,192,43435,128,0,43521:0:0:0:0:
192,192,43435,1,0,0:0:0:0:
448,192,43435,1,0,0:0:0:0:
192,192,43607,128,0,43693:0:0:0:0:
320,192,43607,128,0,43693:0:0:0:0:
448,192,43607,1,0,0:0:0:0:
64,192,43607,1,0,0:0:0:0:
192,192,43779,128,0,43866:0:0:0:0:
448,192,43779,128,0,43866:0:0:0:0:
320,192,43779,1,0,0:0:0:0:
64,192,43779,1,0,0:0:0:0:
64,192,43952,1,0,0:0:0:0:
448,192,43952,1,0,0:0:0:0:
448,192,44124,128,0,44641:0:0:0:0:
320,192,44124,128,0,44641:0:0:0:0:
64,192,44124,1,0,0:0:0:0:
192,192,44210,1,0,0:0:0:0:
64,192,44297,1,0,0:0:0:0:
64,192,44469,1,0,0:0:0:0:
64,192,44641,1,0,0:0:0:0:
192,192,44641,128,0,45331:0:0:0:0:
320,192,45331,128,0,45417:0:0:0:0:
448,192,45331,128,0,45848:0:0:0:0:
64,192,45331,1,0,0:0:0:0:
192,192,45504,128,0,45590:0:0:0:0:
64,192,45676,128,0,45762:0:0:0:0:
320,192,45676,1,0,0:0:0:0:
320,192,45848,128,0,45935:0:0:0:0:
64,192,45848,128,0,47400:0:0:0:0:
192,192,45848,1,0,0:0:0:0:
448,192,46193,128,0,46279:0:0:0:0:
320,192,46366,128,0,46452:0:0:0:0:
192,192,46366,1,0,0:0:0:0:
448,192,46710,1,0,0:0:0:0:
192,192,47055,128,0,47141:0:0:0:0:
320,192,47055,1,0,0:0:0:0:
320,192,47228,128,0,47314:0:0:0:0:
448,192,47400,128,0,47486:0:0:0:0:
192,192,47400,128,0,48090:0:0:0:0:
320,192,47400,1,0,0:0:0:0:
320,192,47745,128,0,47831:0:0:0:0:
320,192,47917,128,0,48004:0:0:0:0:
448,192,48090,1,0,0:0:0:0:
192,192,48262,128,0,48348:0:0:0:0:
320,192,48262,128,0,48435:0:0:0:0:
192,192,48435,128,0,48521:0:0:0:0:
448,192,48435,1,0,0:0:0:0:
64,192,48607,128,0,48693:0:0:0:0:
192,192,48607,128,0,48779:0:0:0:0:
320,192,48607,1,0,0:0:0:0:
192,192,48952,128,0,49038:0:0:0:0:
320,192,48952,128,0,49038:0:0:0:0:
64,192,48952,1,0,0:0:0:0:
320,192,49124,128,0,49210:0:0:0:0:
448,192,49124,128,0,49210:0:0:0:0:
192,192,49124,1,0,0:0:0:0:
64,192,49297,128,0,49383:0:0:0:0:
192,192,49297,128,0,49641:0:0:0:0:
448,192,49297,1,0,0:0:0:0:
64,192,49641,128,0,49986:0:0:0:0:
320,192,49641,1,0,0:0:0:0:
64,192,50159,128,0,50245:0:0:0:0:
192,192,50159,128,0,50245:0:0:0:0:
320,192,50159,1,0,0:0:0:0:
64,192,50331,128,0,50417:0:0:0:0:
320,192,50331,128,0,50417:0:0:0:0:
192,192,50504,128,0,50590:0:0:0:0:
448,192,50504,128,0,50590:0:0:0:0:
320,192,50504,1,0,0:0:0:0:
192,192,50676,128,0,50762:0:0:0:0:
320,192,50676,128,0,50762:0:0:0:0:
64,192,50848,1,0,0:0:0:0:
320,192,51021,128,0,51107:0:0:0:0:
192,192,51021,128,0,51107:0:0:0:0:
192,192,51193,128,0,51279:0:0:0:0:
448,192,51193,128,0,51279:0:0:0:0:
320,192,51366,128,0,51452:0:0:0:0:
192,192,51366,128,0,51452:0:0:0:0:
448,192,51366,1,0,0:0:0:0:
192,192,51710,128,0,51797:0:0:0:0:
448,192,51710,128,0,51797:0:0:0:0:
64,192,51883,128,0,51969:0:0:0:0:
320,192,51883,128,0,51969:0:0:0:0:
448,192,51883,1,0,0:0:0:0:
192,192,52055,128,0,52141:0:0:0:0:
64,192,52055,128,0,52141:0:0:0:0:
192,192,52228,1,0,0:0:0:0:
64,192,52400,128,0,52486:0:0:0:0:
192,192,52572,128,0,52659:0:0:0:0:
448,192,52572,1,0,0:0:0:0:
64,192,52745,128,0,52831:0:0:0:0:
448,192,52917,128,0,53262:0:0:0:0:
192,192,52917,1,0,0:0:0:0:
64,192,52917,1,0,0:0:0:0:
192,192,53090,1,0,0:0:0:0:
64,192,53090,1,0,0:0:0:0:
320,192,53262,128,0,53348:0:0:0:0:
192,192,53262,1,0,0:0:0:0:
64,192,53262,1,0,0:0:0:0:
320,192,53435,128,0,53952:0:0:0:0:
192,192,53607,1,0,0:0:0:0:
64,192,53607,1,0,0:0:0:0:
448,192,53779,128,0,53866:0:0:0:0:
192,192,53952,1,0,0:0:0:0:
64,192,53952,1,0,0:0:0:0:
320,192,54124,128,0,54210:0:0:0:0:
192,192,54297,1,0,0:0:0:0:
64,192,54297,1,0,0:0:0:0:
448,192,54469,128,0,54555:0:0:0:0:
192,192,54641,1,0,0:0:0:0:
64,192,54641,1,0,0:0:0:0:
448,192,54814,128,0,54900:0:0:0:0:
192,192,54986,1,0,0:0:0:0:
64,192,54986,1,0,0:0:0:0:
448,192,55159,128,0,55245:0:0:0:0:
192,192,55331,1,0,0:0:0:0:
64,192,55331,1,0,0:0:0:0:
320,192,55504,128,0,55590:0:0:0:0:
192,192,55504,128,0,55590:0:0:0:0:
64,192,55676,1,0,0:0:0:0:
192,192,55676,1,0,0:0:0:0:
320,192,55676,1,0,0:0:0:0:
448,192,55676,1,0,0:0:0:0:
448,192,55848,1,0,0:0:0:0:
320,192,55848,1,0,0:0:0:0:
192,192,55848,1,0,0:0:0:0:
64,192,55848,1,0,0:0:0:0:
64,192,56021,1,0,0:0:0:0:
192,192,56021,1,0,0:0:0:0:
320,192,56021,1,0,0:0:0:0:
448,192,56021,1,0,0:0:0:0:
448,192,56193,1,0,0:0:0:0:
320,192,56193,1,0,0:0:0:0:
192,192,56193,1,0,0:0:0:0:
64,192,56193,1,0,0:0:0:0:
64,192,56366,1,0,0:0:0:0:
192,192,56366,1,0,0:0:0:0:
320,192,56366,1,0,0:0:0:0:
448,192,56366,1,0,0:0:0:0:
448,192,56538,1,0,0:0:0:0:
320,192,56538,1,0,0:0:0:0:
64,192,56538,1,0,0:0:0:0:
192,192,56538,1,0,0:0:0:0:
64,192,56710,1,0,0:0:0:0:
192,192,56710,1,0,0:0:0:0:
320,192,56710,1,0,0:0:0:0:
448,192,56710,1,0,0:0:0:0:
64,192,57055,1,0,0:0:0:0:
192,192,57055,1,0,0:0:0:0:
320,192,57228,1,0,0:0:0:0:
448,192,57228,1,0,0:0:0:0:
320,192,57400,1,0,0:0:0:0:
448,192,57400,1,0,0:0:0:0:
64,192,57572,128,0,57659:0:0:0:0:
192,192,57572,1,0,0:0:0:0:
448,192,57745,128,0,57831:0:0:0:0:
64,192,57745,1,0,0:0:0:0:
192,192,57831,1,0,0:0:0:0:
320,192,57831,1,0,0:0:0:0:
320,192,57917,128,0,58004:0:0:0:0:
448,192,57917,1,0,0:0:0:0:
64,192,57917,1,0,0:0:0:0:
192,192,58004,1,0,0:0:0:0:
192,192,58090,128,0,58176:0:0:0:0:
448,192,58090,1,0,0:0:0:0:
64,192,58090,1,0,0:0:0:0:
320,192,58176,1,0,0:0:0:0:
320,192,58262,128,0,58348:0:0:0:0:
448,192,58262,1,0,0:0:0:0:
64,192,58262,1,0,0:0:0:0:
64,192,58435,1,0,0:0:0:0:
448,192,58435,1,0,0:0:0:0:
64,192,58607,1,0,0:0:0:0:
448,192,58607,1,0,0:0:0:0:
64,192,58779,1,0,0:0:0:0:
448,192,58779,1,0,0:0:0:0:
192,192,58952,1,0,0:0:0:0:
320,192,58952,1,0,0:0:0:0:
448,192,59038,1,0,0:0:0:0:
320,192,59081,1,0,0:0:0:0:
192,192,59124,1,0,0:0:0:0:
64,192,59124,1,0,0:0:0:0:
192,192,59297,1,0,0:0:0:0:
64,192,59297,1,0,0:0:0:0:
192,192,59469,1,0,0:0:0:0:
64,192,59469,1,0,0:0:0:0:
64,192,59641,1,0,0:0:0:0:
448,192,59641,1,0,0:0:0:0:
320,192,59728,1,0,0:0:0:0:
192,192,59728,1,0,0:0:0:0:
64,192,59814,1,0,0:0:0:0:
448,192,59814,1,0,0:0:0:0:
320,192,59986,1,0,0:0:0:0:
192,192,59986,1,0,0:0:0:0:
192,192,60159,1,0,0:0:0:0:
64,192,60159,1,0,0:0:0:0:
192,192,60331,1,0,0:0:0:0:
64,192,60331,1,0,0:0:0:0:
192,192,60417,1,0,0:0:0:0:
320,192,60460,1,0,0:0:0:0:
448,192,60504,1,0,0:0:0:0:
64,192,60504,1,0,0:0:0:0:
192,192,60676,1,0,0:0:0:0:
64,192,60676,1,0,0:0:0:0:
320,192,60762,1,0,0:0:0:0:
448,192,60762,1,0,0:0:0:0:
192,192,60848,1,0,0:0:0:0:
64,192,60848,1,0,0:0:0:0:
448,192,61021,1,0,0:0:0:0:
64,192,61021,1,0,0:0:0:0:
64,192,61193,128,0,61279:0:0:0:0:
192,192,61193,1,0,0:0:0:0:
320,192,61193,1,0,0:0:0:0:
192,192,61366,128,0,61452:0:0:0:0:
320,192,61538,128,0,61624:0:0:0:0:
448,192,61538,1,0,0:0:0:0:
64,192,61538,1,0,0:0:0:0:
448,192,61710,128,0,61797:0:0:0:0:
320,192,61710,1,0,0:0:0:0:
192,192,61710,1,0,0:0:0:0:
192,192,62055,128,0,62141:0:0:0:0:
64,192,62055,1,0,0:0:0:0:
448,192,62055,1,0,0:0:0:0:
320,192,62228,1,0,0:0:0:0:
192,192,62228,1,0,0:0:0:0:
320,192,62400,128,0,62486:0:0:0:0:
448,192,62400,1,0,0:0:0:0:
64,192,62400,1,0,0:0:0:0:
192,192,62745,128,0,62831:0:0:0:0:
320,192,62745,1,0,0:0:0:0:
448,192,62745,1,0,0:0:0:0:
320,192,62917,128,0,63004:0:0:0:0:
192,192,62917,1,0,0:0:0:0:
64,192,62917,1,0,0:0:0:0:
448,192,63090,128,0,63779:0:0:0:0:
192,192,63090,1,0,0:0:0:0:
320,192,63090,1,0,0:0:0:0:
320,192,63435,1,0,0:0:0:0:
64,192,63435,1,0,0:0:0:0:
192,192,63607,1,0,0:0:0:0:
320,192,63779,128,0,63866:0:0:0:0:
64,192,63779,1,0,0:0:0:0:
192,192,63952,128,0,64038:0:0:0:0:
64,192,63952,1,0,0:0:0:0:
320,192,64297,128,0,64383:0:0:0:0:
448,192,64297,1,0,0:0:0:0:
192,192,64297,1,0,0:0:0:0:
192,192,64469,128,0,64555:0:0:0:0:
320,192,64469,1,0,0:0:0:0:
448,192,64469,1,0,0:0:0:0:
320,192,64814,128,0,65159:0:0:0:0:
64,192,64814,1,0,0:0:0:0:
192,192,64814,1,0,0:0:0:0:
192,192,64986,1,0,0:0:0:0:
448,192,65159,128,0,65504:0:0:0:0:
64,192,65331,1,0,0:0:0:0:
320,192,65331,1,0,0:0:0:0:
192,192,65504,128,0,65590:0:0:0:0:
320,192,65504,1,0,0:0:0:0:
64,192,65504,1,0,0:0:0:0:
448,192,65676,128,0,65762:0:0:0:0:
192,192,65676,1,0,0:0:0:0:
320,192,65676,1,0,0:0:0:0:
320,192,65848,128,0,66193:0:0:0:0:
192,192,65848,1,0,0:0:0:0:
64,192,65848,1,0,0:0:0:0:
64,192,66193,1,0,0:0:0:0:
192,192,66193,1,0,0:0:0:0:
320,192,66366,1,0,0:0:0:0:
448,192,66366,1,0,0:0:0:0:
192,192,66538,128,0,66624:0:0:0:0:
320,192,66538,1,0,0:0:0:0:
64,192,66538,1,0,0:0:0:0:
448,192,66710,128,0,67055:0:0:0:0:
192,192,66710,1,0,0:0:0:0:
64,192,66710,1,0,0:0:0:0:
320,192,67055,128,0,67141:0:0:0:0:
192,192,67055,1,0,0:0:0:0:
64,192,67141,1,0,0:0:0:0:
320,192,67228,128,0,67314:0:0:0:0:
192,192,67228,1,0,0:0:0:0:
64,192,67314,1,0,0:0:0:0:
192,192,67400,1,0,0:0:0:0:
320,192,67486,1,0,0:0:0:0:
192,192,67572,128,0,67659:0:0:0:0:
448,192,67572,1,0,0:0:0:0:
64,192,67659,1,0,0:0:0:0:
320,192,67745,128,0,67831:0:0:0:0:
192,192,67745,1,0,0:0:0:0:
448,192,67831,1,0,0:0:0:0:
448,192,67917,128,0,68348:0:0:0:0:
192,192,67917,1,0,0:0:0:0:
64,192,67917,1,0,0:0:0:0:
320,192,68262,1,0,0:0:0:0:
64,192,68262,1,0,0:0:0:0:
320,192,68435,1,0,0:0:0:0:
64,192,68435,1,0,0:0:0:0:
192,192,68607,128,0,68693:0:0:0:0:
320,192,68607,1,0,0:0:0:0:
448,192,68779,128,0,68866:0:0:0:0:
64,192,68779,1,0,0:0:0:0:
192,192,68866,1,0,0:0:0:0:
320,192,68866,1,0,0:0:0:0:
320,192,68952,128,0,69038:0:0:0:0:
192,192,68952,1,0,0:0:0:0:
64,192,69038,1,0,0:0:0:0:
448,192,69038,1,0,0:0:0:0:
192,192,69124,128,0,69210:0:0:0:0:
448,192,69124,1,0,0:0:0:0:
64,192,69124,1,0,0:0:0:0:
320,192,69210,1,0,0:0:0:0:
320,192,69297,128,0,69383:0:0:0:0:
64,192,69297,1,0,0:0:0:0:
448,192,69297,1,0,0:0:0:0:
192,192,69641,128,0,69728:0:0:0:0:
64,192,69641,1,0,0:0:0:0:
448,192,69814,1,0,0:0:0:0:
320,192,69814,1,0,0:0:0:0:
64,192,69986,128,0,70072:0:0:0:0:
192,192,69986,1,0,0:0:0:0:
448,192,70159,128,0,70245:0:0:0:0:
192,192,70159,1,0,0:0:0:0:
64,192,70159,1,0,0:0:0:0:
320,192,70331,128,0,70417:0:0:0:0:
192,192,70331,1,0,0:0:0:0:
192,192,70504,128,0,70590:0:0:0:0:
64,192,70504,1,0,0:0:0:0:
448,192,70504,1,0,0:0:0:0:
320,192,70676,128,0,70935:0:0:0:0:
192,192,70676,1,0,0:0:0:0:
64,192,70676,1,0,0:0:0:0:
192,192,71021,128,0,71107:0:0:0:0:
64,192,71021,1,0,0:0:0:0:
192,192,71193,128,0,71452:0:0:0:0:
320,192,71193,1,0,0:0:0:0:
448,192,71193,1,0,0:0:0:0:
448,192,71366,1,0,0:0:0:0:
64,192,71366,1,0,0:0:0:0:
320,192,71409,1,0,0:0:0:0:
64,192,71452,1,0,0:0:0:0:
448,192,71452,1,0,0:0:0:0:
64,192,71710,1,0,0:0:0:0:
192,192,71710,1,0,0:0:0:0:
320,192,71883,128,0,71969:0:0:0:0:
448,192,71883,1,0,0:0:0:0:
192,192,71883,1,0,0:0:0:0:
64,192,72228,128,0,72314:0:0:0:0:
448,192,72228,1,0,0:0:0:0:
192,192,72400,128,0,72486:0:0:0:0:
320,192,72400,1,0,0:0:0:0:
320,192,72572,128,0,72659:0:0:0:0:
192,192,72572,1,0,0:0:0:0:
448,192,72745,128,0,73090:0:0:0:0:
320,192,72745,1,0,0:0:0:0:
64,192,72745,1,0,0:0:0:0:
192,192,72831,1,0,0:0:0:0:
64,192,72917,1,0,0:0:0:0:
320,192,72917,1,0,0:0:0:0:
192,192,73090,128,0,73435:0:0:0:0:
320,192,73090,1,0,0:0:0:0:
64,192,73090,1,0,0:0:0:0:
64,192,73262,1,0,0:0:0:0:
320,192,73262,1,0,0:0:0:0:
320,192,73435,128,0,73779:0:0:0:0:
64,192,73435,1,0,0:0:0:0:
448,192,73435,1,0,0:0:0:0:
192,192,73779,128,0,74124:0:0:0:0:
448,192,73779,1,0,0:0:0:0:
64,192,73779,1,0,0:0:0:0:
448,192,73952,1,0,0:0:0:0:
320,192,73952,1,0,0:0:0:0:
320,192,74124,128,0,74469:0:0:0:0:
64,192,74124,1,0,0:0:0:0:
448,192,74124,1,0,0:0:0:0:
448,192,74469,128,0,74641:0:0:0:0:
64,192,74469,1,0,0:0:0:0:
192,192,74469,128,0,74986:0:0:0:0:
320,192,74814,128,0,74900:0:0:0:0:
448,192,74986,128,0,75331:0:0:0:0:
64,192,74986,128,0,76193:0:0:0:0:
320,192,75331,128,0,75417:0:0:0:0:
320,192,75504,128,0,75590:0:0:0:0:
192,192,75848,128,0,75935:0:0:0:0:
192,192,76193,128,0,76279:0:0:0:0:
448,192,76193,128,0,76538:0:0:0:0:
64,192,76538,128,0,76624:0:0:0:0:
192,192,76538,128,0,76710:0:0:0:0:
320,192,76710,128,0,76797:0:0:0:0:
448,192,76710,128,0,76883:0:0:0:0:
192,192,76883,128,0,76969:0:0:0:0:
320,192,76883,128,0,77055:0:0:0:0:
192,192,77228,128,0,77659:0:0:0:0:
64,192,77228,128,0,77659:0:0:0:0:
64,192,77745,128,0,78090:0:0:0:0:
320,192,77745,1,0,0:0:0:0:
448,192,77745,1,0,0:0:0:0:
320,192,77917,1,0,0:0:0:0:
448,192,77917,1,0,0:0:0:0:
192,192,78090,128,0,78435:0:0:0:0:
320,192,78090,1,0,0:0:0:0:
448,192,78090,1,0,0:0:0:0:
320,192,78262,1,0,0:0:0:0:
448,192,78262,1,0,0:0:0:0:
320,192,78435,128,0,78779:0:0:0:0:
448,192,78435,1,0,0:0:0:0:
64,192,78435,1,0,0:0:0:0:
64,192,78607,1,0,0:0:0:0:
192,192,78607,1,0,0:0:0:0:
448,192,78607,1,0,0:0:0:0:
448,192,78779,128,0,79124:0:0:0:0:
192,192,78779,1,0,0:0:0:0:
64,192,78779,1,0,0:0:0:0:
320,192,78952,1,0,0:0:0:0:
192,192,78952,1,0,0:0:0:0:
64,192,78952,1,0,0:0:0:0:
320,192,79124,128,0,79469:0:0:0:0:
192,192,79124,1,0,0:0:0:0:
64,192,79124,1,0,0:0:0:0:
448,192,79210,1,0,0:0:0:0:
192,192,79297,1,0,0:0:0:0:
64,192,79297,1,0,0:0:0:0:
448,192,79383,1,0,0:0:0:0:
192,192,79469,128,0,79641:0:0:0:0:
64,192,79469,1,0,0:0:0:0:
320,192,79555,1,0,0:0:0:0:
448,192,79555,1,0,0:0:0:0:
64,192,79641,128,0,79728:0:0:0:0:
320,192,79641,1,0,0:0:0:0:
448,192,79641,1,0,0:0:0:0:
320,192,79728,1,0,0:0:0:0:
448,192,79728,1,0,0:0:0:0:
192,192,79986,128,0,80331:0:0:0:0:
320,192,80331,128,0,80676:0:0:0:0:
64,192,80504,1,0,0:0:0:0:
448,192,80676,128,0,80848:0:0:0:0:
192,192,80848,128,0,83262:0:0:0:0:
64,192,80848,1,0,0:0:0:0:
320,192,80848,1,0,0:0:0:0:
64,192,81193,1,0,0:0:0:0:
64,192,81366,1,0,0:0:0:0:
320,192,81538,1,0,0:0:0:0:
448,192,81538,1,0,0:0:0:0:
64,192,81710,1,0,0:0:0:0:
448,192,81883,1,0,0:0:0:0:
320,192,81883,128,0,81969:0:0:0:0:
64,192,82055,1,0,0:0:0:0:
320,192,82228,1,0,0:0:0:0:
448,192,82228,1,0,0:0:0:0:
64,192,82400,128,0,82486:0:0:0:0:
320,192,82529,1,0,0:0:0:0:
64,192,82572,1,0,0:0:0:0:
64,192,82745,1,0,0:0:0:0:
320,192,82917,1,0,0:0:0:0:
448,192,82917,128,0,83004:0:0:0:0:
64,192,83090,1,0,0:0:0:0:
64,192,83262,1,0,0:0:0:0:
320,192,83262,128,0,83952:0:0:0:0:
448,192,83607,1,0,0:0:0:0:
192,192,83607,1,0,0:0:0:0:
192,192,83952,1,0,0:0:0:0:
64,192,83952,128,0,84038:0:0:0:0:
64,192,84124,1,0,0:0:0:0:
448,192,84124,128,0,84641:0:0:0:0:
320,192,84297,1,0,0:0:0:0:
192,192,84297,1,0,0:0:0:0:
64,192,84641,1,0,0:0:0:0:
192,192,84641,128,0,85331:0:0:0:0:
64,192,84814,1,0,0:0:0:0:
320,192,84986,1,0,0:0:0:0:
448,192,84986,1,0,0:0:0:0:
320,192,85331,1,0,0:0:0:0:
64,192,85331,128,0,85848:0:0:0:0:
320,192,85504,1,0,0:0:0:0:
448,192,85504,1,0,0:0:0:0:
320,192,85676,1,0,0:0:0:0:
448,192,85676,1,0,0:0:0:0:
192,192,85848,128,0,85935:0:0:0:0:
320,192,85935,128,0,86021:0:0:0:0:
64,192,86021,128,0,86193:0:0:0:0:
448,192,86021,128,0,86193:0:0:0:0:
320,192,86193,128,0,86366:0:0:0:0:
192,192,86193,128,0,86366:0:0:0:0:
64,192,86366,128,0,86538:0:0:0:0:
448,192,86366,128,0,86538:0:0:0:0:
192,192,86538,128,0,86883:0:0:0:0:
320,192,86538,128,0,86883:0:0:0:0:
448,192,86883,128,0,87055:0:0:0:0:
320,192,87055,128,0,87228:0:0:0:0:
192,192,87055,128,0,87228:0:0:0:0:
64,192,87228,128,0,87572:0:0:0:0:
192,192,87572,128,0,87745:0:0:0:0:
320,192,87745,128,0,87917:0:0:0:0:
448,192,87917,128,0,88262:0:0:0:0:
192,192,88262,128,0,88435:0:0:0:0:
320,192,88435,128,0,88607:0:0:0:0:
448,192,88607,128,0,90159:0:0:0:0:
64,192,88779,1,0,0:0:0:0:
192,192,88779,1,0,0:0:0:0:
64,192,88952,1,0,0:0:0:0:
192,192,88952,1,0,0:0:0:0:
320,192,89124,1,0,0:0:0:0:
192,192,89124,1,0,0:0:0:0:
320,192,89297,128,0,89641:0:0:0:0:
192,192,89297,1,0,0:0:0:0:
64,192,89297,1,0,0:0:0:0:
64,192,89469,1,0,0:0:0:0:
192,192,89555,1,0,0:0:0:0:
192,192,89641,128,0,89986:0:0:0:0:
64,192,89641,1,0,0:0:0:0:
64,192,89814,1,0,0:0:0:0:
320,192,89814,1,0,0:0:0:0:
64,192,89986,128,0,90072:0:0:0:0:
320,192,89986,1,0,0:0:0:0:
64,192,90159,1,0,0:0:0:0:
448,192,90331,1,0,0:0:0:0:
320,192,90504,1,0,0:0:0:0:
320,192,90676,1,0,0:0:0:0:
192,192,90848,1,0,0:0:0:0:
64,192,91021,1,0,0:0:0:0:
448,192,91193,1,0,0:0:0:0:
64,192,91193,1,0,0:0:0:0:
192,192,91366,128,0,96193:0:0:0:0:
320,192,92572,1,0,0:0:0:0:
448,192,92659,1,0,0:0:0:0:
320,192,92745,1,0,0:0:0:0:
448,192,92831,1,0,0:0:0:0:
320,192,92917,1,0,0:0:0:0:
448,192,93004,1,0,0:0:0:0:
320,192,93090,1,0,0:0:0:0:
448,192,93176,1,0,0:0:0:0:
320,192,93262,1,0,0:0:0:0:
448,192,93348,1,0,0:0:0:0:
320,192,93435,1,0,0:0:0:0:
448,192,93521,1,0,0:0:0:0:
320,192,93607,1,0,0:0:0:0:
448,192,93693,1,0,0:0:0:0:
320,192,93779,1,0,0:0:0:0:
448,192,93866,1,0,0:0:0:0:
320,192,93952,1,0,0:0:0:0:
448,192,94038,1,0,0:0:0:0:
320,192,94124,1,0,0:0:0:0:
448,192,94210,1,0,0:0:0:0:
320,192,94297,1,0,0:0:0:0:
448,192,94383,1,0,0:0:0:0:
320,192,94469,1,0,0:0:0:0:
448,192,94555,1,0,0:0:0:0:
320,192,94641,1,0,0:0:0:0:
448,192,94728,1,0,0:0:0:0:
320,192,94814,1,0,0:0:0:0:
448,192,94900,1,0,0:0:0:0:
320,192,94986,1,0,0:0:0:0:
448,192,95072,1,0,0:0:0:0:
320,192,95159,1,0,0:0:0:0:
448,192,95245,1,0,0:0:0:0:
320,192,95331,1,0,0:0:0:0:
448,192,95417,1,0,0:0:0:0:
320,192,95504,1,0,0:0:0:0:
448,192,95590,1,0,0:0:0:0:
320,192,95676,1,0,0:0:0:0:
448,192,95762,1,0,0:0:0:0:
320,192,95848,1,0,0:0:0:0:
448,192,95935,128,0,96193:0:0:0:0:
320,192,96193,1,0,0:0:0:0:
64,192,96251,1,0,0:0:0:0:
320,192,96308,1,0,0:0:0:0:
448,192,96366,1,0,0:0:0:0:
320,192,96409,1,0,0:0:0:0:
192,192,96452,1,0,0:0:0:0:
64,192,96495,1,0,0:0:0:0:
320,192,96538,1,0,0:0:0:0:
448,192,96538,1,0,0:0:0:0:
