osu file format v14

[General]
AudioFilename: audio.mp3
AudioLeadIn: 0
PreviewTime: 57443
Countdown: 0
SampleSet: Soft
StackLeniency: 0.5
Mode: 0
LetterboxInBreaks: 0
WidescreenStoryboard: 1

[Editor]
DistanceSpacing: 1.1
BeatDivisor: 4
GridSize: 8
TimelineZoom: 1.7

[Metadata]
Title:Hoshi Ori Yume Mirai
TitleUnicode:星織ユメミライ
Artist:Ceui
ArtistUnicode:Ceui
Creator:Illyasviel
Version:Starlit Dreams
Source:星織ユメミライ
Tags:eroge opening dored irya [xv] log off now eiri- ayyri lafayla ocean girl sunset smile akitoshi -laura- Star Weaving Dreaming of the Future narusawa rikka hino ryousuke tone work's galgame hazu- japanese visual novel vn video game
BeatmapID:2093708
BeatmapSetID:1000344

[Difficulty]
HPDrainRate:5.5
CircleSize:4.2
OverallDifficulty:9
ApproachRate:9.3
SliderMultiplier:1.75
SliderTickRate:1

[Events]
//Background and Video events
0,0,"00000.jpg",0,0
//Break Periods
//Storyboard Layer 0 (Background)
//Storyboard Layer 1 (Fail)
//Storyboard Layer 2 (Pass)
//Storyboard Layer 3 (Foreground)
//Storyboard Layer 4 (Overlay)
//Storyboard Sound Samples

[TimingPoints]
375,344.827586206897,4,2,1,45,1,0
375,-117.647058823529,4,2,1,45,0,0
11409,-100,4,2,1,55,0,0
14081,-100,4,2,1,5,0,0
14168,-100,4,2,1,55,0,0
15461,-100,4,2,1,5,0,0
15547,-100,4,2,1,55,0,0
21064,-100,4,2,1,53,0,0
21409,-105.263157894737,4,2,1,51,0,0
21754,-111.111111111111,4,2,1,49,0,0
22099,-117.647058823529,4,2,1,47,0,0
22443,-125,4,2,1,45,0,0
33478,-100,4,2,1,50,0,0
36495,-100,4,2,1,5,0,0
36581,-100,4,2,1,50,0,0
39254,-100,4,2,1,5,0,0
39340,-100,4,2,1,50,0,0
41840,-100,4,2,1,5,0,0
41926,-100,4,2,1,50,0,0
44512,-111.111111111111,4,2,1,50,0,0
47530,-111.111111111111,4,2,1,5,0,0
47616,-111.111111111111,4,2,1,50,0,0
48478,-133.333333333333,4,2,1,50,0,0
48737,-133.333333333333,4,2,1,5,0,0
48823,-133.333333333333,4,2,1,50,0,0
48995,-83.3333333333333,4,2,1,50,0,0
49512,-181.818181818182,4,2,1,50,0,0
50030,-111.111111111111,4,2,1,50,0,0
51495,-111.111111111111,4,2,1,5,0,0
51581,-111.111111111111,4,2,1,50,0,0
52788,-100,4,2,1,50,0,0
53047,-100,4,2,1,5,0,0
53133,-100,4,2,1,50,0,0
58133,-86.9565217391304,4,2,1,60,0,1
58392,-86.9565217391304,4,2,1,5,0,1
58478,-86.9565217391304,4,2,1,60,0,1
60719,-181.818181818181,4,2,1,60,0,1
60978,-133.333333333333,4,2,1,5,0,1
61064,-86.9565217391304,4,2,1,60,0,1
61840,-86.9565217391304,4,2,1,5,0,1
61926,-86.9565217391304,4,2,1,60,0,1
62530,-86.9565217391304,4,2,1,5,0,1
62616,-86.9565217391304,4,2,1,60,0,1
63823,-86.9565217391304,4,2,1,60,0,1
65978,-86.9565217391304,4,2,1,5,0,1
66064,-86.9565217391304,4,2,1,60,0,1
66840,-86.9565217391304,4,2,1,5,0,1
66926,-86.9565217391304,4,2,1,60,0,1
68047,-86.9565217391304,4,2,1,5,0,1
68133,-86.9565217391304,4,2,1,60,0,1
68823,-74.0740740740741,4,2,1,60,0,1
69168,-86.9565217391304,4,2,1,60,0,1
69426,-86.9565217391304,4,2,1,5,0,1
69512,-86.9565217391304,4,2,1,60,0,1
70806,-86.9565217391304,4,2,1,5,0,1
70892,-86.9565217391304,4,2,1,60,0,1
73306,-68.9655172413793,4,2,1,60,0,1
73564,-68.9655172413793,4,2,1,5,0,1
73650,-68.9655172413793,4,2,1,60,0,1
73995,-54.054054054054,4,2,1,60,0,1
74254,-54.054054054054,4,2,1,5,0,1
74340,-44.4444444444445,4,2,1,60,0,1
74599,-44.4444444444445,4,2,1,5,0,1
74685,-44.4444444444445,4,2,1,60,0,1
74857,-100,4,2,1,60,0,1
76323,-100,4,2,1,5,0,1
76409,-100,4,2,1,60,0,1
77616,-100,4,2,1,60,0,1
79943,-100,4,2,1,5,0,1
80030,-100,4,2,1,60,0,1
80116,-100,4,2,1,5,0,1
80202,-125,4,2,1,55,0,0
85892,-86.9565217391304,4,2,1,60,0,1
86150,-86.9565217391304,4,2,1,5,0,1
86237,-86.9565217391304,4,2,1,60,0,1
88650,-86.9565217391304,4,2,1,50,0,1
88995,-86.9565217391304,4,2,1,55,0,1
89340,-86.9565217391304,4,2,1,60,0,1
89685,-86.9565217391304,4,2,1,65,0,1
90892,-86.9565217391304,4,2,1,60,0,1
91409,-86.9565217391304,4,2,1,60,0,0
94081,-86.9565217391304,4,2,1,5,0,0
94168,-86.9565217391304,4,2,1,60,0,0
101150,-86.9565217391304,4,2,1,5,0,0
101237,-86.9565217391304,4,2,1,60,0,0
107961,-86.9565217391304,4,2,1,55,0,0
113478,-117.647058823529,4,2,1,48,0,0

[Colours]
Combo1 : 242,161,114
Combo2 : 56,32,140
Combo3 : 86,57,191
Combo4 : 54,44,89
Combo5 : 85,166,217

[HitObjects]
408,95,375,6,0,L|333:98,1,74.3750014185906,2|2,3:2|0:0,0:0:0:0:
234,66,719,2,0,P|242:101|236:138,1,74.3750014185906,10|2,0:1|0:0,0:0:0:0:
84,107,1064,5,8,0:1:0:0:
159,103,1236,1,2,0:0:0:0:
129,251,1408,5,8,0:1:0:0:
125,176,1580,1,2,0:0:0:0:
98,323,1754,6,0,P|135:329|171:320,1,74.3750014185906,10|2,0:1|0:0,0:0:0:0:
250,275,2099,2,0,L|254:350,1,74.3750014185906,10|2,0:1|0:0,0:0:0:0:
404,307,2443,5,8,0:1:0:0:
329,311,2615,1,0,0:0:0:0:
355,163,2788,5,8,0:1:0:0:
359,238,2960,1,2,3:2:0:0:
388,90,3133,6,0,P|351:83|316:93,1,74.3750014185906,2|2,3:2|0:0,0:0:0:0:
226,128,3478,2,0,L|230:53,1,74.3750014185906,10|2,0:1|0:0,0:0:0:0:
73,77,3823,5,8,0:1:0:0:
148,81,3995,1,2,0:0:0:0:
104,228,4168,5,8,0:1:0:0:
108,153,4340,1,2,0:0:0:0:
137,301,4512,6,0,P|100:307|64:298,2,74.3750014185906,10|2|10,0:1|0:0|0:1,0:0:0:0:
270,191,5030,5,2,0:0:0:0:
311,317,5202,1,10,0:1:0:0:
203,239,5375,1,2,0:0:0:0:
336,239,5547,1,8,0:1:0:0:
229,317,5719,1,2,0:0:0:0:
400,295,5892,6,0,B|427:256|427:256|418:150,1,148.750002837181,2|8,3:2|0:1,0:0:0:0:
485,82,6409,2,0,B|446:55|446:55|340:64,1,148.750002837181,2|0,0:0|0:0,0:0:0:0:
276,0,6926,2,0,B|249:39|249:39|258:145,1,148.750002837181,10|8,0:1|0:1,0:0:0:0:
336,239,7443,6,0,P|261:224|191:245,1,148.750002837181,2|0,0:0|0:0,0:0:0:0:
229,312,7961,2,0,P|264:302|301:310,1,74.3750014185906,10|0,0:1|0:0,0:0:0:0:
268,384,8306,1,10,0:1:0:0:
193,243,8478,1,0,3:2:0:0:
56,362,8650,6,0,L|52:287,1,74.3750014185906,2|0,3:2|0:0,0:0:0:0:
46,125,8995,1,10,0:1:0:0:
13,205,9168,2,0,P|50:211|86:202,1,74.3750014185906,2|8,0:0|0:1,0:0:0:0:
233,170,9512,2,0,P|197:161|161:168,1,74.3750014185906,2|8,0:0|0:1,0:0:0:0:
193,243,9857,1,2,0:0:0:0:
286,334,10030,6,0,L|284:296,1,37.1875007092953,0|0,3:0|3:0,0:0:0:0:
351,270,10202,5,0,3:2:0:0:
352,307,10288,1,0,3:2:0:0:
354,344,10374,1,10,0:0:0:0:
444,323,10547,6,0,L|442:285,1,37.1875007092953,10|8,0:3|0:3,0:0:0:0:
509,259,10719,5,8,0:0:0:0:
510,296,10805,1,8,0:0:0:0:
512,333,10891,1,10,0:0:0:0:
392,180,11064,5,10,0:3:0:0:
428,178,11150,1,10,0:0:0:0:
461,160,11236,1,10,0:0:0:0:
481,130,11322,1,10,0:0:0:0:
487,94,11409,6,0,B|437:65|437:65|320:71,1,175,6|8,3:2|0:0,0:0:0:0:
134,83,11926,1,0,0:0:0:0:
227,216,12099,2,0,L|222:128,1,87.5,0|0,3:2|3:2,0:0:0:0:
143,261,12443,1,10,0:0:0:0:
314,211,12616,1,2,0:0:0:0:
80,187,12788,6,0,B|50:236|50:236|56:354,1,175,2|8,3:2|0:0,0:0:0:0:
231,303,13306,1,2,0:0:0:0:
80,187,13478,1,0,3:0:0:0:
150,375,13650,1,0,3:0:0:0:
317,251,13823,2,0,P|382:230|445:255,1,131.25,10|0,0:0|0:0,0:0:0:0:
452,328,14168,6,0,B|481:278|481:278|475:161,1,175,2|8,3:2|0:0,0:0:0:0:
372,38,14685,1,0,3:0:0:0:
379,203,14857,1,2,3:2:0:0:
468,61,15030,1,2,3:2:0:0:
330,133,15202,2,0,P|265:154|202:129,1,131.25,8|0,0:0|0:0,0:0:0:0:
137,54,15547,6,0,B|171:100|171:100|177:217,1,175,2|14,3:2|0:0,0:0:0:0:
21,342,16064,1,0,3:0:0:0:
86,138,16237,1,2,3:2:0:0:
168,338,16409,1,2,3:2:0:0:
1,225,16581,1,14,0:0:0:0:
184,226,16754,1,2,3:2:0:0:
184,226,16840,1,2,0:0:0:0:
184,226,16926,6,0,L|272:221,1,87.5,2|2,3:2|0:0,0:0:0:0:
424,217,17271,1,10,0:0:0:0:
187,84,17443,6,0,L|265:123,1,87.5,2|0,3:2|0:0,0:0:0:0:
424,217,17788,1,2,3:2:0:0:
271,221,17961,1,10,0:0:0:0:
496,74,18133,6,0,L|421:119,1,87.5,2|0,3:2|0:0,0:0:0:0:
271,221,18478,1,2,3:2:0:0:
424,217,18650,1,10,0:0:0:0:
335,8,18823,6,0,L|340:96,1,87.5,2|0,0:0|3:0,0:0:0:0:
354,334,19168,1,2,3:2:0:0:
420,119,19340,1,10,0:0:0:0:
271,221,19512,6,0,B|225:255|225:255|108:261,1,175,6|8,3:2|0:0,0:0:0:0:
124,4,20030,1,8,0:3:0:0:
271,221,20202,1,2,3:2:0:0:
26,138,20375,1,8,0:0:0:0:
26,138,20461,1,8,0:0:0:0:
26,138,20547,1,10,0:0:0:0:
275,57,20719,1,8,0:0:0:0:
115,268,20892,1,2,3:2:0:0:
115,268,20978,1,0,3:2:0:0:
115,268,21064,5,14,0:0:0:0:
115,170,21236,1,2,0:0:0:0:
209,139,21409,1,2,0:0:0:0:
265,218,21581,1,2,0:0:0:0:
209,299,21754,1,2,0:0:0:0:
115,268,21926,1,2,0:0:0:0:
115,170,22099,1,2,0:0:0:0:
209,139,22271,1,2,0:0:0:0:
265,218,22443,5,2,0:0:0:0:
265,218,22788,2,0,L|335:214,1,70,10|0,0:1|0:0,0:0:0:0:
402,127,23133,2,0,L|332:131,1,70,2|0,0:0|0:0,0:0:0:0:
265,218,23478,1,10,0:1:0:0:
467,192,23650,6,0,P|483:124|462:58,1,140,2|0,0:0|0:0,0:0:0:0:
328,61,24168,1,10,0:1:0:0:
402,127,24340,1,2,0:0:0:0:
402,127,24685,1,2,0:0:0:0:
394,1,24857,1,10,0:1:0:0:
462,58,25030,1,0,3:2:0:0:
321,137,25202,6,0,P|253:153|187:132,1,140,2|8,3:2|0:1,0:0:0:0:
98,65,25719,2,0,L|102:135,1,70,2|0,0:0|0:0,0:0:0:0:
187,132,26064,1,2,0:0:0:0:
98,65,26237,1,8,0:1:0:0:
20,139,26409,6,0,L|27:278,1,140,2|0,0:0|0:0,0:0:0:0:
114,376,26926,1,10,0:1:0:0:
114,376,27271,5,2,0:0:0:0:
194,373,27443,1,2,0:0:0:0:
148,232,27616,5,10,0:1:0:0:
149,308,27788,1,2,0:0:0:0:
286,334,27961,6,0,L|279:195,1,140,2|8,3:2|0:1,0:0:0:0:
278,194,28650,2,0,L|348:190,1,70,2|0,0:0|0:0,0:0:0:0:
415,90,28995,2,0,L|345:94,1,70,10|0,0:1|0:0,0:0:0:0:
489,155,29340,6,0,P|505:87|484:21,1,140,2|8,0:0|0:1,0:0:0:0:
484,21,30030,2,0,P|505:87|489:155,1,140,2|8,0:0|0:1,0:0:0:0:
275,97,30547,1,0,3:2:0:0:
275,97,30719,6,0,L|414:90,2,140,2|8|2,3:2|0:1|0:0,0:0:0:0:
160,102,31581,1,0,0:0:0:0:
218,168,31754,1,10,0:1:0:0:
214,33,31926,1,0,0:0:0:0:
113,173,32099,5,10,3:0:0:0:
282,104,32271,1,0,3:2:0:0:
282,104,32357,1,0,3:2:0:0:
282,104,32443,1,10,3:0:0:0:
52,106,32616,2,0,P|31:171|46:239,1,140,10|10,0:0|0:0,0:0:0:0:
181,279,33133,5,8,0:3:0:0:
214,269,33219,1,8,0:3:0:0:
236,242,33306,1,8,0:0:0:0:
235,206,33391,1,8,0:0:0:0:
218,168,33478,6,0,B|188:217|188:217|195:334,1,175,6|10,3:2|0:0,0:0:0:0:
425,231,33995,1,2,0:0:0:0:
328,324,34168,2,0,L|323:236,1,87.5,2|0,3:2|3:2,0:0:0:0:
312,60,34512,1,10,0:0:0:0:
150,125,34685,6,0,B|200:154|200:154|317:148,1,175,2|0,3:2|3:2,0:0:0:0:
488,139,35202,1,10,0:0:0:0:
396,8,35375,2,0,L|401:96,1,87.5,2|0,0:0|3:2,0:0:0:0:
409,233,35719,1,2,3:2:0:0:
312,60,35892,1,10,0:0:0:0:
488,139,36064,1,0,3:2:0:0:
323,236,36237,6,0,B|277:270|277:270|188:274,1,131.25,2|0,3:2|0:0,0:0:0:0:
158,275,36581,1,10,0:0:0:0:
103,101,36754,2,0,P|145:87|187:93,1,87.5,2|0,0:0|3:2,0:0:0:0:
158,275,37099,2,0,L|153:187,1,87.5,2|8,3:2|0:0,0:0:0:0:
77,339,37443,6,0,B|127:368|127:368|244:362,1,175,2|0,3:2|3:2,0:0:0:0:
449,348,37961,5,10,0:0:0:0:
457,265,38134,1,0,3:0:0:0:
295,295,38306,5,2,3:2:0:0:
378,302,38479,1,8,3:2:0:0:
351,147,38650,5,10,0:0:0:0:
343,230,38823,1,0,3:2:0:0:
427,95,38995,6,0,B|377:65|377:65|285:69,1,131.25,6|0,3:2|0:0,0:0:0:0:
263,84,39340,2,0,P|221:98|179:91,1,87.5,10|0,0:0|0:0,0:0:0:0:
0,26,39685,2,0,P|42:12|84:19,1,87.5,2|0,3:2|3:2,0:0:0:0:
174,178,40030,2,0,L|179:90,1,87.5,10|0,0:0|3:2,0:0:0:0:
48,90,40375,6,0,L|53:178,1,87.5,2|0,3:2|3:2,0:0:0:0:
111,359,40719,1,10,0:0:0:0:
149,257,40892,2,0,B|109:235|109:235|72:259,1,87.5,2|0,0:0|3:2,0:0:0:0:
201,319,41237,1,0,3:2:0:0:
22,321,41409,1,10,0:0:0:0:
252,384,41581,6,0,B|282:334|282:334|278:242,1,131.25,2|0,3:2|0:0,0:0:0:0:
276,218,41926,5,2,3:2:0:0:
227,124,42099,1,8,0:0:0:0:
261,21,42271,1,2,0:0:0:0:
363,213,42443,5,0,3:2:0:0:
313,118,42616,1,2,3:2:0:0:
348,16,42788,1,8,0:0:0:0:
227,124,42961,1,2,3:2:0:0:
401,114,43133,5,2,3:2:0:0:
173,25,43306,1,10,0:0:0:0:
276,218,43478,1,10,0:0:0:0:
348,16,43650,2,0,L|260:21,1,87.5,2|8,0:0|0:0,0:0:0:0:
85,29,43995,1,2,3:2:0:0:
85,29,44081,1,0,3:2:0:0:
85,29,44168,1,10,0:0:0:0:
155,231,44340,1,10,3:2:0:0:
227,124,44512,6,0,P|154:98|82:126,1,157.499995193482,6|0,3:2|0:0,0:0:0:0:
159,318,45202,1,10,0:0:0:0:
155,231,45375,1,2,0:0:0:0:
71,322,45547,1,2,3:2:0:0:
246,313,45719,2,0,L|379:306,1,118.124996395111,2|0,3:2|0:0,0:0:0:0:
403,304,46064,1,2,0:0:0:0:
512,215,46237,5,2,3:2:0:0:
326,224,46409,1,0,3:2:0:0:
326,224,46495,1,0,3:2:0:0:
326,224,46581,1,10,0:0:0:0:
479,302,46754,1,0,0:0:0:0:
415,153,46926,1,2,3:2:0:0:
363,306,47099,1,2,0:0:0:0:
469,95,47271,6,0,B|440:74|440:74|357:79,1,118.124996395111,2|0,3:2|0:0,0:0:0:0:
318,82,47616,1,2,0:0:0:0:
165,165,47788,2,0,L|264:159,1,78.7499975967408,2|8,0:0|0:0,0:0:0:0:
86,169,48133,1,2,0:0:0:0:
243,160,48306,1,2,3:2:0:0:
24,123,48478,6,0,P|12:173|33:231,1,98.4375037550928,2|0,0:0|0:0,0:0:0:0:
50,253,48823,1,8,0:3:0:0:
207,244,48995,1,2,3:2:0:0:
86,169,49168,6,0,B|123:131|123:131|163:165,1,104.999996795654,10|0,0:0|0:0,0:0:0:0:
135,346,49512,6,0,L|129:249,1,96.250002937317,6|0,3:2|0:0,0:0:0:0:
321,154,50030,5,6,3:2:0:0:
162,164,50202,1,0,0:0:0:0:
285,239,50375,1,2,3:2:0:0:
238,81,50547,2,0,L|244:180,1,78.7499975967408,2|8,0:0|0:0,0:0:0:0:
250,319,50892,1,2,0:0:0:0:
162,163,51064,1,2,0:0:0:0:
399,100,51237,6,0,P|414:157|397:213,1,118.124996395111,2|0,3:2|0:0,0:0:0:0:
363,234,51581,1,10,0:0:0:0:
242,159,51754,1,2,3:2:0:0:
242,159,51926,2,0,L|321:154,1,78.7499975967408,2|8,0:0|0:0,0:0:0:0:
492,146,52271,1,2,0:0:0:0:
409,306,52443,1,6,0:0:0:0:
399,100,52616,1,2,0:0:0:0:
285,239,52788,6,0,P|223:259|162:238,1,131.25,6|0,3:2|0:0,0:0:0:0:
130,208,53133,1,10,0:0:0:0:
116,10,53305,1,2,3:2:0:0:
241,160,53477,1,10,0:0:0:0:
51,111,53650,1,2,3:2:0:0:
233,42,53823,1,10,0:0:0:0:
51,111,53995,6,0,B|21:160|21:160|27:278,1,175,2|0,3:2|0:0,0:0:0:0:
205,355,54512,2,0,L|200:267,1,87.5,10|0,0:0|3:2,0:0:0:0:
376,335,54857,2,0,L|331:260,1,87.5,10|0,0:0|3:2,0:0:0:0:
410,122,55202,2,0,L|322:127,1,87.5,10|0,0:0|3:2,0:0:0:0:
7,149,55547,5,14,0:0:0:0:
261,50,55719,1,0,3:2:0:0:
117,284,55892,1,8,0:0:0:0:
96,7,56064,5,14,0:0:0:0:
272,218,56237,1,0,3:2:0:0:
7,149,56409,1,8,0:0:0:0:
363,4,56581,5,14,0:0:0:0:
363,4,56926,5,0,3:2:0:0:
170,119,57099,1,12,0:0:0:0:
376,217,57271,1,14,0:0:0:0:
261,50,57443,1,2,3:2:0:0:
243,247,57616,5,10,0:3:0:0:
219,264,57702,1,8,0:3:0:0:
192,275,57788,1,10,0:3:0:0:
164,278,57874,1,8,0:0:0:0:
135,274,57960,1,10,0:0:0:0:
108,262,58047,1,8,0:0:0:0:
87,245,58133,6,0,B|56:196|56:196|63:79,1,150.937502878904,6|0,3:2|0:0,0:0:0:0:
19,61,58478,2,0,P|66:75|115:67,1,100.62500191927,2|8,0:0|0:0,0:0:0:0:
273,1,58823,1,2,0:0:0:0:
263,229,58995,1,2,3:2:0:0:
203,68,59168,1,0,3:2:0:0:
363,234,59340,1,10,0:0:0:0:
168,273,59512,6,0,P|158:224|172:177,1,100.62500191927,2|0,0:0|0:0,0:0:0:0:
341,76,59857,1,2,3:2:0:0:
263,229,60030,2,0,L|268:117,1,100.62500191927,10|0,0:0|0:0,0:0:0:0:
273,1,60375,1,2,3:2:0:0:
172,176,60547,1,0,3:2:0:0:
460,79,60719,6,0,L|387:76,1,72.1875022029877,10|0,0:0|0:0,0:0:0:0:
341,76,61064,1,6,3:2:0:0:
334,314,61237,1,0,3:2:0:0:
417,151,61409,1,10,0:0:0:0:
154,224,61581,6,0,B|205:250|205:250|321:231,1,150.937502878904,6|0,3:2|0:0,0:0:0:0:
347,225,61926,1,2,3:2:0:0:
222,78,62099,1,8,0:0:0:0:
141,313,62271,6,0,B|192:339|192:339|308:320,1,150.937502878904,6|0,3:2|0:0,0:0:0:0:
334,314,62616,1,2,3:2:0:0:
76,83,62788,1,10,0:0:0:0:
57,321,62961,6,0,P|120:254|109:138,1,201.250003838539,6|0,3:2|3:2,0:0:0:0:
2,208,63478,1,8,0:0:0:0:
247,280,63650,2,0,L|245:229,1,50.3125009596348,2|0,3:2|3:2,0:0:0:0:
271,110,63823,6,0,L|266:210,1,100.62500191927,6|0,3:2|0:0,0:0:0:0:
255,364,64168,1,10,0:0:0:0:
445,156,64340,2,0,P|396:146|349:160,1,100.62500191927,2|0,3:2|0:0,0:0:0:0:
405,328,64685,2,0,L|400:228,1,100.62500191927,2|8,3:2|0:0,0:0:0:0:
389,56,65030,1,2,0:0:0:0:
265,210,65202,5,6,3:2:0:0:
259,28,65375,1,0,3:2:0:0:
445,156,65547,1,10,0:0:0:0:
189,169,65719,6,0,B|234:132|234:132|351:127,1,150.937502878904,6|0,3:2|0:0,0:0:0:0:
366,159,66064,1,2,3:2:0:0:
372,334,66237,1,8,0:0:0:0:
277,225,66409,1,2,3:2:0:0:
509,293,66581,6,0,B|464:330|464:330|346:335,1,150.937502878904,2|0,3:2|0:0,0:0:0:0:
320,336,66926,1,10,0:0:0:0:
63,348,67099,1,2,3:2:0:0:
63,348,67185,1,0,3:2:0:0:
63,348,67271,1,0,3:2:0:0:
189,169,67443,1,2,3:2:0:0:
235,384,67616,1,10,0:0:0:0:
118,250,67788,6,0,B|85:201|85:201|90:84,1,150.937502878904,6|0,3:2|0:0,0:0:0:0:
94,60,68133,1,6,3:2:0:0:
326,128,68306,1,8,0:0:0:0:
189,169,68478,1,6,0:0:0:0:
321,45,68650,2,0,L|372:42,1,50.3125009596348,2|0,3:2|0:0,0:0:0:0:
474,88,68823,5,10,0:3:0:0:
444,121,68909,1,8,0:3:0:0:
433,164,68995,1,10,0:0:0:0:
443,207,69081,1,8,0:0:0:0:
471,241,69168,6,0,B|422:273|422:273|304:268,1,150.937502878904,6|0,3:2|0:0,0:0:0:0:
275,315,69512,2,0,P|288:268|279:219,1,100.62500191927,2|12,3:2|0:0,0:0:0:0:
0,264,69857,1,2,0:0:0:0:
213,263,70030,1,2,3:2:0:0:
83,117,70202,1,0,3:2:0:0:
125,367,70375,1,10,0:0:0:0:
21,170,70547,6,0,B|72:196|72:196|188:177,1,150.937502878904,2|0,3:2|0:0,0:0:0:0:
214,172,70892,1,2,3:2:0:0:
423,143,71064,1,10,0:0:0:0:
236,80,71237,1,2,3:2:0:0:
236,80,71323,1,0,3:2:0:0:
236,80,71409,1,0,3:2:0:0:
329,222,71581,1,2,3:2:0:0:
381,66,71754,1,10,0:0:0:0:
214,172,71926,1,2,0:0:0:0:
512,120,72099,5,2,3:2:0:0:
311,132,72271,1,0,0:0:0:0:
453,0,72443,1,14,0:0:0:0:
443,235,72616,6,0,L|438:335,1,100.62500191927,2|0,0:0|3:2,0:0:0:0:
214,172,72961,2,0,L|219:72,1,100.62500191927,2|12,3:2|0:0,0:0:0:0:
294,309,73306,6,0,B|214:256|214:256|134:307,1,190.312505807877,2|0,3:2|0:0,0:0:0:0:
102,335,73650,1,10,0:0:0:0:
327,338,73823,1,8,0:3:0:0:
177,134,73995,6,0,P|217:223|259:135,1,242.812499073744,2|0,3:2|0:0,0:0:0:0:
259,136,74340,6,0,P|214:241|176:132,1,295.312511265278,2|0,3:2|0:0,0:0:0:0:
219,71,74685,1,2,0:0:0:0:
12,92,74857,6,0,B|58:126|58:126|175:132,1,175,6|2,3:2|0:0,0:0:0:0:
347,139,75375,1,2,3:2:0:0:
254,225,75547,2,0,L|259:137,1,87.5,8|2,0:0|0:0,0:0:0:0:
351,51,75892,1,8,0:0:0:0:
504,159,76064,6,0,P|442:179|381:159,1,131.25,6|0,3:2|0:0,0:0:0:0:
347,139,76409,1,10,0:0:0:0:
506,61,76581,1,10,0:0:0:0:
440,209,76754,2,0,L|435:297,1,87.5,2|8,3:2|0:0,0:0:0:0:
342,379,77099,2,0,L|347:291,1,87.5,6|0,3:2|0:0,0:0:0:0:
158,329,77443,1,0,3:0:0:0:
158,329,77530,1,2,3:2:0:0:
158,329,77616,6,0,P|199:341|240:328,1,87.5,2|0,3:2|0:0,0:0:0:0:
198,20,77961,5,10,0:0:0:0:
198,258,78134,1,0,3:2:0:0:
93,78,78306,1,10,0:0:0:0:
302,197,78478,1,0,3:2:0:0:
93,197,78650,1,10,0:0:0:0:
302,78,78823,1,0,3:2:0:0:
5,79,78995,6,0,L|93:77,1,87.5,2|0,0:0|3:0,0:0:0:0:
198,258,79340,1,14,0:0:0:0:
389,76,79512,6,0,L|301:78,1,87.5,2|0,0:0|3:0,0:0:0:0:
93,197,79857,6,0,L|144:194,1,43.75,10|0,0:0|0:0,0:0:0:0:
198,258,80030,2,0,L|241:255,1,43.75,12|0,0:0|0:0,0:0:0:0:
347,325,80202,6,0,P|331:257|352:191,1,140,6|0,3:2|3:2,0:0:0:0:
458,87,80719,2,0,L|388:83,1,70,2|0,0:0|3:0,0:0:0:0:
197,67,81064,1,10,0:0:0:0:
295,141,81237,1,2,0:0:0:0:
308,9,81409,1,2,0:0:0:0:
140,0,81581,6,0,B|112:37|112:37|107:131,1,140,2|8,3:2|0:0,0:0:0:0:
168,270,82099,2,0,L|172:200,1,70,2|0,0:0|3:0,0:0:0:0:
32,192,82443,2,0,L|28:262,1,70,10|0,0:0|3:0,0:0:0:0:
107,130,82788,5,2,0:0:0:0:
96,337,82961,1,2,3:2:0:0:
171,200,83133,6,0,P|236:179|304:195,1,140,6|0,3:2|0:0,0:0:0:0:
480,286,83650,1,2,3:2:0:0:
480,286,83737,1,0,3:2:0:0:
480,286,83823,1,8,0:0:0:0:
440,129,83995,2,0,L|436:199,1,70,2|0,0:0|3:2,0:0:0:0:
363,313,84340,6,0,L|367:243,1,70,2|0,3:2|3:0,0:0:0:0:
373,70,84685,1,8,0:3:0:0:
436,198,84857,2,0,P|368:215|303:194,1,140,10|8,0:0|0:0,0:0:0:0:
72,18,85375,5,0,3:2:0:0:
95,16,85461,1,8,0:3:0:0:
118,15,85547,1,8,0:3:0:0:
141,14,85633,1,8,0:0:0:0:
165,12,85719,1,8,0:0:0:0:
188,11,85806,1,8,0:0:0:0:
211,10,85892,6,0,B|248:56|248:56|255:174,1,150.937502878904,6|0,3:2|0:0,0:0:0:0:
303,194,86237,2,0,P|254:183|205:196,1,100.62500191927,10|0,0:0|0:0,0:0:0:0:
3,319,86581,2,0,P|52:330|101:317,1,100.62500191927,2|0,3:2|3:0,0:0:0:0:
176,93,86926,1,10,0:0:0:0:
46,190,87099,1,0,3:0:0:0:
259,363,87271,6,0,L|254:263,1,100.62500191927,2|0,0:0|3:0,0:0:0:0:
99,317,87616,1,8,0:0:0:0:
400,309,87788,6,0,L|395:209,1,100.62500191927,2|0,0:0|3:0,0:0:0:0:
383,7,88133,1,2,3:2:0:0:
288,113,88306,1,8,0:0:0:0:
489,102,88478,1,0,3:0:0:0:
239,10,88650,5,6,3:2:0:0:
253,262,88823,1,0,3:2:0:0:
138,15,88995,5,2,3:2:0:0:
155,317,89168,1,0,3:2:0:0:
37,20,89340,5,10,0:0:0:0:
57,372,89513,1,8,0:0:0:0:
389,108,89685,5,10,0:0:0:0:
2,196,89857,1,10,0:0:0:0:
253,262,90030,6,0,L|250:211,1,50.3125009596348,10|0,0:0|3:2,0:0:0:0:
239,10,90202,5,8,0:3:0:0:
235,43,90288,1,8,0:3:0:0:
221,73,90374,1,8,0:0:0:0:
198,97,90460,1,8,0:0:0:0:
169,112,90546,1,8,0:0:0:0:
135,117,90633,1,8,0:0:0:0:
103,107,90719,5,10,0:0:0:0:
0,1,90892,1,2,0:0:0:0:
0,198,91064,5,2,0:0:0:0:
1,223,91150,1,2,0:0:0:0:
2,248,91236,1,2,0:0:0:0:
3,273,91322,1,2,0:0:0:0:
5,298,91409,6,0,B|62:331|62:331|197:324,1,201.250003838539,6|8,3:2|0:0,0:0:0:0:
346,210,91926,2,0,P|297:198|249:211,1,100.62500191927,2|0,0:0|3:2,0:0:0:0:
300,356,92271,1,0,3:2:0:0:
462,255,92443,2,0,L|457:155,1,100.62500191927,10|0,0:0|0:0,0:0:0:0:
448,0,92788,5,2,3:2:0:0:
346,210,92961,2,0,L|341:110,1,100.62500191927,2|8,0:0|0:0,0:0:0:0:
131,119,93306,1,0,0:0:0:0:
234,0,93478,2,0,L|239:100,1,100.62500191927,2|0,3:2|3:2,0:0:0:0:
138,374,93823,2,0,P|162:304|135:234,1,150.937502878904,10|0,0:0|0:0,0:0:0:0:
53,188,94168,6,0,B|110:221|110:221|245:214,1,201.250003838539,2|10,3:2|0:0,0:0:0:0:
441,104,94685,1,2,0:0:0:0:
401,296,94857,1,0,3:2:0:0:
340,109,95030,1,2,3:2:0:0:
446,204,95202,2,0,L|346:210,1,100.62500191927,8|0,0:0|0:0,0:0:0:0:
124,94,95547,6,0,L|224:100,1,100.62500191927,2|0,3:2|0:0,0:0:0:0:
159,333,95892,1,14,0:0:0:0:
87,196,96064,1,2,0:0:0:0:
289,289,96237,1,0,3:2:0:0:
43,274,96409,1,2,3:2:0:0:
252,207,96582,1,8,0:0:0:0:
159,333,96754,1,0,3:0:0:0:
159,333,96840,1,0,3:0:0:0:
159,333,96926,6,0,L|165:233,1,100.62500191927,6|0,3:2|0:0,0:0:0:0:
179,34,97271,1,10,0:0:0:0:
87,197,97443,1,2,0:0:0:0:
244,103,97616,1,2,3:2:0:0:
100,97,97788,2,0,L|0:91,1,100.62500191927,2|8,3:2|0:0,0:0:0:0:
272,215,98133,6,0,P|320:227|368:215,1,100.62500191927,2|0,0:0|3:2,0:0:0:0:
505,94,98478,2,0,P|457:81|409:92,1,100.62500191927,2|8,3:2|0:0,0:0:0:0:
449,268,98823,2,0,L|455:168,1,100.62500191927,2|0,3:2|3:2,0:0:0:0:
314,51,99168,2,0,L|320:151,1,100.62500191927,2|8,3:2|0:0,0:0:0:0:
384,333,99512,6,0,B|327:300|327:300|192:307,1,201.250003838539,2|0,3:2|3:0,0:0:0:0:
26,370,100030,2,0,P|74:382|122:370,1,100.62500191927,10|0,0:0|3:0,0:0:0:0:
64,145,100375,1,0,3:2:0:0:
73,295,100547,1,2,3:2:0:0:
184,206,100719,1,10,0:0:0:0:
0,81,100892,6,0,P|70:105|140:78,1,150.937502878904,2|0,3:2|0:0,0:0:0:0:
175,56,101237,1,10,0:0:0:0:
408,114,101409,1,10,0:0:0:0:
269,175,101581,2,0,L|263:75,1,100.62500191927,2|8,3:2|0:0,0:0:0:0:
408,114,101926,6,0,L|411:164,1,50.3125009596348,2|0,3:2|3:0,0:0:0:0:
487,288,102099,5,10,0:0:0:0:
454,269,102185,1,10,0:0:0:0:
417,264,102271,1,10,0:0:0:0:
380,271,102357,1,10,0:0:0:0:
347,290,102443,6,0,B|293:328|293:328|158:335,1,201.250003838539,6|8,3:2|0:0,0:0:0:0:
0,237,102961,2,0,L|100:243,1,100.62500191927,2|0,0:0|3:2,0:0:0:0:
265,254,103306,1,2,3:2:0:0:
193,160,103478,1,10,0:0:0:0:
157,335,103650,1,0,3:0:0:0:
109,92,103823,6,0,B|166:59|166:59|301:67,1,201.250003838539,2|8,0:0|0:0,0:0:0:0:
494,179,104340,2,0,L|500:79,1,100.62500191927,2|0,0:0|3:2,0:0:0:0:
294,167,104685,1,0,3:2:0:0:
404,23,104857,2,0,L|398:123,1,100.62500191927,10|0,0:0|3:0,0:0:0:0:
471,302,105202,6,0,B|392:241|392:241|302:290,1,201.250003838539,2|8,3:2|0:0,0:0:0:0:
192,364,105719,1,0,3:0:0:0:
294,167,105892,1,2,3:2:0:0:
385,340,106064,2,0,B|327:372|327:372|192:364,1,201.250003838539,2|0,3:2|0:0,0:0:0:0:
0,278,106581,5,2,3:2:0:0:
302,289,106754,1,2,0:0:0:0:
188,134,106926,1,10,0:0:0:0:
92,335,107099,2,0,L|98:235,1,100.62500191927,2|0,3:2|3:2,0:0:0:0:
116,24,107443,1,10,0:0:0:0:
37,143,107616,1,10,0:0:0:0:
282,27,107788,1,2,3:2:0:0:
282,27,107875,1,2,3:2:0:0:
282,27,107961,6,0,L|288:127,1,100.62500191927,6|2,3:2|0:0,0:0:0:0:
298,278,108306,1,10,0:0:0:0:
441,34,108478,6,0,L|390:120,1,100.62500191927,6|0,3:2|0:0,0:0:0:0:
298,278,108823,1,2,3:2:0:0:
289,127,108996,1,10,0:0:0:0:
461,350,109168,6,0,L|400:270,1,100.62500191927,6|0,3:2|0:0,0:0:0:0:
289,127,109513,1,2,3:2:0:0:
298,278,109685,1,10,0:0:0:0:
496,188,109858,6,0,L|396:194,1,100.62500191927,6|0,0:0|3:2,0:0:0:0:
194,206,110202,1,2,3:2:0:0:
399,269,110375,1,10,0:0:0:0:
141,122,110547,6,0,B|80:201|80:201|129:290,1,201.250003838539,6|8,3:2|0:0,0:0:0:0:
495,188,111064,1,10,0:3:0:0:
194,206,111237,1,2,3:2:0:0:
448,369,111409,1,8,0:0:0:0:
448,369,111495,1,8,0:0:0:0:
448,369,111581,1,10,0:0:0:0:
338,84,111754,1,0,3:2:0:0:
259,379,111927,1,10,0:0:0:0:
259,379,112012,1,8,0:0:0:0:
259,379,112099,1,14,0:0:0:0:
42,205,113133,5,0,0:0:0:0:
5,128,113306,1,0,0:0:0:0:
56,59,113478,6,0,L|131:62,1,74.3750014185906,2|2,3:2|0:0,0:0:0:0:
230,30,113823,2,0,P|221:66|228:103,1,74.3750014185906,10|2,0:1|0:0,0:0:0:0:
375,75,114168,5,8,0:1:0:0:
300,71,114340,1,2,0:0:0:0:
330,219,114512,5,8,0:1:0:0:
334,144,114684,1,2,0:0:0:0:
365,293,114857,6,0,P|328:299|292:290,1,74.3750014185906,2|2,3:2|0:0,0:0:0:0:
203,245,115202,2,0,L|199:320,1,74.3750014185906,10|2,0:1|0:0,0:0:0:0:
44,275,115547,5,8,0:1:0:0:
118,278,115719,1,2,0:0:0:0:
89,128,115892,5,8,0:1:0:0:
85,203,116064,1,2,3:2:0:0:
53,61,116237,6,0,P|89:52|126:59,1,74.3750014185906,2|2,3:2|0:0,0:0:0:0:
237,165,116581,2,0,P|201:173|164:167,1,74.3750014185906,10|2,0:1|0:0,0:0:0:0:
309,90,116926,6,0,B|282:129|282:129|291:235,1,148.750002837181,10|8,0:1|0:1,0:0:0:0:
368,325,117443,1,2,0:0:0:0:
228,306,117616,6,0,B|267:333|267:333|373:324,1,148.750002837181,2|10,3:2|0:1,0:0:0:0:
458,244,118133,1,2,0:0:0:0:
440,384,118306,6,0,B|467:345|467:345|458:239,1,148.750002837181,10|8,0:1|0:1,0:0:0:0:
450,133,118823,1,2,3:2:0:0:
485,37,118995,6,0,P|448:30|412:39,1,74.3750014185906,2|2,3:2|0:0,0:0:0:0:
325,75,119340,2,0,L|329:0,1,74.3750014185906,10|2,0:1|0:0,0:0:0:0:
170,28,119685,5,8,0:1:0:0:
244,31,119857,1,2,0:0:0:0:
200,174,120030,5,8,0:1:0:0:
204,99,120202,1,2,0:0:0:0:
260,231,120375,6,0,B|221:258|221:258|115:249,1,148.750002837181,2|10,3:2|0:1,0:0:0:0:
33,207,120892,5,2,0:0:0:0:
29,282,121064,1,8,0:1:0:0:
116,324,121237,5,2,0:0:0:0:
120,249,121409,1,8,0:1:0:0:
25,357,121581,1,2,3:2:0:0:
204,353,121754,6,0,L|279:349,1,74.3750014185906,2|2,3:2|0:0,0:0:0:0:
365,384,122099,2,0,P|358:347|367:311,1,74.3750014185906,10|2,0:1|0:0,0:0:0:0:
512,347,122443,5,8,0:1:0:0:
438,350,122615,1,2,0:0:0:0:
468,202,122788,5,8,0:1:0:0:
471,276,122960,1,2,0:0:0:0:
465,128,123133,6,0,B|426:101|426:101|320:110,1,148.750002837181,2|10,3:2|0:1,0:0:0:0:
159,118,123650,5,2,0:0:0:0:
299,211,123823,1,10,0:1:0:0:
241,53,123995,1,0,0:0:0:0:
195,213,124168,1,10,0:1:0:0:
325,109,124340,1,2,0:0:0:0:
