osu file format v14

[General]
AudioFilename: audio.mp3
AudioLeadIn: 0
PreviewTime: 57443
Countdown: 0
SampleSet: Soft
StackLeniency: 0.7
Mode: 0
LetterboxInBreaks: 0
WidescreenStoryboard: 0

[Editor]
DistanceSpacing: 1.1
BeatDivisor: 4
GridSize: 8
TimelineZoom: 1.3

[Metadata]
Title:Hoshi Ori Yume Mirai
TitleUnicode:星織ユメミライ
Artist:Ceui
ArtistUnicode:Ceui
Creator:Illyasviel
Version:Normal
Source:星織ユメミライ
Tags:eroge opening dored irya [xv] log off now eiri- ayyri lafayla ocean girl sunset smile akitoshi -laura- Star Weaving Dreaming of the Future narusawa rikka hino ryousuke tone work's galgame hazu- japanese visual novel vn video game
BeatmapID:2093707
BeatmapSetID:1000344

[Difficulty]
HPDrainRate:4
CircleSize:3.2
OverallDifficulty:4.2
ApproachRate:5.2
SliderMultiplier:1
SliderTickRate:1

[Events]
//Background and Video events
0,0,"0004.jpg",0,0
//Break Periods
//Storyboard Layer 0 (Background)
//Storyboard Layer 1 (Fail)
//Storyboard Layer 2 (Pass)
//Storyboard Layer 3 (Foreground)
//Storyboard Layer 4 (Overlay)
//Storyboard Sound Samples

[TimingPoints]
375,344.827586206897,4,2,1,45,1,0
11409,-100,4,2,1,55,0,0
22443,-100,4,2,1,48,0,0
33478,-100,4,2,1,50,0,0
58133,-100,4,2,1,60,0,1
80202,-100,4,2,1,55,0,0
85892,-100,4,2,1,60,0,1
91409,-100,4,2,1,60,0,0
107961,-100,4,2,1,55,0,0
113478,-100,4,2,1,48,0,0

[Colours]
Combo1 : 242,161,114
Combo2 : 56,32,140
Combo3 : 86,57,191
Combo4 : 54,44,89
Combo5 : 85,166,217

[HitObjects]
75,61,375,6,0,L|178:55,1,100,2|10,3:2|0:1,0:0:0:0:
227,71,892,2,0,L|330:65,1,100,2|2,0:0|0:0,0:0:0:0:
381,62,1409,1,8,0:1:0:0:
383,172,1754,2,0,P|336:182|280:176,1,100,10|10,0:1|0:1,0:0:0:0:
231,162,2271,1,2,0:0:0:0:
157,244,2616,1,2,0:0:0:0:
205,342,2961,1,2,3:2:0:0:
205,342,3133,6,0,L|105:347,1,100,2|10,3:2|0:1,0:0:0:0:
50,345,3650,2,0,P|40:298|46:242,1,100,2|2,0:0|0:0,0:0:0:0:
73,198,4168,1,8,0:1:0:0:
19,102,4512,2,0,P|67:91|117:96,1,100,10|10,0:1|0:1,0:0:0:0:
165,124,5030,1,2,0:0:0:0:
211,94,5202,2,0,P|259:83|309:88,1,100,10|8,0:1|0:1,0:0:0:0:
415,57,5892,6,0,L|424:213,1,150,2|2,3:2|0:0,0:0:0:0:
326,340,6926,2,0,L|317:190,1,150,10|2,0:1|0:0,0:0:0:0:
151,195,7961,2,0,L|145:298,1,100,10|10,0:1|0:1,0:0:0:0:
193,320,8478,1,0,3:2:0:0:
242,296,8650,6,0,L|236:196,1,100,2|10,3:2|0:1,0:0:0:0:
272,154,9168,2,0,L|266:54,1,100,2|2,0:0|0:0,0:0:0:0:
159,61,9857,1,2,0:0:0:0:
159,61,10030,2,0,P|112:71|56:65,1,100,0|10,3:2|0:0,0:0:0:0:
5,59,10547,2,0,P|1:108|10:157,1,100,10|10,0:3|0:0,0:0:0:0:
101,295,11409,6,0,L|201:290,1,100,6|8,3:2|0:0,0:0:0:0:
296,344,12099,1,0,3:2:0:0:
389,284,12443,1,10,0:0:0:0:
498,280,12788,2,0,P|502:230|492:181,1,100,2|8,3:2|0:0,0:0:0:0:
459,137,13306,2,0,L|359:142,1,100,2|0,0:0|3:0,0:0:0:0:
304,146,13823,1,10,0:0:0:0:
208,91,14168,6,0,P|198:140|203:190,1,100,2|8,3:2|0:0,0:0:0:0:
259,283,14857,1,2,3:2:0:0:
259,283,15030,2,0,L|159:288,1,100,2|0,3:2|0:0,0:0:0:0:
111,315,15547,1,2,3:2:0:0:
19,253,15892,1,14,0:0:0:0:
104,183,16237,2,0,L|101:133,2,50,2|2|14,3:2|3:2|0:0,0:0:0:0:
213,176,16926,6,0,L|207:76,1,100,2|10,3:2|0:0,0:0:0:0:
247,39,17443,2,0,P|296:42|345:32,1,100,2|2,3:2|3:2,0:0:0:0:
405,24,17961,1,10,0:0:0:0:
405,24,18133,2,0,P|415:73|411:123,1,100,2|2,3:2|3:2,0:0:0:0:
469,216,18823,2,0,P|420:226|370:222,1,100,2|2,0:0|3:2,0:0:0:0:
322,210,19340,1,10,0:0:0:0:
322,210,19512,5,6,3:2:0:0:
256,192,19685,12,14,21064,0:0:0:0:
55,50,22443,5,2,0:0:0:0:
64,161,22788,2,0,L|70:261,2,100,10|2|10,0:1|0:0|0:1,0:0:0:0:
117,173,23650,2,0,P|166:176|215:166,2,100,2|2|2,0:0|0:0|0:0,0:0:0:0:
161,73,24685,2,0,L|261:67,1,100,2|2,0:0|3:2,0:0:0:0:
311,46,25202,6,0,L|411:40,1,100,2|10,3:2|0:1,0:0:0:0:
465,38,25719,2,0,P|468:87|458:136,1,100,2|2,0:0|0:0,0:0:0:0:
411,236,26409,2,0,L|256:245,1,150,2|10,0:0|0:1,0:0:0:0:
203,151,27271,1,2,0:0:0:0:
313,148,27616,1,10,0:1:0:0:
261,244,27961,6,0,L|161:250,1,100,2|8,3:2|0:1,0:0:0:0:
51,256,28650,1,2,0:0:0:0:
10,153,28995,1,10,0:1:0:0:
83,71,29340,2,0,P|132:74|181:64,1,100,2|8,0:0|0:1,0:0:0:0:
276,8,30030,2,0,P|286:56|282:106,1,100,2|8,0:0|0:1,0:0:0:0:
185,159,30719,6,0,L|425:144,1,200,2|2,3:2|0:0,0:0:0:0:
494,140,31754,1,10,0:1:0:0:
448,241,32099,2,0,L|454:341,1,100,10|10,3:0|3:0,0:0:0:0:
402,359,32616,1,10,0:0:0:0:
299,320,32961,2,0,P|250:317|201:327,1,100,10|8,0:0|0:0,0:0:0:0:
150,349,33478,5,6,3:2:0:0:
149,238,33823,2,0,L|49:244,2,100,10|2|10,0:0|3:2|0:0,0:0:0:0:
183,195,34685,2,0,B|209:125|209:125|176:43,1,150,2|10,3:2|0:0,0:0:0:0:
148,10,35375,1,2,0:0:0:0:
257,7,35719,2,0,L|357:1,1,100,2|2,3:2|3:2,0:0:0:0:
396,39,36237,6,0,P|406:87|402:137,1,100,2|10,3:2|0:0,0:0:0:0:
366,179,36754,1,2,0:0:0:0:
366,289,37099,1,2,3:2:0:0:
271,233,37443,2,0,P|221:228|172:238,1,100,2|0,3:2|3:2,0:0:0:0:
122,263,37961,1,10,0:0:0:0:
11,261,38306,1,2,3:2:0:0:
69,168,38650,1,10,0:0:0:0:
122,263,38995,6,0,L|128:363,1,100,6|10,3:2|0:0,0:0:0:0:
224,309,39685,2,0,L|324:303,1,100,2|10,3:2|0:0,0:0:0:0:
433,296,40375,2,0,P|438:246|428:197,1,100,2|10,3:2|0:0,0:0:0:0:
404,153,40892,2,0,P|399:103|409:54,1,100,2|0,0:0|3:2,0:0:0:0:
446,14,41409,5,10,0:0:0:0:
446,14,41581,2,0,L|289:23,1,150,2|8,3:2|0:0,0:0:0:0:
222,105,42443,1,0,3:2:0:0:
141,30,42788,1,8,0:0:0:0:
31,38,43133,2,0,L|37:138,1,100,2|10,3:2|0:0,0:0:0:0:
63,185,43650,1,2,0:0:0:0:
18,285,43995,2,0,P|67:290|116:281,1,100,2|10,3:2|3:2,0:0:0:0:
168,261,44512,5,6,3:2:0:0:
305,88,45202,2,0,P|353:77|403:83,1,100,10|2,0:0|3:2,0:0:0:0:
455,102,45719,2,0,L|461:202,1,100,2|2,3:2|0:0,0:0:0:0:
438,252,46237,2,0,L|444:352,1,100,2|10,3:2|0:0,0:0:0:0:
334,357,46926,2,0,L|331:307,1,50,2|2,3:2|0:0,0:0:0:0:
326,252,47271,6,0,P|276:246|227:255,1,100,2|2,3:2|0:0,0:0:0:0:
176,276,47788,1,2,0:0:0:0:
66,281,48133,2,0,L|63:231,1,50,2|2,0:0|3:2,0:0:0:0:
84,180,48478,2,0,L|78:80,1,100,2|8,0:0|0:3,0:0:0:0:
116,41,48995,1,2,3:2:0:0:
116,41,49168,2,0,P|165:46|214:38,1,100,10|6,0:0|3:2,0:0:0:0:
365,105,50030,6,0,P|315:99|266:107,1,100,6|2,3:2|3:2,0:0:0:0:
231,149,50547,2,0,L|237:249,1,100,2|2,0:0|0:0,0:0:0:0:
218,301,51064,1,2,0:0:0:0:
218,301,51237,2,0,P|168:308|119:302,2,100,2|10|2,3:2|0:0|0:0,0:0:0:0:
328,290,52271,2,0,L|331:340,2,50,2|6|2,0:0|0:0|0:0,0:0:0:0:
325,233,52788,6,0,L|425:227,1,100,6|10,3:2|0:0,0:0:0:0:
471,127,53478,2,0,L|371:133,1,100,10|10,0:0|0:0,0:0:0:0:
325,101,53995,2,0,L|225:107,1,100,2|0,3:2|0:0,0:0:0:0:
170,111,54512,1,10,0:0:0:0:
60,114,54857,1,10,0:0:0:0:
115,18,55202,1,10,0:0:0:0:
170,111,55547,6,0,P|175:160|165:209,1,100,14|8,0:0|0:0,0:0:0:0:
110,210,56064,2,0,P|100:258|105:308,1,100,14|8,0:0|0:0,0:0:0:0:
134,355,56581,1,14,0:0:0:0:
243,351,56926,2,0,L|293:348,2,50,0|12|14,3:2|0:0|0:0,0:0:0:0:
242,240,57616,2,0,L|342:234,1,100,10|10,0:3|0:0,0:0:0:0:
396,230,58133,6,0,P|406:181|401:131,1,100,6|2,3:2|0:0,0:0:0:0:
389,77,58650,1,8,0:0:0:0:
278,78,58995,2,0,L|276:28,2,50,2|0|10,3:2|3:2|0:0,0:0:0:0:
233,110,59512,2,0,P|183:118|134:113,1,100,2|2,0:0|3:2,0:0:0:0:
81,96,60030,2,0,L|75:196,1,100,10|2,0:0|3:2,0:0:0:0:
65,305,60719,1,10,0:0:0:0:
168,262,61064,6,0,P|217:271|267:267,1,100,6|10,3:2|0:0,0:0:0:0:
319,249,61581,2,0,P|368:239|417:243,1,100,6|2,3:2|3:2,0:0:0:0:
475,258,62099,1,8,0:0:0:0:
475,258,62271,2,0,L|481:158,1,100,6|2,3:2|3:2,0:0:0:0:
487,103,62788,1,10,0:0:0:0:
487,103,62961,2,0,B|417:77|417:77|335:110,1,150,6|8,3:2|0:0,0:0:0:0:
251,161,63823,6,0,P|241:112|246:62,1,100,6|10,3:2|0:0,0:0:0:0:
271,13,64340,2,0,L|171:19,1,100,2|2,3:2|3:2,0:0:0:0:
116,23,64857,1,8,0:0:0:0:
47,111,65202,2,0,L|53:211,1,100,6|10,3:2|0:0,0:0:0:0:
60,265,65719,2,0,P|133:248|211:259,1,150,6|8,3:2|0:0,0:0:0:0:
300,315,66581,6,0,P|310:266|305:216,1,100,2|10,3:2|0:0,0:0:0:0:
284,165,67099,2,0,P|274:116|278:66,1,100,2|2,3:2|3:2,0:0:0:0:
315,25,67616,1,10,0:0:0:0:
315,25,67788,2,0,L|464:16,1,150,6|8,3:2|0:0,0:0:0:0:
465,126,68650,2,0,P|468:175|458:224,1,100,2|10,3:2|0:0,0:0:0:0:
403,210,69168,6,0,P|353:206|304:216,1,100,6|2,3:2|3:2,0:0:0:0:
253,238,69685,1,12,0:0:0:0:
143,246,70030,2,0,L|145:296,2,50,2|0|10,3:2|3:2|0:0,0:0:0:0:
100,211,70547,2,0,L|94:111,1,100,2|2,3:2|3:2,0:0:0:0:
91,56,71064,2,0,P|139:46|189:49,1,100,10|0,0:0|3:2,0:0:0:0:
298,64,71754,2,0,L|300:114,1,50,10|2,0:0|0:0,0:0:0:0:
302,169,72099,6,0,P|351:172|400:162,1,100,2|14,3:2|0:0,0:0:0:0:
453,146,72616,2,0,P|463:194|460:244,1,100,2|2,0:0|3:2,0:0:0:0:
410,342,73306,2,8,L|310:348,1,100,2|10,3:2|0:0,0:0:0:0:
262,331,73823,1,8,0:3:0:0:
262,331,73995,2,0,L|162:337,1,100,2|2,3:2|3:2,0:0:0:0:
51,340,74685,1,2,0:0:0:0:
51,340,74857,6,0,P|48:291|58:242,1,100,6|2,3:2|0:0,0:0:0:0:
91,197,75375,2,0,L|85:97,1,100,2|2,3:2|0:0,0:0:0:0:
179,41,76064,2,0,L|185:141,1,100,6|10,3:2|0:0,0:0:0:0:
225,178,76581,1,10,0:0:0:0:
225,178,76754,2,0,P|273:168|323:172,1,100,2|6,3:2|3:2,0:0:0:0:
483,213,77616,6,0,P|486:164|476:115,1,100,2|10,3:2|0:0,0:0:0:0:
372,74,78306,1,10,0:0:0:0:
323,172,78650,1,10,0:0:0:0:
366,272,78995,2,0,P|316:276|267:266,1,100,2|14,0:0|0:0,0:0:0:0:
222,235,79512,1,2,0:0:0:0:
111,232,79857,1,10,0:0:0:0:
26,302,80202,6,0,B|0:232|0:232|33:150,1,150,6|2,3:2|0:0,0:0:0:0:
90,71,81064,1,10,0:0:0:0:
170,146,81409,1,2,0:0:0:0:
170,146,81581,2,8,L|270:140,1,100,2|8,3:2|0:0,0:0:0:0:
320,117,82099,2,8,L|420:111,1,100,2|10,0:0|0:0,0:0:0:0:
482,201,82788,2,0,L|432:203,1,50,2|2,0:0|3:2,0:0:0:0:
376,206,83133,6,0,P|365:254|368:304,1,100,6|0,3:2|0:0,0:0:0:0:
387,356,83650,2,8,L|287:362,1,100,2|2,3:2|0:0,0:0:0:0:
182,326,84340,1,2,3:2:0:0:
79,367,84685,1,8,0:3:0:0:
79,367,84857,2,0,P|75:317|86:268,1,100,10|8,0:0|0:0,0:0:0:0:
137,171,85547,1,8,0:3:0:0:
185,67,85892,6,8,L|85:73,1,100,6|10,3:2|0:0,0:0:0:0:
137,171,86581,2,8,L|237:165,1,100,2|10,3:2|0:0,0:0:0:0:
347,161,87271,2,0,P|357:209|353:259,1,100,2|8,0:0|0:0,0:0:0:0:
331,309,87788,2,8,L|431:303,1,100,2|2,0:0|3:2,0:0:0:0:
486,300,88306,1,8,0:0:0:0:
509,192,88650,6,0,L|503:92,1,100,6|2,3:2|3:2,0:0:0:0:
460,65,89168,1,0,3:2:0:0:
460,65,89340,1,10,0:0:0:0:
365,8,89685,1,10,0:0:0:0:
274,70,90030,2,0,L|224:72,1,50,10|8,0:0|0:3,0:0:0:0:
172,51,90375,2,0,L|122:53,1,50,8|8,0:0|0:0,0:0:0:0:
67,56,90719,1,10,0:0:0:0:
55,274,91409,6,0,P|103:281|153:275,1,100,6|8,3:2|0:0,0:0:0:0:
202,249,91926,2,0,P|250:241|300:247,1,100,2|0,0:0|3:2,0:0:0:0:
348,274,92443,2,8,L|448:268,1,100,10|2,0:0|3:2,0:0:0:0:
503,263,92961,2,0,P|507:213|497:164,1,100,2|0,0:0|0:0,0:0:0:0:
464,119,93478,1,2,3:2:0:0:
354,104,93823,1,10,0:0:0:0:
259,160,94168,6,0,P|248:111|253:61,1,100,2|10,3:2|0:0,0:0:0:0:
277,11,94685,2,8,L|177:17,1,100,2|2,0:0|3:2,0:0:0:0:
122,21,95202,1,8,0:0:0:0:
41,96,95547,2,0,L|47:196,1,100,2|14,3:2|0:0,0:0:0:0:
116,281,96237,2,0,L|166:279,1,50,0|2,3:2|3:2,0:0:0:0:
212,307,96581,1,8,0:0:0:0:
318,318,96926,6,0,P|367:324|416:316,1,100,6|10,3:2|0:0,0:0:0:0:
457,278,97443,1,2,0:0:0:0:
457,278,97616,2,0,L|451:178,1,100,2|8,3:2|0:0,0:0:0:0:
418,133,98133,2,0,L|412:33,1,100,2|2,0:0|3:2,0:0:0:0:
302,40,98823,2,8,L|202:46,1,100,2|2,3:2|3:2,0:0:0:0:
162,148,99512,6,0,L|311:139,1,150,2|10,3:2|0:0,0:0:0:0:
319,249,100375,2,0,L|369:247,2,50,0|2|10,3:2|3:2|0:0,0:0:0:0:
315,304,100892,2,0,P|265:312|216:306,1,100,2|10,3:2|0:0,0:0:0:0:
106,308,101581,2,8,L|100:208,1,100,2|2,3:2|3:2,0:0:0:0:
48,51,102443,6,0,P|96:43|146:49,1,100,6|8,3:2|0:0,0:0:0:0:
244,99,103133,1,0,3:2:0:0:
345,56,103478,1,10,0:0:0:0:
455,53,103823,2,0,L|461:153,1,100,2|8,0:0|0:0,0:0:0:0:
443,205,104340,2,0,L|449:305,1,100,2|0,0:0|3:2,0:0:0:0:
411,344,104857,1,10,0:0:0:0:
305,313,105202,6,0,P|255:306|206:314,1,100,2|8,3:2|0:0,0:0:0:0:
109,367,105892,1,2,3:2:0:0:
109,367,106064,2,0,P|100:317|107:268,1,100,2|0,3:2|0:0,0:0:0:0:
140,224,106581,2,0,L|138:173,1,50,2|2,3:2|0:0,0:0:0:0:
138,124,106926,1,10,0:0:0:0:
138,124,107099,1,2,3:2:0:0:
208,38,107443,1,10,0:0:0:0:
324,37,107788,1,2,3:2:0:0:
324,37,107961,6,8,L|424:31,1,100,6|10,3:2|0:0,0:0:0:0:
468,64,108478,2,0,P|474:113|465:162,1,100,6|2,3:2|3:2,0:0:0:0:
437,209,108995,1,10,0:0:0:0:
437,209,109168,2,0,P|387:202|338:210,1,100,6|2,3:2|3:2,0:0:0:0:
238,164,109857,2,0,P|232:213|241:262,1,100,6|2,0:0|3:2,0:0:0:0:
273,313,110375,1,10,0:0:0:0:
273,313,110547,5,6,3:2:0:0:
256,192,110719,12,14,112099,0:0:0:0:
468,64,113478,6,0,L|368:69,1,100,2|10,3:2|0:1,0:0:0:0:
317,48,113995,2,0,L|217:53,1,100,2|2,0:0|0:0,0:0:0:0:
162,58,114512,1,8,0:1:0:0:
61,12,114857,2,0,P|55:61|64:110,1,100,2|10,3:2|0:1,0:0:0:0:
85,161,115374,1,2,0:0:0:0:
45,263,115719,1,2,0:0:0:0:
103,355,116064,1,2,3:2:0:0:
103,355,116236,6,0,L|203:350,1,100,2|10,3:2|0:1,0:0:0:0:
258,344,116754,2,0,P|267:295|261:245,1,100,2|2,0:0|0:0,0:0:0:0:
247,192,117271,1,8,0:1:0:0:
197,93,117616,2,0,P|245:83|295:90,1,100,2|10,3:2|0:1,0:0:0:0:
345,112,118133,1,2,0:0:0:0:
394,87,118306,2,0,P|442:77|492:84,1,100,10|8,0:1|0:1,0:0:0:0:
498,194,118995,6,0,L|503:293,1,100,2|10,3:2|0:1,0:0:0:0:
459,328,119512,2,0,P|410:337|360:330,1,100,2|2,0:0|0:0,0:0:0:0:
313,301,120030,1,8,0:1:0:0:
202,303,120375,2,0,L|102:308,1,100,2|10,3:2|0:1,0:0:0:0:
47,310,120891,1,2,0:0:0:0:
76,204,121236,1,2,0:0:0:0:
26,105,121581,1,2,3:2:0:0:
26,105,121754,6,0,P|74:95|124:102,1,100,2|10,3:2|0:1,0:0:0:0:
174,125,122271,2,0,P|223:132|272:122,1,100,2|2,0:0|0:0,0:0:0:0:
321,98,122788,1,8,0:1:0:0:
430,97,123133,2,0,P|438:145|433:195,1,100,2|10,3:2|0:1,0:0:0:0:
399,239,123650,1,2,0:0:0:0:
399,239,123823,2,0,L|299:244,1,100,10|10,0:1|0:1,0:0:0:0:
243,246,124340,1,2,0:0:0:0:
