osu file format v14

[General]
AudioFilename: audio.mp3
AudioLeadIn: 0
PreviewTime: 57443
Countdown: 0
SampleSet: Soft
StackLeniency: 0.4
Mode: 0
LetterboxInBreaks: 0
WidescreenStoryboard: 1

[Editor]
Bookmarks: 41576
DistanceSpacing: 1.1
BeatDivisor: 4
GridSize: 8
TimelineZoom: 1.7

[Metadata]
Title:Hoshi Ori Yume Mirai
TitleUnicode:星織ユメミライ
Artist:Ceui
ArtistUnicode:Ceui
Creator:Illyasviel
Version:Log Off Now's Extra
Source:星織ユメミライ
Tags:eroge opening dored irya [xv] log off now eiri- ayyri lafayla ocean girl sunset smile akitoshi -laura- Star Weaving Dreaming of the Future narusawa rikka hino ryousuke tone work's galgame hazu- japanese visual novel vn video game
BeatmapID:2093706
BeatmapSetID:1000344

[Difficulty]
HPDrainRate:5.5
CircleSize:4
OverallDifficulty:8.5
ApproachRate:9.1
SliderMultiplier:1.75
SliderTickRate:1

[Events]
//Background and Video events
0,0,"0001.jpg",0,0
//Break Periods
//Storyboard Layer 0 (Background)
//Storyboard Layer 1 (Fail)
//Storyboard Layer 2 (Pass)
//Storyboard Layer 3 (Foreground)
//Storyboard Layer 4 (Overlay)
//Storyboard Sound Samples

[TimingPoints]
375,344.827586206897,4,2,1,45,1,0
375,-133.333333333333,4,2,1,45,0,0
11409,-100,4,2,1,55,0,0
21064,-100,4,2,1,53,0,0
21409,-105.263157894737,4,2,1,51,0,0
21754,-111.111111111111,4,2,1,49,0,0
22099,-117.647058823529,4,2,1,47,0,0
22443,-166.666666666667,4,2,1,45,0,0
33478,-111.111111111111,4,2,1,50,0,0
44512,-133.333333333333,4,2,1,50,0,0
48478,-133.333333333333,4,2,1,50,0,0
48995,-111.111111111111,4,2,1,50,0,0
49512,-105.263157894737,4,2,1,50,0,0
50030,-117.647058823529,4,2,1,50,0,0
58133,-86.9565217391304,4,2,1,60,0,1
58478,-86.9565217391304,4,2,1,60,0,1
74857,-117.647058823529,4,2,1,60,0,1
77616,-86.9565217391304,4,2,1,60,0,1
80202,-100,4,2,1,55,0,0
85892,-86.9565217391304,4,2,1,60,0,1
88650,-86.9565217391304,4,2,1,50,0,1
88995,-86.9565217391304,4,2,1,55,0,1
89340,-86.9565217391304,4,2,1,60,0,1
89685,-86.9565217391304,4,2,1,65,0,1
90892,-86.9565217391304,4,2,1,60,0,1
91409,-100,4,2,1,60,0,0
107961,-100,4,2,1,55,0,0
113478,-133.333333333333,4,2,1,48,0,0
128650,-100,4,2,1,5,0,0

[Colours]
Combo1 : 242,161,114
Combo2 : 56,32,140
Combo3 : 86,57,191
Combo4 : 54,44,89
Combo5 : 85,166,217

[HitObjects]
101,282,375,6,0,P|129:265|185:257,1,65.6250025033952,2|2,3:2|0:0,0:0:0:0:
137,174,719,2,0,P|169:173|222:194,1,65.6250025033952,10|2,0:1|0:0,0:0:0:0:
216,97,1064,2,0,P|244:112|279:157,1,65.6250025033952,8|2,0:1|0:0,0:0:0:0:
326,74,1409,2,0,P|343:101|351:157,1,65.6250025033952,8|2,0:1|0:0,0:0:0:0:
284,270,1754,6,0,P|292:238|309:210,1,65.6250025033952,10|2,0:1|0:0,0:0:0:0:
431,281,2099,2,0,P|398:281|345:260,1,65.6250025033952,10|2,0:1|0:0,0:0:0:0:
238,165,2443,2,0,P|260:141|289:125,1,65.6250025033952,8|2,0:1|0:0,0:0:0:0:
409,186,2788,1,8,0:1:0:0:
384,50,2961,1,2,3:2:0:0:
309,210,3133,6,0,L|315:289,1,65.6250025033952,2|2,3:2|0:0,0:0:0:0:
425,361,3478,2,0,L|429:295,1,65.6250025033952,10|2,0:1|0:0,0:0:0:0:
309,210,3823,2,0,L|315:289,1,65.6250025033952,8|2,0:1|0:0,0:0:0:0:
425,361,4168,2,0,L|429:295,1,65.6250025033952,8|2,0:1|0:0,0:0:0:0:
403,86,4512,6,0,L|399:152,2,65.6250025033952,10|2|10,0:1|0:0|0:1,0:0:0:0:
466,211,5030,1,2,0:0:0:0:
316,159,5202,2,0,B|234:151|270:183|183:173,1,131.25000500679,10|8,0:1|0:1,0:0:0:0:
24,34,5892,6,0,P|35:81|41:171,1,131.25000500679,2|8,3:2|0:1,0:0:0:0:
14,264,6409,1,2,0:0:0:0:
14,264,6581,2,0,P|59:244|101:241,1,65.6250025033952,8|0,0:1|0:0,0:0:0:0:
135,309,6926,6,0,P|199:337|258:341,1,131.25000500679,10|8,0:1|0:1,0:0:0:0:
327,288,7443,1,2,0:0:0:0:
327,288,7616,2,0,P|325:255|320:217,1,65.6250025033952,8|0,0:1|0:0,0:0:0:0:
298,121,7961,2,0,P|339:139|369:146,1,65.6250025033952,10|0,0:1|0:0,0:0:0:0:
445,112,8306,1,10,0:1:0:0:
446,248,8478,1,0,3:2:0:0:
446,248,8650,6,0,P|393:225|292:230,1,131.25000500679,2|10,3:2|0:1,0:0:0:0:
237,333,9168,2,0,P|250:280|248:250,1,65.6250025033952,2|8,0:0|0:1,0:0:0:0:
122,236,9512,2,0,P|161:273|188:287,1,65.6250025033952,2|8,0:0|0:1,0:0:0:0:
197,195,9857,1,2,0:0:0:0:
55,350,10030,6,0,L|46:227,1,98.4375037550928,0|0,3:2|3:2,0:0:0:0:
47,221,10375,1,10,0:0:0:0:
191,295,10547,2,0,P|254:270|309:266,1,98.4375037550928,10|8,0:3|0:0,0:0:0:0:
312,272,10892,1,10,0:0:0:0:
403,158,11064,1,10,0:3:0:0:
401,141,11150,1,10,0:0:0:0:
399,124,11236,1,10,0:0:0:0:
397,107,11322,1,10,0:0:0:0:
396,91,11409,6,0,B|296:112|319:66|218:81,1,175,6|8,3:2|0:0,0:0:0:0:
349,13,11926,1,0,0:0:0:0:
271,164,12099,1,0,3:2:0:0:
190,68,12271,1,0,3:2:0:0:
129,200,12443,2,0,P|130:250|137:289,1,87.5,10|2,0:0|0:0,0:0:0:0:
352,364,12788,6,0,P|302:327|219:339,1,131.25,2|0,3:2|0:0,0:0:0:0:
217,355,13133,1,8,0:0:0:0:
270,227,13306,2,0,P|277:177|275:128,1,87.5,2|0,0:0|3:0,0:0:0:0:
223,17,13650,1,0,3:0:0:0:
156,145,13823,2,0,P|106:182|23:170,1,131.25,10|0,0:0|0:0,0:0:0:0:
10,168,14168,6,0,P|10:220|19:273,1,87.5,2|0,3:2|0:0,0:0:0:0:
124,352,14512,2,0,P|131:308|133:247,1,87.5,8|0,0:0|3:0,0:0:0:0:
83,93,14857,1,2,3:2:0:0:
247,182,15030,1,2,3:2:0:0:
190,8,15202,2,0,P|183:52|181:113,1,87.5,8|0,0:0|0:0,0:0:0:0:
280,283,15547,6,0,P|277:239|270:196,1,87.5,2|0,3:2|0:0,0:0:0:0:
222,12,15892,1,14,0:0:0:0:
366,51,16064,1,0,3:0:0:0:
270,170,16237,1,2,3:2:0:0:
303,0,16409,1,2,3:2:0:0:
336,262,16581,1,14,0:0:0:0:
293,91,16754,1,2,3:2:0:0:
293,91,16840,1,2,0:0:0:0:
293,91,16926,5,2,3:2:0:0:
263,325,17099,1,2,0:0:0:0:
420,222,17271,1,10,0:0:0:0:
226,175,17443,6,0,L|40:202,1,175,2|2,3:2|3:2,0:0:0:0:
240,263,17961,1,10,0:0:0:0:
155,79,18133,6,0,L|328:104,1,175,2|2,3:2|3:2,0:0:0:0:
141,167,18651,1,10,0:0:0:0:
306,337,18823,6,0,P|254:270|287:169,1,175,2|2,0:0|3:2,0:0:0:0:
343,251,19340,1,10,0:0:0:0:
121,158,19512,1,6,3:2:0:0:
121,158,19857,5,8,0:0:0:0:
183,343,20030,1,8,0:3:0:0:
244,203,20202,1,2,3:2:0:0:
40,293,20375,5,8,0:0:0:0:
40,293,20461,1,8,0:0:0:0:
40,293,20547,1,10,0:0:0:0:
123,136,20719,1,8,0:0:0:0:
210,372,20892,1,2,3:2:0:0:
207,341,20978,1,0,3:2:0:0:
205,310,21064,1,14,0:0:0:0:
247,234,21237,5,2,0:0:0:0:
320,181,21409,1,2,0:0:0:0:
404,220,21581,1,2,0:0:0:0:
483,181,21754,1,2,0:0:0:0:
483,96,21926,1,2,0:0:0:0:
461,62,22099,1,2,0:0:0:0:
435,49,22271,1,2,0:0:0:0:
416,56,22443,1,2,0:0:0:0:
415,134,22788,6,0,P|419:176|418:191,2,52.4999983978272,10|0|2,0:1|0:0|0:0,0:0:0:0:
346,94,23306,1,0,0:0:0:0:
346,94,23478,1,10,0:1:0:0:
346,94,23650,2,0,P|295:110|244:116,1,104.999996795654,2|0,0:0|0:0,0:0:0:0:
166,73,24168,1,10,0:1:0:0:
195,189,24340,1,2,0:0:0:0:
195,189,24685,6,0,P|200:227|196:263,1,52.4999983978272,2|10,0:0|0:1,0:0:0:0:
176,325,25030,1,2,3:2:0:0:
17,240,25202,2,0,P|69:236|117:257,1,104.999996795654,2|8,3:2|0:1,0:0:0:0:
176,325,25719,2,0,P|216:308|296:302,1,104.999996795654,2|2,0:0|0:0,0:0:0:0:
479,364,26409,2,0,L|467:243,1,104.999996795654,2|0,0:0|0:0,0:0:0:0:
395,204,26926,1,10,0:1:0:0:
276,300,27271,2,0,L|282:356,1,52.4999983978272,2|2,0:0|0:0,0:0:0:0:
377,191,27616,2,0,L|382:138,1,52.4999983978272,10|2,0:1|0:0,0:0:0:0:
231,26,27961,6,0,L|241:130,1,104.999996795654,2|8,3:2|0:1,0:0:0:0:
261,279,28650,1,2,0:0:0:0:
366,204,28995,1,10,0:1:0:0:
475,280,29340,2,0,L|464:384,1,104.999996795654,2|8,0:0|0:1,0:0:0:0:
272,234,30030,2,0,P|312:204|381:211,1,104.999996795654,2|8,0:0|0:1,0:0:0:0:
454,259,30547,1,0,3:2:0:0:
454,259,30719,6,0,L|443:154,2,104.999996795654,2|8|2,3:2|0:1|0:0,0:0:0:0:
392,308,31581,2,0,L|387:363,1,52.4999983978272,0|10,0:0|0:1,0:0:0:0:
314,254,31926,1,0,0:0:0:0:
253,325,32099,2,0,L|142:311,1,104.999996795654,10|10,3:0|3:0,0:0:0:0:
76,250,32616,2,0,P|108:205|104:147,1,104.999996795654,10|10,0:0|0:0,0:0:0:0:
28,63,33133,2,0,L|21:107,2,26.2499991989136,8|8|8,0:3|0:3|0:0,0:0:0:0:
163,5,33478,6,0,P|189:51|303:47,1,157.499995193482,6|10,3:2|0:0,0:0:0:0:
377,2,33995,1,2,0:0:0:0:
457,97,34168,2,0,L|442:186,1,78.7499975967408,2|0,3:2|3:2,0:0:0:0:
348,93,34512,1,10,0:0:0:0:
371,228,34685,6,0,L|398:389,1,157.499995193482,2|0,3:2|3:2,0:0:0:0:
452,197,35202,1,10,0:0:0:0:
294,311,35375,2,0,P|244:332|203:330,1,78.7499975967408,2|0,0:0|3:2,0:0:0:0:
75,280,35719,1,2,3:2:0:0:
235,247,35892,1,10,0:0:0:0:
91,367,36064,1,0,3:2:0:0:
142,207,36237,6,0,P|150:157|88:60,1,157.499995193482,2|10,3:2|0:0,0:0:0:0:
253,130,36754,2,0,L|164:114,1,78.7499975967408,2|0,0:0|3:2,0:0:0:0:
350,27,37099,2,0,L|261:43,1,78.7499975967408,2|8,3:2|0:0,0:0:0:0:
360,237,37443,6,0,P|339:164|390:103,1,157.499995193482,2|0,3:2|3:2,0:0:0:0:
496,163,37961,2,0,L|407:179,1,78.7499975967408,10|0,0:0|0:0,0:0:0:0:
262,209,38306,1,2,3:2:0:0:
477,248,38478,1,8,3:2:0:0:
350,28,38650,1,10,0:0:0:0:
484,78,38823,1,0,3:2:0:0:
381,260,38995,6,0,L|395:169,1,78.7499975967408,6|0,3:2|0:0,0:0:0:0:
323,22,39340,2,0,L|337:113,1,78.7499975967408,10|0,0:0|0:0,0:0:0:0:
299,262,39685,2,0,L|313:171,1,78.7499975967408,2|0,3:2|3:2,0:0:0:0:
241,24,40030,2,0,L|255:115,1,78.7499975967408,10|0,0:0|3:2,0:0:0:0:
205,334,40375,6,0,L|235:174,1,157.499995193482,2|10,3:2|0:0,0:0:0:0:
160,27,40892,2,0,L|174:118,1,78.7499975967408,2|0,0:0|3:2,0:0:0:0:
194,258,41237,1,0,3:2:0:0:
252,101,41409,1,10,0:0:0:0:
74,18,41581,6,0,L|92:137,1,118.124996395111,2|0,3:2|0:0,0:0:0:0:
97,168,41926,1,2,3:2:0:0:
144,240,42099,1,8,0:0:0:0:
232,247,42271,1,2,0:0:0:0:
311,191,42443,1,0,3:2:0:0:
210,85,42616,2,0,L|224:176,1,78.7499975967408,2|8,3:2|0:0,0:0:0:0:
261,355,42961,1,2,3:2:0:0:
317,159,43133,5,2,3:2:0:0:
167,341,43306,1,10,0:0:0:0:
446,281,43478,1,10,0:0:0:0:
230,189,43650,1,2,0:0:0:0:
370,367,43823,1,8,0:0:0:0:
399,171,43995,5,2,3:2:0:0:
396,190,44081,1,0,3:2:0:0:
394,210,44167,1,10,0:0:0:0:
309,124,44340,1,10,3:2:0:0:
502,72,44512,6,0,L|490:217,1,131.25000500679,6|0,3:2|0:0,0:0:0:0:
481,360,45202,2,0,P|426:327|344:337,1,131.25000500679,10|2,0:0|3:2,0:0:0:0:
298,380,45719,2,0,L|314:244,1,131.25000500679,2|2,3:2|0:0,0:0:0:0:
209,315,46237,1,2,3:2:0:0:
313,249,46409,1,0,0:0:0:0:
242,108,46581,2,0,L|230:191,1,65.6250025033952,10|0,0:0|0:0,0:0:0:0:
313,249,46926,1,2,3:2:0:0:
389,194,47099,1,2,0:0:0:0:
465,254,47271,6,0,L|449:384,1,131.25000500679,2|2,3:2|0:0,0:0:0:0:
368,309,47788,2,0,P|326:291|286:295,1,65.6250025033952,2|8,0:0|0:0,0:0:0:0:
227,358,48133,1,2,0:0:0:0:
227,358,48306,1,2,3:2:0:0:
155,292,48478,6,0,L|146:171,1,98.4375037550928,2|0,0:0|0:0,0:0:0:0:
146,162,48823,1,8,0:3:0:0:
54,231,48995,1,2,3:2:0:0:
8,78,49168,2,0,L|93:92,1,78.7499975967408,10|0,0:0|0:0,0:0:0:0:
310,135,49512,6,0,L|144:162,1,166.249995560646,6|2,3:2|0:0,0:0:0:0:
133,187,49943,1,8,0:0:0:0:
133,187,50030,1,6,3:2:0:0:
255,234,50202,5,0,0:0:0:0:
114,272,50375,1,2,3:2:0:0:
255,325,50547,2,0,L|327:308,1,74.3750014185906,2|8,0:0|0:0,0:0:0:0:
398,197,50892,5,2,0:0:0:0:
255,234,51065,1,2,0:0:0:0:
407,292,51237,2,0,L|479:275,1,74.3750014185906,2|0,3:2|0:0,0:0:0:0:
379,377,51581,5,10,0:0:0:0:
398,197,51754,1,2,3:2:0:0:
266,307,51926,2,0,L|251:215,1,74.3750014185906,2|8,0:0|0:0,0:0:0:0:
227,90,52271,1,2,0:0:0:0:
340,254,52443,1,6,0:0:0:0:
358,30,52616,1,2,0:0:0:0:
148,196,52788,6,0,B|206:166|206:166|319:187,1,148.750002837181,6|10,3:2|0:0,0:0:0:0:
224,333,53306,2,0,L|211:233,1,74.3750014185906,2|10,3:2|0:0,0:0:0:0:
193,62,53650,1,2,3:2:0:0:
348,129,53823,1,10,0:0:0:0:
237,245,53995,1,2,3:2:0:0:
336,379,54168,2,0,L|323:279,1,74.3750014185906,8|0,0:0|3:0,0:0:0:0:
321,123,54512,5,10,0:0:0:0:
451,203,54685,1,0,3:2:0:0:
405,44,54857,1,10,0:0:0:0:
347,236,55030,1,0,3:2:0:0:
291,26,55202,1,10,0:0:0:0:
508,99,55375,1,0,3:2:0:0:
151,212,55547,5,14,0:0:0:0:
425,127,55719,1,0,3:2:0:0:
425,127,55892,1,8,0:0:0:0:
86,16,56064,5,14,0:0:0:0:
212,333,56237,1,0,3:2:0:0:
212,333,56409,1,8,0:0:0:0:
310,31,56581,1,14,0:0:0:0:
310,31,56926,5,0,3:2:0:0:
372,230,57099,1,12,0:0:0:0:
372,230,57271,1,14,0:0:0:0:
403,28,57443,1,2,3:2:0:0:
270,146,57616,1,10,0:3:0:0:
176,8,57788,2,0,L|169:59,1,37.1875007092953,10|8,0:3|0:0,0:0:0:0:
141,207,57961,1,10,0:0:0:0:
141,207,58047,1,8,0:0:0:0:
141,207,58133,6,0,P|167:176|306:156,1,150.937502878904,6|0,3:2|0:0,0:0:0:0:
302,169,58478,2,0,L|291:63,1,100.62500191927,2|8,0:0|0:0,0:0:0:0:
251,244,58823,1,2,0:0:0:0:
396,158,58995,1,2,3:2:0:0:
201,75,59168,1,0,3:2:0:0:
390,16,59340,1,10,0:0:0:0:
276,219,59512,6,0,L|293:55,1,150.937502878904,2|0,0:0|0:0,0:0:0:0:
296,32,59857,1,2,3:2:0:0:
372,221,60030,1,10,0:0:0:0:
189,139,60202,1,0,0:0:0:0:
189,139,60288,1,0,0:0:0:0:
189,139,60375,1,2,3:2:0:0:
252,296,60547,1,0,3:2:0:0:
79,210,60719,2,0,L|183:229,1,100.62500191927,10|0,0:0|0:0,0:0:0:0:
369,147,61064,5,6,3:2:0:0:
268,101,61237,1,0,3:2:0:0:
303,235,61409,1,10,0:0:0:0:
448,35,61581,6,0,L|344:54,1,100.62500191927,6|0,3:2|0:0,0:0:0:0:
169,98,61926,1,2,3:2:0:0:
250,3,62099,1,8,0:0:0:0:
467,128,62271,6,0,L|363:147,1,100.62500191927,6|0,3:2|0:0,0:0:0:0:
187,192,62616,1,2,3:2:0:0:
268,102,62788,1,10,0:0:0:0:
481,261,62961,6,0,B|425:224|425:224|287:250,1,201.250003838539,6|0,3:2|3:2,0:0:0:0:
414,322,63478,1,8,0:0:0:0:
381,147,63650,1,2,3:2:0:0:
231,330,63823,6,0,L|335:349,1,100.62500191927,6|0,3:2|0:0,0:0:0:0:
498,371,64168,1,10,0:0:0:0:
381,147,64340,2,0,L|398:251,1,100.62500191927,2|0,3:2|0:0,0:0:0:0:
494,60,64685,2,0,L|476:164,1,100.62500191927,2|8,3:2|0:0,0:0:0:0:
443,314,65030,1,2,0:0:0:0:
301,144,65202,5,6,3:2:0:0:
475,200,65375,1,0,3:2:0:0:
353,317,65547,1,10,0:0:0:0:
395,74,65719,2,0,P|351:128|246:107,1,150.937502878904,6|0,3:2|0:0,0:0:0:0:
250,116,66064,1,2,3:2:0:0:
389,205,66237,1,8,0:0:0:0:
312,52,66409,1,2,3:2:0:0:
284,277,66581,6,0,P|259:227|123:200,1,201.250003838539,2|10,3:2|0:0,0:0:0:0:
195,384,67099,2,0,L|180:276,1,100.62500191927,2|0,3:2|3:2,0:0:0:0:
159,109,67443,1,2,3:2:0:0:
81,309,67616,1,10,0:0:0:0:
282,384,67788,6,0,L|261:232,1,150.937502878904,6|0,3:2|0:0,0:0:0:0:
257,206,68133,1,6,3:2:0:0:
195,384,68306,1,8,0:0:0:0:
352,251,68478,1,6,0:0:0:0:
181,285,68650,6,0,L|116:295,1,50.3125009596348,2|0,3:2|0:0,0:0:0:0:
95,294,68823,1,10,0:3:0:0:
62,271,68909,1,8,0:3:0:0:
46,235,68995,1,10,0:0:0:0:
53,196,69081,1,8,0:0:0:0:
81,167,69168,6,0,P|123:116|107:38,1,150.937502878904,6|0,3:2|0:0,0:0:0:0:
81,7,69512,2,0,L|207:21,1,100.62500191927,2|12,3:2|0:0,0:0:0:0:
398,30,69857,1,2,0:0:0:0:
193,113,70030,1,2,3:2:0:0:
382,146,70202,1,0,3:2:0:0:
181,18,70375,1,10,0:0:0:0:
231,223,70547,6,0,P|303:176|378:195,1,150.937502878904,2|0,3:2|0:0,0:0:0:0:
386,205,70892,1,2,3:2:0:0:
223,98,71064,1,10,0:0:0:0:
263,308,71237,1,2,3:2:0:0:
263,308,71323,1,0,3:2:0:0:
263,308,71409,1,0,3:2:0:0:
145,200,71581,1,2,3:2:0:0:
305,133,71754,1,10,0:0:0:0:
305,133,71926,1,2,0:0:0:0:
161,64,72099,5,2,3:2:0:0:
234,204,72271,1,0,0:0:0:0:
286,6,72443,1,14,0:0:0:0:
62,147,72616,1,2,0:0:0:0:
62,147,72702,1,8,0:0:0:0:
62,147,72788,1,0,3:2:0:0:
332,212,72961,1,2,3:2:0:0:
148,37,73133,1,12,0:0:0:0:
208,335,73306,6,0,L|230:216,1,100.62500191927,2|0,3:2|0:0,0:0:0:0:
114,20,73650,1,10,0:0:0:0:
144,218,73823,1,8,0:3:0:0:
331,19,73995,6,0,L|353:138,1,100.62500191927,2|0,3:2|0:0,0:0:0:0:
125,316,74340,2,0,L|147:197,1,100.62500191927,2|0,3:2|0:0,0:0:0:0:
314,373,74685,1,2,0:0:0:0:
256,61,74857,6,0,L|285:218,1,148.750002837181,6|2,3:2|0:0,0:0:0:0:
302,291,75375,1,2,3:2:0:0:
507,211,75547,2,0,B|409:201|452:239|349:227,1,148.750002837181,8|8,0:0|0:0,0:0:0:0:
141,132,76064,6,0,P|192:176|184:246,1,111.562502127886,6|0,3:2|0:0,0:0:0:0:
184,248,76409,1,10,0:0:0:0:
266,118,76581,1,10,0:0:0:0:
333,253,76754,1,2,3:2:0:0:
397,35,76926,1,8,0:0:0:0:
266,118,77099,2,0,L|451:146,1,185.937503546476,6|2,3:2|3:2,0:0:0:0:
479,151,77616,6,0,P|453:200|465:250,1,100.62500191927,2|0,3:2|0:0,0:0:0:0:
504,376,77961,2,8,P|460:341|408:345,1,100.62500191927,10|0,0:0|3:2,0:0:0:0:
237,379,78306,1,10,0:0:0:0:
367,261,78478,1,0,3:2:0:0:
367,261,78650,1,10,0:0:0:0:
230,149,78823,6,0,L|248:261,1,100.62500191927,0|2,3:2|0:0,0:0:0:0:
301,99,79168,1,0,3:0:0:0:
172,311,79340,2,0,L|136:87,1,201.250003838539,14|0,0:0|3:0,0:0:0:0:
87,314,79857,1,10,0:0:0:0:
320,177,80030,1,12,0:0:0:0:
218,75,80202,6,0,L|251:284,1,175,6|0,3:2|3:2,0:0:0:0:
266,366,80719,2,0,P|318:328|351:329,1,87.5,2|0,0:0|3:0,0:0:0:0:
456,360,81064,2,0,P|437:319|438:278,2,87.5,10|2|2,0:0|0:0|0:0,0:0:0:0:
484,175,81581,2,0,P|456:229|338:225,1,175,2|8,3:2|0:0,0:0:0:0:
376,84,82099,2,0,P|398:133|398:172,1,87.5,2|0,0:0|3:0,0:0:0:0:
348,323,82443,1,10,0:0:0:0:
319,148,82616,1,0,3:0:0:0:
442,254,82788,1,2,0:0:0:0:
464,66,82961,1,2,3:2:0:0:
296,230,83133,6,0,P|318:181|318:142,1,87.5,6|8,3:2|0:0,0:0:0:0:
236,19,83478,1,0,0:0:0:0:
376,87,83650,1,2,3:2:0:0:
376,87,83737,1,0,3:2:0:0:
376,87,83823,1,8,0:0:0:0:
154,152,83995,2,0,L|263:169,1,87.5,2|0,0:0|3:2,0:0:0:0:
407,190,84340,6,0,P|369:238|416:343,1,175,2|8,3:2|0:3,0:0:0:0:
453,263,84857,1,10,0:0:0:0:
312,364,85030,1,0,3:0:0:0:
312,364,85116,1,0,3:0:0:0:
312,364,85202,1,8,0:0:0:0:
346,181,85375,1,0,3:2:0:0:
346,181,85461,1,8,0:3:0:0:
346,181,85547,2,0,L|354:129,3,43.75,8|8|8|8,0:3|0:0|0:0|0:0,0:0:0:0:
336,221,85892,6,0,P|272:237|201:128,1,201.250003838539,6|10,3:2|0:0,0:0:0:0:
144,268,86409,1,0,0:0:0:0:
144,268,86495,1,8,0:0:0:0:
144,268,86581,1,2,3:2:0:0:
280,153,86754,1,0,3:0:0:0:
147,31,86926,2,0,L|162:137,1,100.62500191927,10|0,0:0|3:0,0:0:0:0:
259,287,87271,6,0,L|274:181,1,100.62500191927,2|0,0:0|3:0,0:0:0:0:
291,49,87616,1,8,0:0:0:0:
161,130,87788,2,0,L|146:24,1,100.62500191927,2|0,0:0|3:0,0:0:0:0:
141,0,88047,1,8,0:0:0:0:
141,0,88133,1,2,3:2:0:0:
291,49,88306,1,8,0:0:0:0:
161,130,88478,1,0,3:0:0:0:
259,287,88650,5,6,3:2:0:0:
273,187,88823,1,0,3:2:0:0:
356,356,88995,5,2,3:2:0:0:
147,263,89168,1,0,3:2:0:0:
341,126,89340,5,10,0:0:0:0:
239,384,89512,1,8,0:0:0:0:
274,36,89685,5,10,0:0:0:0:
430,338,89857,1,10,0:0:0:0:
423,19,90030,6,0,L|413:90,1,50.3125009596348,10|0,0:0|3:2,0:0:0:0:
318,290,90202,2,0,L|310:240,1,50.3125009596348,8|8,0:3|0:3,0:0:0:0:
190,18,90375,1,8,0:0:0:0:
184,55,90461,1,8,0:0:0:0:
179,92,90547,1,8,0:0:0:0:
174,130,90633,1,8,0:0:0:0:
168,167,90719,1,10,0:0:0:0:
225,241,90892,1,2,0:0:0:0:
140,367,91064,5,2,0:0:0:0:
142,348,91150,1,2,0:0:0:0:
145,329,91236,1,2,0:0:0:0:
147,311,91322,1,2,0:0:0:0:
150,292,91409,6,0,P|200:326|311:262,1,175,6|8,3:2|0:0,0:0:0:0:
185,164,91926,2,0,P|222:227|223:277,1,87.5,2|0,0:0|3:2,0:0:0:0:
104,191,92271,1,0,3:2:0:0:
172,83,92443,2,0,P|241:107|274:145,1,87.5,10|0,0:0|0:0,0:0:0:0:
67,43,92788,6,0,P|182:0|265:12,1,175,2|8,3:2|0:0,0:0:0:0:
251,115,93306,2,0,P|214:92|172:83,1,87.5,2|2,0:0|3:2,0:0:0:0:
104,191,93650,1,0,3:2:0:0:
224,240,93823,2,0,P|211:198|185:164,1,87.5,10|0,0:0|0:0,0:0:0:0:
269,358,94168,6,0,P|303:275|307:186,1,175,2|10,3:2|0:0,0:0:0:0:
284,92,94685,1,2,0:0:0:0:
394,175,94857,1,0,3:2:0:0:
224,240,95030,2,0,P|152:218|39:223,1,175,2|0,3:2|0:0,0:0:0:0:
173,314,95547,2,0,P|130:302|87:302,1,87.5,2|0,3:2|0:0,0:0:0:0:
340,371,95892,6,0,L|325:253,1,87.5,14|2,0:0|0:0,0:0:0:0:
309,128,96237,1,0,3:2:0:0:
252,339,96409,1,2,3:2:0:0:
405,233,96581,1,8,0:0:0:0:
278,143,96754,1,0,3:0:0:0:
437,17,96926,6,0,L|429:115,1,87.5,6|0,3:2|0:0,0:0:0:0:
414,305,97271,1,10,0:0:0:0:
503,179,97443,1,2,0:0:0:0:
345,246,97616,1,2,3:2:0:0:
307,68,97788,6,0,P|361:120|372:166,1,87.5,2|8,3:2|0:0,0:0:0:0:
193,133,98133,2,0,P|268:138|306:166,1,87.5,2|0,0:0|3:2,0:0:0:0:
103,95,98478,2,0,P|164:50|211:47,1,87.5,2|8,3:2|0:0,0:0:0:0:
102,257,98823,2,0,P|120:183|154:151,1,87.5,2|0,3:2|3:2,0:0:0:0:
51,339,99168,2,0,P|17:270|23:224,1,87.5,2|8,3:2|0:0,0:0:0:0:
100,100,99512,6,0,B|144:140|144:140|241:126,1,131.25,2|0,3:2|0:0,0:0:0:0:
244,123,99857,1,0,3:0:0:0:
216,259,100030,1,10,0:0:0:0:
327,195,100202,1,0,3:0:0:0:
389,335,100375,1,0,3:2:0:0:
216,259,100547,5,2,3:2:0:0:
231,344,100719,1,10,0:0:0:0:
205,169,100892,1,2,3:2:0:0:
205,169,101237,5,10,0:0:0:0:
231,344,101409,1,10,0:0:0:0:
194,81,101581,1,2,3:2:0:0:
231,344,101754,1,8,0:0:0:0:
286,126,101926,1,2,3:2:0:0:
286,126,102012,1,0,3:0:0:0:
286,126,102099,2,0,L|292:78,3,43.75,10|10|10|10,0:0|0:0|0:0|0:0,0:0:0:0:
279,162,102443,6,0,P|229:128|118:192,1,175,6|8,3:2|0:0,0:0:0:0:
244,290,102960,2,0,P|207:227|206:177,1,87.5,2|0,0:0|3:2,0:0:0:0:
325,263,103305,1,2,3:2:0:0:
257,371,103477,2,0,P|188:347|155:309,1,87.5,10|0,0:0|3:0,0:0:0:0:
409,250,103823,6,0,P|294:293|211:280,1,175,2|8,0:0|0:0,0:0:0:0:
199,179,104340,2,0,P|236:202|278:211,1,87.5,2|0,0:0|3:2,0:0:0:0:
370,128,104684,1,0,3:2:0:0:
234,46,104857,2,0,P|247:88|273:122,1,87.5,10|0,0:0|3:0,0:0:0:0:
168,0,105202,6,0,P|134:83|130:172,1,175,2|8,3:2|0:0,0:0:0:0:
181,341,105719,1,0,3:0:0:0:
44,263,105891,1,2,3:2:0:0:
218,191,106064,2,0,P|290:169|403:174,1,175,2|0,3:2|0:0,0:0:0:0:
511,232,106581,5,2,3:2:0:0:
388,288,106754,1,2,0:0:0:0:
455,106,106926,1,10,0:0:0:0:
511,232,107099,1,2,3:2:0:0:
511,232,107271,1,0,3:2:0:0:
352,68,107443,1,10,0:0:0:0:
404,314,107615,1,10,0:0:0:0:
271,228,107788,1,2,3:2:0:0:
271,228,107875,1,2,3:2:0:0:
271,228,107961,5,6,3:2:0:0:
288,343,108133,1,2,0:0:0:0:
256,112,108306,1,10,0:0:0:0:
271,228,108478,2,0,L|158:212,1,87.5,6|0,3:2|0:0,0:0:0:0:
88,201,108823,5,2,3:2:0:0:
193,315,108995,1,10,0:0:0:0:
166,119,109168,2,0,L|150:6,1,87.5,6|0,3:2|0:0,0:0:0:0:
256,112,109512,5,2,3:2:0:0:
70,86,109685,1,10,0:0:0:0:
248,6,109857,2,0,L|334:18,1,87.5,6|0,0:0|3:2,0:0:0:0:
243,143,110202,1,2,3:2:0:0:
243,143,110288,1,0,3:0:0:0:
243,143,110375,1,10,0:0:0:0:
360,327,110547,6,0,L|340:173,1,131.25,6|0,3:2|0:0,0:0:0:0:
336,165,110892,1,8,0:0:0:0:
261,332,111064,1,10,0:3:0:0:
431,258,111237,1,2,3:2:0:0:
209,232,111409,5,8,0:0:0:0:
189,230,111495,1,8,0:0:0:0:
170,227,111581,1,10,0:0:0:0:
261,332,111754,1,0,3:2:0:0:
135,134,111926,5,10,0:0:0:0:
115,136,112012,1,8,0:0:0:0:
96,139,112098,1,14,0:0:0:0:
213,71,113133,1,0,0:0:0:0:
213,71,113306,1,0,0:0:0:0:
213,71,113478,6,0,P|241:88|297:96,1,65.6250025033952,2|2,3:2|0:0,0:0:0:0:
345,37,113822,2,0,P|376:28|409:29,1,65.6250025033952,10|2,0:1|0:0,0:0:0:0:
406,165,114167,2,0,P|383:141|354:125,1,65.6250025033952,8|2,0:1|0:0,0:0:0:0:
329,214,114512,2,0,P|337:245|354:273,1,65.6250025033952,8|2,0:1|0:0,0:0:0:0:
237,350,114857,6,0,P|245:318|262:290,1,65.6250025033952,2|2,3:2|0:0,0:0:0:0:
329,214,115202,2,0,P|296:214|243:193,1,65.6250025033952,10|2,0:1|0:0,0:0:0:0:
186,159,115546,2,0,P|208:135|237:119,1,65.6250025033952,8|2,0:1|0:0,0:0:0:0:
317,131,115891,1,8,0:1:0:0:
285,51,116064,1,2,3:2:0:0:
411,20,116237,6,0,P|384:50|351:64,1,65.6250025033952,2|2,3:2|0:0,0:0:0:0:
436,126,116581,2,0,P|458:170|459:197,1,65.6250025033952,10|2,0:1|0:0,0:0:0:0:
399,253,116926,2,0,P|367:233|264:236,1,131.25000500679,10|8,0:1|0:1,0:0:0:0:
184,288,117443,1,0,0:0:0:0:
198,190,117616,2,0,P|202:152|156:60,1,131.25000500679,2|10,3:2|0:1,0:0:0:0:
112,147,118133,1,0,0:0:0:0:
283,109,118305,2,0,B|365:101|329:133|416:123,1,131.25000500679,10|8,0:1|0:1,0:0:0:0:
322,325,118995,6,0,P|318:259|304:195,1,131.25000500679,2|10,3:2|0:1,0:0:0:0:
283,109,119512,1,2,0:0:0:0:
200,143,119684,2,0,P|168:135|139:120,1,65.6250025033952,8|2,0:1|0:0,0:0:0:0:
24,209,120030,2,0,P|53:193|84:186,1,65.6250025033952,8|2,0:1|0:0,0:0:0:0:
145,253,120375,6,0,P|177:273|280:270,1,131.25000500679,2|10,3:2|0:1,0:0:0:0:
343,232,120892,1,2,0:0:0:0:
307,150,121064,2,0,P|303:117|307:84,1,65.6250025033952,8|2,0:1|0:0,0:0:0:0:
327,7,121409,1,8,0:1:0:0:
389,77,121581,1,2,3:2:0:0:
240,33,121754,6,0,P|206:28|150:36,1,65.6250025033952,2|2,3:2|0:0,0:0:0:0:
99,71,122099,2,0,P|122:104|127:133,1,65.6250025033952,10|2,0:1|0:0,0:0:0:0:
112,232,122443,2,0,P|163:202|252:195,1,131.25000500679,10|8,0:1|0:1,0:0:0:0:
302,248,122961,1,2,0:0:0:0:
355,177,123133,6,0,P|349:142|348:97,2,65.6250025033952,2|0|10,3:2|0:0|0:1,0:0:0:0:
302,248,123650,1,2,0:0:0:0:
373,305,123823,1,10,0:1:0:0:
373,305,123995,1,0,0:0:0:0:
425,235,124168,1,10,0:1:0:0:
355,177,124340,1,2,0:0:0:0:
