osu file format v14

[General]
AudioFilename: audio.mp3
AudioLeadIn: 0
PreviewTime: 57443
Countdown: 0
SampleSet: Soft
StackLeniency: 0.3
Mode: 0
LetterboxInBreaks: 0
WidescreenStoryboard: 1

[Editor]
DistanceSpacing: 1.2
BeatDivisor: 4
GridSize: 16
TimelineZoom: 1.7

[Metadata]
Title:Hoshi Ori Yume Mirai
TitleUnicode:星織ユメミライ
Artist:Ceui
ArtistUnicode:Ceui
Creator:Illyasviel
Version:Dored's Expert
Source:星織ユメミライ
Tags:eroge opening dored irya [xv] log off now eiri- ayyri lafayla ocean girl sunset smile akitoshi -laura- Star Weaving Dreaming of the Future narusawa rikka hino ryousuke tone work's galgame hazu- japanese visual novel vn video game
BeatmapID:2093705
BeatmapSetID:1000344

[Difficulty]
HPDrainRate:5.5
CircleSize:4.2
OverallDifficulty:8.8
ApproachRate:9.2
SliderMultiplier:1.8
SliderTickRate:1

[Events]
//Background and Video events
0,0,"0000.jpg",0,0
//Break Periods
//Storyboard Layer 0 (Background)
//Storyboard Layer 1 (Fail)
//Storyboard Layer 2 (Pass)
//Storyboard Layer 3 (Foreground)
//Storyboard Layer 4 (Overlay)
//Storyboard Sound Samples

[TimingPoints]
375,344.827586206897,4,2,1,45,1,0
375,-125,4,2,1,45,0,0
10030,-111.111111111111,4,2,1,45,0,0
11409,-100,4,2,1,55,0,0
17702,-100,4,2,1,5,0,0
17788,-100,4,2,1,55,0,0
18392,-100,4,2,1,5,0,0
18478,-100,4,2,1,55,0,0
19081,-100,4,2,1,5,0,0
19168,-100,4,2,1,55,0,0
19771,-100,4,2,1,5,0,0
19857,-100,4,2,1,55,0,0
21064,-111.111111111111,4,2,1,53,0,0
21409,-111.111111111111,4,2,1,51,0,0
21754,-111.111111111111,4,2,1,49,0,0
22099,-111.111111111111,4,2,1,47,0,0
22443,-125,4,2,1,45,0,0
33478,-100,4,2,1,50,0,0
40633,-100,4,2,1,5,0,0
40719,-100,4,2,1,50,0,0
44426,-100,4,2,1,5,0,0
44512,-125,4,2,1,50,0,0
49512,-90.9090909090909,4,2,1,50,0,0
50030,-111.111111111111,4,2,1,50,0,0
52788,-100,4,2,1,60,0,0
58133,-90.9090909090909,4,2,1,60,0,1
58392,-90.9090909090909,4,2,1,5,0,1
58478,-90.9090909090909,4,2,1,60,0,1
59771,-90.9090909090909,4,2,1,5,0,1
59857,-90.9090909090909,4,2,1,60,0,1
60719,-200,4,2,1,60,0,1
60978,-200,4,2,1,5,0,1
61064,-90.9090909090909,4,2,1,60,0,1
61840,-90.9090909090909,4,2,1,5,0,1
61926,-90.9090909090909,4,2,1,60,0,1
62530,-90.9090909090909,4,2,1,5,0,1
62616,-90.9090909090909,4,2,1,60,0,1
66840,-90.9090909090909,4,2,1,5,0,1
66926,-90.9090909090909,4,2,1,60,0,1
69168,-90.9090909090909,4,2,1,60,0,1
69426,-90.9090909090909,4,2,1,5,0,1
69512,-90.9090909090909,4,2,1,60,0,1
70806,-90.9090909090909,4,2,1,5,0,1
70892,-90.9090909090909,4,2,1,60,0,1
73564,-90.9090909090909,4,2,1,5,0,1
73650,-90.9090909090909,4,2,1,60,0,1
74254,-90.9090909090909,4,2,1,5,0,1
74340,-90.9090909090909,4,2,1,60,0,1
74599,-90.9090909090909,4,2,1,5,0,1
74685,-90.9090909090909,4,2,1,60,0,1
76323,-90.9090909090909,4,2,1,5,0,1
76409,-90.9090909090909,4,2,1,60,0,1
80202,-100,4,2,1,50,0,0
85892,-90.9090909090909,4,2,1,60,0,1
86150,-90.9090909090909,4,2,1,5,0,1
86237,-90.9090909090909,4,2,1,60,0,1
88650,-90.9090909090909,4,2,1,50,0,1
88995,-90.9090909090909,4,2,1,55,0,1
89340,-90.9090909090909,4,2,1,60,0,1
89685,-90.9090909090909,4,2,1,65,0,1
90719,-90.9090909090909,4,2,1,45,0,0
91409,-100,4,2,1,55,0,0
94081,-100,4,2,1,5,0,0
94168,-100,4,2,1,55,0,0
95806,-100,4,2,1,5,0,0
95892,-100,4,2,1,55,0,0
101150,-100,4,2,1,5,0,0
101237,-100,4,2,1,55,0,0
105116,-100,4,2,1,5,0,0
105202,-100,4,2,1,55,0,0
108737,-100,4,2,1,5,0,0
108823,-100,4,2,1,55,0,0
109426,-100,4,2,1,5,0,0
109512,-100,4,2,1,55,0,0
110116,-100,4,2,1,5,0,0
110202,-100,4,2,1,55,0,0
110806,-100,4,2,1,5,0,0
110892,-100,4,2,1,55,0,0
113133,-125,4,2,1,48,0,0
124857,-125,4,2,1,5,0,0

[Colours]
Combo1 : 242,161,114
Combo2 : 252,122,145
Combo3 : 112,85,204
Combo4 : 171,131,186
Combo5 : 85,166,217

[HitObjects]
64,320,375,6,0,P|19:266|33:198,1,144,2|10,3:2|0:1,0:0:0:0:
193,157,892,1,2,0:0:0:0:
106,135,1064,2,0,P|112:170|118:205,1,72,8|2,0:1|0:0,0:0:0:0:
184,315,1409,2,0,P|190:280|196:245,1,72,8|2,0:1|0:0,0:0:0:0:
335,183,1754,6,0,P|264:169|193:157,1,144,10|10,0:1|0:1,0:0:0:0:
283,253,2271,1,2,0:0:0:0:
421,193,2443,2,0,P|456:187|491:181,1,72,8|2,0:1|0:0,0:0:0:0:
369,263,2788,1,8,0:1:0:0:
439,315,2961,1,2,3:2:0:0:
335,183,3133,6,0,P|348:112|360:41,1,144,2|10,3:2|0:1,0:0:0:0:
447,35,3650,1,2,0:0:0:0:
281,90,3823,2,0,P|245:94|211:83,1,72,8|2,0:1|0:0,0:0:0:0:
95,2,4168,2,0,P|131:-2|165:9,1,72,8|2,0:1|0:0,0:0:0:0:
136,156,4512,6,0,P|130:121|124:86,1,72,10|2,0:1|0:0,0:0:0:0:
211,83,4857,1,10,0:1:0:0:
48,158,5030,1,2,0:0:0:0:
181,231,5202,2,0,P|216:237|251:243,1,72,10|2,0:1|0:0,0:0:0:0:
130,318,5547,2,0,P|95:324|60:330,1,72,8|2,0:1|0:0,0:0:0:0:
328,267,5892,6,0,P|317:198|257:163,1,144,2|8,3:2|0:1,0:0:0:0:
222,362,6409,2,0,P|293:348|364:336,1,144,2|0,0:0|0:0,0:0:0:0:
483,205,6926,2,0,P|411:193|341:180,1,144,10|8,0:1|0:1,0:0:0:0:
222,40,7443,2,0,P|274:85|342:72,1,144,2|0,0:0|0:0,0:0:0:0:
438,27,7961,2,0,P|444:62|450:97,1,72,10|0,0:1|0:0,0:0:0:0:
341,180,8306,1,10,0:1:0:0:
455,124,8478,1,0,3:2:0:0:
257,163,8650,6,0,P|186:176|115:189,1,144,2|10,3:2|0:1,0:0:0:0:
232,294,9168,2,0,P|258:268|284:244,1,72,2|8,0:0|0:1,0:0:0:0:
386,330,9512,2,0,P|377:295|368:260,1,72,2|8,0:0|0:1,0:0:0:0:
341,180,9857,1,2,0:0:0:0:
298,356,10030,6,0,L|307:316,1,40.4999987640381,0|0,3:0|3:0,0:0:0:0:
341,180,10202,1,0,3:2:0:0:
343,172,10288,1,0,3:2:0:0:
345,164,10375,1,10,0:0:0:0:
193,303,10547,6,0,L|233:294,1,40.4999987640381,10|8,0:3|0:3,0:0:0:0:
368,261,10719,1,8,0:0:0:0:
377,259,10806,1,8,0:0:0:0:
386,257,10892,1,10,0:0:0:0:
256,163,11065,5,10,0:3:0:0:
228,166,11151,1,10,0:0:0:0:
201,161,11237,1,10,0:0:0:0:
178,146,11323,1,10,0:0:0:0:
161,125,11409,6,0,P|178:213|192:302,1,180,6|8,3:2|0:0,0:0:0:0:
298,356,11926,1,0,0:0:0:0:
112,318,12099,2,0,P|69:329|39:362,1,90,0|0,3:2|3:2,0:0:0:0:
279,245,12443,2,0,P|323:253|367:260,1,90,10|2,0:0|0:0,0:0:0:0:
87,185,12788,6,0,P|69:99|127:35,1,180,2|8,3:2|0:0,0:0:0:0:
271,74,13306,2,0,P|263:118|255:162,1,90,2|0,0:0|3:0,0:0:0:0:
161,125,13650,1,0,3:0:0:0:
351,75,13823,2,0,P|340:31|307:2,1,90,10|0,0:0|0:0,0:0:0:0:
254,162,14168,6,0,P|298:169|342:177,1,90,2|0,3:2|0:0,0:0:0:0:
439,90,14512,2,0,P|394:82|350:74,1,90,8|0,0:0|3:0,0:0:0:0:
453,280,14857,1,2,3:2:0:0:
500,181,15030,1,2,3:2:0:0:
367,260,15202,2,0,P|343:297|343:341,1,90,8|0,0:0|0:0,0:0:0:0:
254,162,15547,6,0,P|209:170|165:177,1,90,2|0,3:2|0:0,0:0:0:0:
92,306,15892,1,14,0:0:0:0:
287,157,16064,1,0,3:0:0:0:
65,128,16237,1,2,3:2:0:0:
278,276,16409,1,2,3:2:0:0:
28,225,16581,1,14,0:0:0:0:
216,84,16753,1,2,3:2:0:0:
227,65,16840,1,2,0:0:0:0:
238,46,16926,5,2,3:2:0:0:
128,241,17099,1,2,0:0:0:0:
49,25,17271,1,10,0:0:0:0:
287,157,17443,6,0,P|353:145|419:132,1,135,2|0,3:2|0:0,0:0:0:0:
442,128,17788,1,2,3:2:0:0:
278,276,17961,1,10,0:0:0:0:
80,104,18133,6,0,P|26:141|19:206,1,135,2|0,3:2|0:0,0:0:0:0:
28,225,18477,1,2,3:2:0:0:
216,84,18650,1,10,0:0:0:0:
219,348,18823,6,0,P|159:376|100:349,1,135,2|0,0:0|0:0,0:0:0:0:
88,330,19168,1,2,3:2:0:0:
254,162,19340,1,10,0:0:0:0:
49,25,19512,6,0,P|62:91|73:157,1,135,6|0,3:2|0:0,0:0:0:0:
77,180,19857,1,8,0:0:0:0:
216,84,20030,1,8,0:3:0:0:
159,303,20202,1,2,3:2:0:0:
329,178,20374,1,8,0:0:0:0:
335,173,20461,1,8,0:0:0:0:
341,168,20547,1,10,0:0:0:0:
285,380,20719,1,8,0:0:0:0:
455,256,20891,1,2,3:2:0:0:
461,251,20978,1,0,3:2:0:0:
467,246,21064,5,14,0:0:0:0:
349,262,21237,1,2,0:0:0:0:
250,197,21409,1,2,0:0:0:0:
215,83,21581,1,2,0:0:0:0:
274,168,21754,5,2,0:0:0:0:
266,271,21926,1,2,0:0:0:0:
194,346,22099,1,2,0:0:0:0:
90,358,22271,1,2,0:0:0:0:
1,301,22443,5,2,0:0:0:0:
14,230,22788,2,0,L|1:300,1,72,10|0,0:1|0:0,0:0:0:0:
116,206,23133,2,0,L|103:276,1,72,2|0,0:0|0:0,0:0:0:0:
44,129,23478,1,10,0:1:0:0:
103,276,23650,6,0,P|159:315|227:295,1,144,2|0,0:0|0:0,0:0:0:0:
280,202,24168,1,10,0:1:0:0:
217,117,24340,2,0,P|181:110|146:104,1,72,2|0,0:0|0:0,0:0:0:0:
280,202,24685,2,0,P|315:195|350:189,1,72,2|10,0:0|0:1,0:0:0:0:
227,294,25030,1,0,3:2:0:0:
217,117,25202,6,0,P|287:104|358:91,1,144,2|8,3:2|0:1,0:0:0:0:
423,8,25719,1,2,0:0:0:0:
463,146,25892,2,0,L|450:216,1,72,0|2,0:0|0:0,0:0:0:0:
350,188,26237,1,8,0:1:0:0:
499,300,26409,6,0,P|442:259|373:277,1,144,2|0,0:0|0:0,0:0:0:0:
310,359,26926,2,0,P|345:365|380:372,1,72,10|0,0:1|0:0,0:0:0:0:
227,294,27271,2,0,L|214:224,1,72,2|2,0:0|0:0,0:0:0:0:
146,104,27616,1,10,0:1:0:0:
214,223,27788,1,2,0:0:0:0:
175,28,27961,6,0,P|105:35|66:93,1,144,2|8,3:2|0:1,0:0:0:0:
66,92,28650,2,0,B|31:123|31:123|54:217,1,144,2|10,0:0|0:1,0:0:0:0:
227,294,29340,6,0,P|156:306|85:320,1,144,2|8,0:0|0:1,0:0:0:0:
134,220,29857,1,0,0:0:0:0:
214,364,30030,2,0,P|220:329|227:294,1,72,2|0,0:0|0:0,0:0:0:0:
284,185,30375,1,8,0:1:0:0:
134,220,30547,1,0,3:2:0:0:
315,261,30719,6,0,P|360:207|348:137,2,144,2|8|2,3:2|0:1|0:0,0:0:0:0:
214,223,31581,1,0,0:0:0:0:
288,363,31754,2,0,L|358:376,1,72,10|0,0:1|0:0,0:0:0:0:
462,350,32099,5,10,3:0:0:0:
329,269,32271,1,0,3:2:0:0:
322,265,32357,1,0,3:2:0:0:
315,261,32443,1,10,3:0:0:0:
467,225,32616,2,0,P|475:171|484:118,1,108,10|0,0:0|3:2,0:0:0:0:
488,93,32961,1,10,0:0:0:0:
348,138,33133,1,8,0:3:0:0:
322,135,33219,1,8,0:3:0:0:
298,123,33306,1,8,0:0:0:0:
279,103,33391,1,8,0:0:0:0:
269,78,33478,6,0,P|314:5|399:16,1,180,6|10,3:2|0:0,0:0:0:0:
348,138,33995,1,2,0:0:0:0:
177,116,34168,2,0,P|132:108|88:100,1,90,2|0,3:2|3:2,0:0:0:0:
269,78,34512,1,10,0:0:0:0:
40,16,34685,6,0,P|57:104|71:193,1,180,2|0,3:2|3:2,0:0:0:0:
177,116,35202,1,10,0:0:0:0:
128,288,35375,2,0,P|83:279|39:272,1,90,2|0,0:0|3:2,0:0:0:0:
260,209,35719,1,2,3:2:0:0:
199,350,35892,1,10,0:0:0:0:
165,201,36065,1,0,3:2:0:0:
279,301,36237,6,0,P|360:327|418:264,1,180,2|10,3:2|0:0,0:0:0:0:
452,127,36754,2,0,P|407:135|363:142,1,90,2|0,0:0|3:2,0:0:0:0:
256,119,37099,1,2,3:2:0:0:
341,250,37271,1,8,0:0:0:0:
452,46,37443,6,0,P|524:93|512:178,1,180,2|0,3:2|3:2,0:0:0:0:
363,142,37961,2,0,L|347:53,1,90,10|0,0:0|0:0,0:0:0:0:
417,264,38306,1,2,3:2:0:0:
260,209,38478,1,8,3:2:0:0:
417,264,38650,2,0,P|461:271|505:278,1,90,10|0,0:0|3:2,0:0:0:0:
260,209,38995,6,0,P|267:253|274:297,1,90,6|0,3:2|0:0,0:0:0:0:
165,101,39340,2,0,P|209:94|253:87,1,90,10|0,0:0|0:0,0:0:0:0:
57,196,39685,2,0,P|50:152|43:108,1,90,2|0,3:2|3:2,0:0:0:0:
152,304,40030,2,0,P|108:311|64:318,1,90,10|0,0:0|3:2,0:0:0:0:
260,208,40375,6,0,P|196:192|166:134,1,135,2|0,3:2|0:0,0:0:0:0:
165,101,40719,1,10,0:0:0:0:
275,0,40892,2,0,P|264:43|253:87,1,90,2|0,0:0|3:2,0:0:0:0:
109,32,41237,1,0,3:2:0:0:
253,87,41409,1,10,0:0:0:0:
82,240,41581,6,0,P|170:223|259:207,1,180,2|2,3:2|3:2,0:0:0:0:
397,142,42099,1,8,0:0:0:0:
253,87,42271,1,2,0:0:0:0:
392,22,42443,1,0,3:2:0:0:
259,207,42616,1,2,3:2:0:0:
478,267,42788,2,0,P|485:223|492:179,1,90,8|2,0:0|3:2,0:0:0:0:
253,87,43133,5,2,3:2:0:0:
368,237,43306,1,10,0:0:0:0:
392,22,43478,1,10,0:0:0:0:
259,207,43650,2,0,P|215:215|174:199,1,90,2|8,0:0|0:0,0:0:0:0:
110,76,43996,1,2,3:2:0:0:
115,68,44082,1,0,3:2:0:0:
120,62,44168,2,0,L|252:86,1,135,10|0,0:0|0:0,0:0:0:0:
105,84,44512,6,0,L|246:110,1,144,6|0,3:2|0:0,0:0:0:0:
368,237,45202,1,10,0:0:0:0:
266,241,45375,1,2,0:0:0:0:
218,331,45547,1,2,3:2:0:0:
368,237,45719,6,0,P|403:176|379:109,1,144,2|2,3:2|0:0,0:0:0:0:
313,25,46237,1,2,3:2:0:0:
246,110,46409,1,0,3:2:0:0:
241,115,46495,1,0,3:2:0:0:
236,120,46581,2,0,P|200:113|165:107,1,72,10|0,0:0|0:0,0:0:0:0:
57,118,46926,1,2,3:2:0:0:
158,8,47099,1,2,0:0:0:0:
172,206,47271,6,0,B|132:200|92:206|56:226|56:226|81:232,1,144,2|2,3:2|0:0,0:0:0:0:
56,377,47788,2,0,P|49:341|43:306,1,72,2|8,0:0|0:0,0:0:0:0:
172,206,48133,1,2,0:0:0:0:
142,318,48306,1,2,3:2:0:0:
302,332,48478,6,0,B|311:220|311:220|283:235,1,144,2|8,0:0|0:3,0:0:0:0:
172,206,48995,1,2,3:2:0:0:
309,123,49168,2,0,P|344:116|379:109,1,72,10|0,0:0|0:0,0:0:0:0:
228,56,49512,6,0,P|331:38|422:21,1,198.000006042481,6|0,3:2|0:0,0:0:0:0:
504,190,50030,6,0,P|463:186|423:182,1,80.9999975280763,6|0,3:2|0:0,0:0:0:0:
309,123,50375,1,2,3:2:0:0:
416,263,50547,2,0,P|419:222|423:182,1,80.9999975280763,2|8,0:0|0:0,0:0:0:0:
302,332,50892,1,2,0:0:0:0:
461,372,51064,1,2,0:0:0:0:
327,257,51237,6,0,P|250:271|224:344,1,161.999995056153,2|10,3:2|0:0,0:0:0:0:
132,265,51754,1,2,3:2:0:0:
41,345,51926,2,0,P|34:304|26:264,1,80.9999975280763,2|8,0:0|0:0,0:0:0:0:
184,174,52271,1,2,0:0:0:0:
132,265,52443,1,6,0:0:0:0:
93,122,52616,1,2,0:0:0:0:
277,197,52788,6,0,P|322:188|366:181,1,90,6|0,3:2|0:0,0:0:0:0:
214,89,53133,2,0,P|199:132|183:174,1,90,10|0,0:0|3:2,0:0:0:0:
340,89,53478,2,0,P|309:54|281:19,1,90,10|0,0:0|3:2,0:0:0:0:
277,197,53823,1,10,0:0:0:0:
433,114,53995,6,0,P|504:161|509:247,1,180,2|0,3:2|0:0,0:0:0:0:
392,377,54512,2,0,P|384:332|376:288,1,90,10|0,0:0|3:2,0:0:0:0:
225,271,54857,2,0,P|251:234|276:197,1,90,10|0,0:0|3:2,0:0:0:0:
215,77,55202,2,0,P|259:69|303:60,1,90,10|0,0:0|3:2,0:0:0:0:
433,114,55547,5,14,0:0:0:0:
186,166,55719,1,0,3:2:0:0:
376,288,55892,1,8,0:0:0:0:
129,340,56064,5,14,0:0:0:0:
310,140,56237,1,0,3:2:0:0:
79,49,56409,1,8,0:0:0:0:
253,314,56581,5,14,0:0:0:0:
253,314,56926,5,0,3:2:0:0:
158,253,57099,1,12,0:0:0:0:
57,304,57271,2,0,P|32:265|33:221,1,90,14|2,0:0|3:2,0:0:0:0:
79,49,57616,6,0,L|90:93,1,45,10|8,0:3|0:3,0:0:0:0:
186,166,57788,2,0,L|197:121,1,45,10|8,0:3|0:0,0:0:0:0:
303,59,57961,2,0,L|347:70,1,45,10|8,0:0|0:0,0:0:0:0:
485,128,58133,6,0,P|474:56|411:23,1,148.50000453186,6|0,3:2|0:0,0:0:0:0:
346,69,58478,2,0,P|337:117|327:166,1,99.0000030212403,2|8,0:0|0:0,0:0:0:0:
253,314,58823,1,2,0:0:0:0:
412,197,58995,1,2,3:2:0:0:
186,166,59168,1,0,3:2:0:0:
367,302,59340,1,10,0:0:0:0:
135,384,59512,6,0,P|122:310|109:237,1,148.50000453186,2|0,0:0|0:0,0:0:0:0:
32,222,59857,1,2,3:2:0:0:
253,314,60030,2,0,P|271:269|261:221,1,99.0000030212403,10|0,0:0|0:0,0:0:0:0:
89,92,60375,1,2,3:2:0:0:
192,262,60547,1,0,3:2:0:0:
345,185,60719,6,0,P|378:191|411:196,1,67.5,10|0,0:0|0:0,0:0:0:0:
463,250,61064,5,6,3:2:0:0:
266,118,61237,1,0,3:2:0:0:
472,62,61409,1,10,0:0:0:0:
260,220,61581,6,0,P|186:206|113:194,1,148.50000453186,6|0,3:2|0:0,0:0:0:0:
32,222,61926,1,2,3:2:0:0:
186,54,62099,1,8,0:0:0:0:
253,314,62271,6,0,P|326:300|399:288,1,148.50000453186,6|0,3:2|0:0,0:0:0:0:
463,250,62616,1,2,3:2:0:0:
266,118,62788,1,10,0:0:0:0:
126,357,62961,6,0,P|40:315|31:221,1,198.000006042481,6|0,3:2|3:2,0:0:0:0:
186,54,63478,1,8,0:0:0:0:
113,194,63650,1,2,3:2:0:0:
15,34,63823,6,0,P|24:82|33:131,1,99.0000030212403,6|0,3:2|0:0,0:0:0:0:
186,54,64168,1,10,0:0:0:0:
210,212,64340,2,0,P|161:202|112:193,1,99.0000030212403,2|0,3:2|0:0,0:0:0:0:
363,99,64685,2,0,P|314:108|265:117,1,99.0000030212403,2|8,3:2|0:0,0:0:0:0:
487,173,65030,1,2,0:0:0:0:
306,267,65202,5,6,3:2:0:0:
363,99,65375,1,0,3:2:0:0:
413,297,65547,1,10,0:0:0:0:
210,212,65719,2,0,P|129:258|146:349,1,198.000006042481,6|2,3:2|3:2,0:0:0:0:
309,357,66237,1,8,0:0:0:0:
396,220,66409,1,2,3:2:0:0:
201,291,66581,6,0,P|127:279|54:265,1,148.50000453186,2|0,3:2|0:0,0:0:0:0:
0,207,66926,1,10,0:0:0:0:
100,44,67099,1,2,3:2:0:0:
105,52,67185,1,0,3:2:0:0:
109,60,67271,1,0,3:2:0:0:
210,212,67443,1,2,3:2:0:0:
23,131,67616,1,10,0:0:0:0:
265,116,67788,6,0,B|320:114|370:87|399:35|399:35|385:48|371:55,1,198.000006042481,6|6,3:2|3:2,0:0:0:0:
210,212,68306,2,0,P|220:261|229:310,1,99.0000030212403,8|6,0:0|0:0,0:0:0:0:
395,219,68650,6,0,L|347:228,1,49.5000015106202,2|0,3:2|0:0,0:0:0:0:
228,309,68823,2,0,L|276:317,1,49.5000015106202,10|8,0:3|0:3,0:0:0:0:
399,383,68995,2,0,L|407:334,1,49.5000015106202,10|8,0:0|0:0,0:0:0:0:
473,153,69168,6,0,P|404:173|346:129,1,148.50000453186,6|0,3:2|0:0,0:0:0:0:
371,54,69512,2,0,P|419:45|468:35,1,99.0000030212403,2|12,3:2|0:0,0:0:0:0:
189,137,69857,1,2,0:0:0:0:
395,219,70030,1,2,3:2:0:0:
228,309,70202,1,0,3:2:0:0:
347,130,70375,1,10,0:0:0:0:
111,203,70547,6,0,P|63:149|78:79,1,148.50000453186,2|0,3:2|0:0,0:0:0:0:
142,30,70892,1,2,3:2:0:0:
246,211,71064,2,0,P|236:259|227:308,1,99.0000030212403,10|2,0:0|3:2,0:0:0:0:
119,380,71409,1,0,3:2:0:0:
338,313,71581,1,2,3:2:0:0:
119,380,71754,2,0,P|70:369|21:360,1,99.0000030212403,10|2,0:0|0:0,0:0:0:0:
111,203,72099,5,2,3:2:0:0:
226,308,72271,1,0,0:0:0:0:
245,80,72443,1,14,0:0:0:0:
395,219,72616,2,0,P|388:169|383:119,1,99.0000030212403,2|0,0:0|3:2,0:0:0:0:
245,80,72961,1,2,3:2:0:0:
468,34,73133,1,12,0:0:0:0:
446,281,73306,6,0,P|375:296|320:248,1,148.50000453186,2|0,3:2|0:0,0:0:0:0:
319,170,73650,1,10,0:0:0:0:
115,291,73823,1,8,0:3:0:0:
170,24,73995,2,0,B|161:-2|161:-2|220:16|244:80,1,148.50000453186,2|0,3:2|0:0,0:0:0:0:
235,162,74340,2,0,B|243:188|243:188|184:169|160:105,1,148.50000453186,2|0,3:2|0:0,0:0:0:0:
94,57,74685,1,2,0:0:0:0:
30,331,74857,6,0,P|40:235|125:195,1,198.000006042481,6|2,3:2|0:0,0:0:0:0:
226,308,75375,1,2,3:2:0:0:
319,170,75547,2,0,P|367:179|416:188,1,99.0000030212403,8|2,0:0|0:0,0:0:0:0:
512,269,75892,1,8,0:0:0:0:
472,28,76064,6,0,P|398:41|325:53,1,148.50000453186,6|0,3:2|0:0,0:0:0:0:
243,79,76409,1,10,0:0:0:0:
416,188,76581,1,10,0:0:0:0:
226,308,76754,2,0,P|217:260|208:211,1,99.0000030212403,2|8,3:2|0:0,0:0:0:0:
63,86,77099,2,0,P|111:95|160:105,1,99.0000030212403,6|0,3:2|0:0,0:0:0:0:
400,176,77443,1,0,3:0:0:0:
408,182,77530,1,2,3:2:0:0:
416,188,77616,6,0,P|441:229|439:278,1,99.0000030212403,2|0,3:2|0:0,0:0:0:0:
207,210,77961,2,0,P|230:167|273:145,1,99.0000030212403,10|0,0:0|3:2,0:0:0:0:
331,380,78306,2,0,P|282:381|241:354,1,99.0000030212403,10|0,0:0|3:2,0:0:0:0:
76,222,78650,1,10,0:0:0:0:
151,380,78823,1,0,3:2:0:0:
304,228,78995,6,0,P|255:219|206:209,1,99.0000030212403,2|0,0:0|3:0,0:0:0:0:
63,92,79340,1,14,0:0:0:0:
58,319,79512,2,0,P|67:270|76:221,1,99.0000030212403,2|0,0:0|3:0,0:0:0:0:
194,80,79857,1,10,0:0:0:0:
75,221,80030,1,12,0:0:0:0:
267,315,80202,6,0,P|353:309|400:236,1,180,6|0,3:2|3:2,0:0:0:0:
288,139,80719,2,0,P|296:183|303:227,1,90,2|0,0:0|3:0,0:0:0:0:
373,66,81064,1,10,0:0:0:0:
178,168,81237,2,0,P|186:124|193:80,1,90,2|2,0:0|0:0,0:0:0:0:
303,227,81581,6,0,P|350:154|437:148,1,180,2|8,3:2|0:0,0:0:0:0:
441,324,82099,2,0,P|397:316|353:309,1,90,2|0,0:0|3:0,0:0:0:0:
214,243,82443,2,0,P|258:235|302:227,1,90,10|0,0:0|3:0,0:0:0:0:
436,147,82788,1,2,0:0:0:0:
352,308,82961,1,2,3:2:0:0:
178,166,83133,6,0,P|131:238|171:314,1,180,6|0,3:2|0:0,0:0:0:0:
302,226,83650,1,2,3:2:0:0:
304,217,83737,1,0,3:2:0:0:
306,208,83823,1,8,0:0:0:0:
172,348,83995,2,0,P|128:340|84:332,1,90,2|0,0:0|3:2,0:0:0:0:
94,150,84340,6,0,P|138:145|177:165,1,90,2|0,3:2|3:0,0:0:0:0:
302,226,84685,1,8,0:3:0:0:
267,32,84857,2,0,P|223:40|179:48,1,90,10|0,0:0|3:0,0:0:0:0:
368,118,85202,1,8,0:0:0:0:
177,165,85375,1,0,3:2:0:0:
167,185,85461,1,8,0:3:0:0:
164,207,85547,1,8,0:3:0:0:
310,320,85719,1,8,0:0:0:0:
332,317,85806,1,8,0:0:0:0:
352,308,85892,6,0,P|405:260|402:189,1,148.50000453186,6|0,3:2|0:0,0:0:0:0:
368,118,86237,2,0,P|324:139|276:134,1,99.0000030212403,10|0,0:0|0:0,0:0:0:0:
86,64,86581,2,0,P|129:42|178:47,1,99.0000030212403,2|0,3:2|3:0,0:0:0:0:
302,226,86926,1,10,0:0:0:0:
94,150,87099,1,0,3:0:0:0:
293,36,87271,6,0,P|285:84|275:133,1,99.0000030212403,2|0,0:0|3:0,0:0:0:0:
201,328,87616,1,8,0:0:0:0:
401,187,87788,2,0,P|449:197|498:205,1,99.0000030212403,2|0,0:0|3:0,0:0:0:0:
274,133,88133,1,2,3:2:0:0:
386,293,88306,1,8,0:0:0:0:
462,103,88478,1,0,3:0:0:0:
238,231,88650,5,6,3:2:0:0:
498,205,88823,1,0,3:2:0:0:
293,36,88995,5,2,3:2:0:0:
386,293,89168,1,0,3:2:0:0:
125,138,89340,5,10,0:0:0:0:
462,103,89513,1,8,0:0:0:0:
181,21,89685,5,10,0:0:0:0:
304,364,89858,1,10,0:0:0:0:
377,69,90030,6,0,L|368:117,1,49.5000015106202,10|0,0:0|3:2,0:0:0:0:
238,231,90202,1,8,0:3:0:0:
265,210,90288,1,8,0:3:0:0:
298,202,90374,1,8,0:0:0:0:
332,208,90461,1,8,0:0:0:0:
362,228,90547,1,8,0:0:0:0:
380,258,90633,1,8,0:0:0:0:
386,293,90719,5,10,0:0:0:0:
304,364,90892,1,2,0:0:0:0:
195,355,91064,1,2,0:0:0:0:
124,271,91237,1,2,0:0:0:0:
116,277,91323,1,2,0:0:0:0:
108,283,91409,6,0,P|94:194|76:105,1,180,6|8,3:2|0:0,0:0:0:0:
253,142,91926,2,0,P|245:186|238:230,1,90,2|0,0:0|3:2,0:0:0:0:
178,37,92271,1,0,3:2:0:0:
367,117,92443,2,0,P|411:122|450:102,1,90,10|0,0:0|0:0,0:0:0:0:
386,293,92788,5,2,3:2:0:0:
506,218,92961,2,0,P|461:210|417:202,1,90,2|8,0:0|0:0,0:0:0:0:
253,142,93306,1,0,0:0:0:0:
351,28,93478,2,0,P|358:72|366:116,1,90,2|0,3:2|3:2,0:0:0:0:
178,37,93823,2,0,P|111:31|66:78,1,135,10|0,0:0|0:0,0:0:0:0:
76,107,94168,6,0,P|165:122|253:142,1,180,2|10,3:2|0:0,0:0:0:0:
386,293,94685,1,2,0:0:0:0:
450,101,94857,1,0,3:2:0:0:
319,217,95030,1,2,3:2:0:0:
490,306,95202,2,0,P|497:262|505:218,1,90,8|0,0:0|0:0,0:0:0:0:
322,374,95547,6,0,P|257:386|207:344,1,135,2|0,3:2|0:0,0:0:0:0:
196,314,95892,2,0,P|151:322|107:329,1,90,14|2,0:0|0:0,0:0:0:0:
319,217,96237,1,0,3:2:0:0:
156,157,96409,1,2,3:2:0:0:
278,308,96581,1,8,0:0:0:0:
351,121,96754,1,0,3:0:0:0:
140,68,96926,6,0,P|148:112|155:156,1,90,6|0,3:2|0:0,0:0:0:0:
319,217,97271,1,10,0:0:0:0:
196,314,97443,1,2,0:0:0:0:
253,139,97616,1,2,3:2:0:0:
386,293,97788,2,0,P|378:337|371:381,1,90,2|8,3:2|0:0,0:0:0:0:
505,214,98133,6,0,P|460:206|416:198,1,90,2|0,0:0|3:2,0:0:0:0:
285,43,98478,2,0,P|329:35|373:27,1,90,2|8,3:2|0:0,0:0:0:0:
192,233,98823,2,0,P|161:200|155:157,1,90,2|0,3:2|3:2,0:0:0:0:
416,198,99168,1,2,3:2:0:0:
253,139,99340,1,8,0:0:0:0:
170,365,99512,6,0,P|258:348|347:332,1,180,2|0,3:2|3:0,0:0:0:0:
192,233,100030,2,0,P|236:241|280:249,1,90,10|0,0:0|3:0,0:0:0:0:
445,100,100375,1,0,3:2:0:0:
253,139,100547,1,2,3:2:0:0:
416,198,100719,1,10,0:0:0:0:
285,43,100892,6,0,P|218:56|152:68,1,135,2|0,3:2|0:0,0:0:0:0:
120,71,101237,1,10,0:0:0:0:
192,233,101409,1,10,0:0:0:0:
29,174,101581,2,0,P|22:218|14:262,1,90,2|8,3:2|0:0,0:0:0:0:
147,368,101926,1,2,3:2:0:0:
124,371,102012,1,0,3:0:0:0:
101,375,102099,1,10,0:0:0:0:
192,233,102270,1,10,0:0:0:0:
202,254,102357,1,10,0:0:0:0:
217,271,102443,6,0,P|293:309|371:269,1,180,6|8,3:2|0:0,0:0:0:0:
502,360,102961,2,0,P|494:316|486:272,1,90,2|0,0:0|3:2,0:0:0:0:
445,100,103306,1,2,3:2:0:0:
371,268,103478,2,0,P|363:224|355:180,1,90,10|0,0:0|3:0,0:0:0:0:
152,67,103823,6,0,B|193:61|216:37|216:37|264:61|264:61|313:39,1,180,2|8,0:0|0:0,0:0:0:0:
192,233,104340,2,0,P|190:188|214:150,1,90,2|0,0:0|3:2,0:0:0:0:
354,179,104685,1,0,3:2:0:0:
302,340,104857,2,0,P|235:352|169:364,1,135,10|0,0:0|0:0,0:0:0:0:
154,337,105202,6,0,P|69:319|4:377,1,180,2|8,3:2|0:0,0:0:0:0:
29,174,105719,1,0,3:0:0:0:
192,233,105892,1,2,3:2:0:0:
216,37,106064,1,2,3:2:0:0:
29,174,106237,2,0,P|73:166|117:158,1,90,8|0,0:0|0:0,0:0:0:0:
354,179,106581,5,2,3:2:0:0:
192,233,106754,1,2,0:0:0:0:
313,38,106926,1,10,0:0:0:0:
460,188,107099,2,0,P|451:143|444:99,1,90,2|0,3:2|3:2,0:0:0:0:
253,136,107443,1,10,0:0:0:0:
400,276,107616,1,10,0:0:0:0:
192,233,107789,1,2,3:2:0:0:
199,254,107875,1,2,3:2:0:0:
206,275,107961,5,6,3:2:0:0:
216,37,108133,1,2,0:0:0:0:
29,174,108306,1,10,0:0:0:0:
180,351,108478,6,0,P|245:345|283:291,1,135,6|0,3:2|0:0,0:0:0:0:
286,269,108823,1,2,3:2:0:0:
123,105,108995,1,10,0:0:0:0:
380,23,109168,6,0,P|368:89|358:155,1,135,6|0,3:2|0:0,0:0:0:0:
354,179,109513,1,2,3:2:0:0:
216,37,109685,1,10,0:0:0:0:
63,263,109857,6,0,P|109:216|174:222,1,135,6|0,0:0|0:0,0:0:0:0:
192,233,110202,1,2,3:2:0:0:
318,384,110375,1,10,0:0:0:0:
358,156,110547,6,0,P|292:144|226:131,1,135,6|0,3:2|0:0,0:0:0:0:
203,127,110892,1,8,0:0:0:0:
365,258,111064,1,10,0:3:0:0:
298,30,111237,1,2,3:2:0:0:
460,161,111409,1,8,0:0:0:0:
466,166,111496,1,8,0:0:0:0:
472,171,111581,1,10,0:0:0:0:
286,269,111754,1,0,3:2:0:0:
460,377,111926,1,10,0:0:0:0:
466,372,112013,1,8,0:0:0:0:
472,367,112098,5,14,0:0:0:0:
119,326,113133,5,0,0:0:0:0:
40,367,113307,1,0,0:0:0:0:
78,247,113478,6,0,P|79:177|26:132,1,144,2|10,3:2|0:1,0:0:0:0:
144,14,113995,1,2,0:0:0:0:
101,89,114168,2,0,P|136:95|171:101,1,72,8|2,0:1|0:0,0:0:0:0:
302,21,114512,2,0,P|267:27|232:33,1,72,8|2,0:1|0:0,0:0:0:0:
382,142,114857,6,0,P|325:101|257:119,1,144,2|10,3:2|0:1,0:0:0:0:
211,254,115375,1,2,0:0:0:0:
184,172,115547,2,0,P|178:137|172:102,1,72,8|2,0:1|0:0,0:0:0:0:
311,180,115892,2,0,P|305:215|299:250,1,72,8|2,0:1|3:2,0:0:0:0:
171,332,116237,6,0,P|242:343|312:356,1,144,2|10,3:2|0:1,0:0:0:0:
452,299,116754,1,2,0:0:0:0:
390,361,116926,2,0,P|380:326|371:291,1,72,10|2,0:1|0:0,0:0:0:0:
487,206,117271,2,0,P|452:215|417:224,1,72,8|0,0:1|0:0,0:0:0:0:
325,101,117616,6,0,P|357:115|382:142,1,72,2|2,3:2|0:0,0:0:0:0:
417,223,117961,1,10,0:1:0:0:
460,117,118134,1,2,0:0:0:0:
311,180,118306,2,0,P|276:174|241:168,1,72,10|2,0:1|0:0,0:0:0:0:
76,205,118650,2,0,P|111:199|146:193,1,72,8|2,0:1|3:2,0:0:0:0:
159,30,118995,6,0,P|165:65|171:100,1,72,2|2,3:2|0:0,0:0:0:0:
252,238,119340,2,0,P|246:203|240:168,1,72,10|2,0:1|0:0,0:0:0:0:
263,74,119684,1,8,0:1:0:0:
147,193,119857,1,2,0:0:0:0:
263,74,120030,1,8,0:1:0:0:
147,193,120202,1,2,0:0:0:0:
7,63,120375,6,0,P|42:69|77:75,1,72,2|2,3:2|0:0,0:0:0:0:
147,193,120719,2,0,P|112:199|77:205,1,72,10|2,0:1|0:0,0:0:0:0:
171,100,121064,1,8,0:1:0:0:
252,238,121237,1,2,0:0:0:0:
171,100,121409,1,8,0:1:0:0:
252,238,121582,1,2,3:2:0:0:
76,205,121754,6,0,P|59:236|57:272,1,72,2|2,3:2|0:0,0:0:0:0:
143,384,122099,2,0,P|159:352|161:316,1,72,10|2,0:1|0:0,0:0:0:0:
252,238,122443,1,8,0:1:0:0:
337,220,122616,1,2,0:0:0:0:
395,284,122788,1,8,0:1:0:0:
368,366,122961,1,2,0:0:0:0:
478,266,123133,6,0,P|464:195|453:124,1,144,2|10,3:2|0:1,0:0:0:0:
430,3,123650,1,2,0:0:0:0:
381,75,123823,1,10,0:1:0:0:
302,111,123995,1,0,0:0:0:0:
215,102,124168,1,10,0:1:0:0:
144,50,124340,6,0,B|128:36|119:11|119:11|92:67|96:124|127:173,1,216,2|0,0:0|0:0,0:0:0:0:
