osu file format v14

[General]
AudioFilename: audio.mp3
AudioLeadIn: 0
PreviewTime: 57456
Countdown: 0
SampleSet: Soft
StackLeniency: 0.7
Mode: 2
LetterboxInBreaks: 0
WidescreenStoryboard: 1

[Editor]
DistanceSpacing: 1
BeatDivisor: 4
GridSize: 32
TimelineZoom: 1

[Metadata]
Title:Hoshi Ori Yume Mirai
TitleUnicode:星織ユメミライ
Artist:Ceui
ArtistUnicode:Ceui
Creator:IDu5t
Version:Overdose
Source:星織ユメミライ
Tags:-Luminate -Hex- tone work's Opening eroge Visual Novel Snow idust
BeatmapID:1851432
BeatmapSetID:885643

[Difficulty]
HPDrainRate:7
CircleSize:4.2
OverallDifficulty:9.2
ApproachRate:9.2
SliderMultiplier:1.8
SliderTickRate:2

[Events]
//Background and Video events
0,0,"rikka.jpg",0,0
//Break Periods
//Storyboard Layer 0 (Background)
//Storyboard Layer 1 (Fail)
//Storyboard Layer 2 (Pass)
//Storyboard Layer 3 (Foreground)
//Storyboard Sound Samples

[TimingPoints]
474,344.827586206897,4,2,2,40,1,0
10129,-100,4,2,1,45,0,0
10646,-100,4,2,1,50,0,0
10991,-100,4,2,1,55,0,0
11508,-100,4,2,1,60,0,0
21163,-100,4,2,2,30,0,0
22542,-100,4,2,2,40,0,0
32198,-100,4,2,1,45,0,0
33577,-100,4,2,1,50,0,0
44611,-100,4,2,1,50,0,0
52887,-100,4,2,1,55,0,0
55646,-100,4,2,1,60,0,0
56680,-100,4,2,1,50,0,0
57715,-100,4,2,1,55,0,0
58232,-100,4,2,1,60,0,1
69180,-100,4,2,1,60,0,0
69267,-100,4,2,1,60,0,1
73405,-100,4,2,1,60,0,1
73663,-100,4,2,1,25,0,1
73749,-100,4,2,1,60,0,1
74008,-100,4,2,1,25,0,1
74094,-100,4,2,1,60,0,1
74353,-100,4,2,1,25,0,1
74439,-100,4,2,1,60,0,1
80387,-100,4,2,1,60,0,0
80474,-100,4,2,1,60,0,1
90129,-100,4,2,1,50,0,0
91163,-100,4,2,1,60,0,0
91508,-100,4,2,1,30,0,0
92887,-100,4,2,1,25,0,0
94267,-100,4,2,1,20,0,0
94956,-100,4,2,1,15,0,0
95646,-100,4,2,1,10,0,0

[Colours]
Combo1 : 128,0,255
Combo2 : 183,111,255
Combo3 : 255,255,0

[HitObjects]
336,243,474,6,0,L|453:247,2,90,10|0|0,0:0|0:0|0:0,0:0:0:0:
168,247,991,1,2,0:0:0:0:
178,149,1163,1,0,0:0:0:0:
272,139,1336,1,0,0:0:0:0:
369,167,1508,1,0,0:0:0:0:
327,261,1680,1,0,0:0:0:0:
149,280,1853,6,0,L|55:273,2,90,2|0|0,0:0|0:0|0:0,0:0:0:0:
324,299,2370,1,2,0:0:0:0:
391,235,2542,1,0,0:0:0:0:
354,145,2715,1,0,0:0:0:0:
245,170,2887,1,0,0:0:0:0:
354,145,3060,1,0,0:0:0:0:
153,164,3232,5,10,0:0:0:0:
64,170,3405,2,0,L|56:60,1,90
228,302,3749,1,2,0:0:0:0:
299,244,3922,1,0,0:0:0:0:
215,198,4094,1,0,0:0:0:0:
119,207,4267,1,0,0:0:0:0:
215,198,4439,1,0,0:0:0:0:
391,159,4611,6,0,L|481:157,2,90,2|0|0,0:0|0:0|0:0,0:0:0:0:
208,88,5129,1,2,0:0:0:0:
387,323,5301,2,0,L|389:232,1,90
287,148,5646,2,0,L|376:153,1,90
137,293,5991,6,0,P|91:263|159:176,1,180,10|0,0:0|0:0,0:0:0:0:
327,173,6508,2,0,P|390:163|448:61,1,180,2|0,0:0|0:0,0:0:0:0:
262,327,7025,2,0,P|213:308|264:216,1,180,2|0,0:0|0:0,0:0:0:0:
436,251,7542,6,0,P|472:213|385:146,1,180,2|0,0:0|0:0,0:0:0:0:
216,123,8060,2,0,L|109:112,1,90,2|0,0:0|0:0,0:0:0:0:
311,50,8405,2,0,L|406:57,1,90,2|0,0:0|0:0,0:0:0:0:
166,327,8749,6,0,L|165:233,1,90,10|0,0:0|0:0,0:0:0:0:
345,195,9094,1,0,0:0:0:0:
176,176,9267,2,0,B|175:84,1,90,2|0,0:0|0:0,0:0:0:0:
351,73,9611,2,0,L|350:175,1,90,2|0,0:0|0:0,0:0:0:0:
165,287,9956,1,2,0:0:0:0:
419,282,10129,6,0,L|472:279,1,45,8|0,0:0|0:0,0:0:0:0:
464,235,10301,2,0,L|419:236,1,45
215,218,10474,2,0,L|153:216,1,45,10|0,0:0|0:0,0:0:0:0:
377,141,10646,6,0,L|434:141,1,45
377,141,10818,2,0,L|318:141,1,45
120,298,10991,2,0,L|53:297,1,45,10|0,0:0|0:0,0:0:0:0:
302,68,11163,2,2,L|358:67,1,45,2|8,0:0|0:0,0:0:0:0:
90,166,11336,2,2,L|23:166,1,45,10|8,0:0|0:0,0:0:0:0:
320,304,11508,6,0,L|334:200,1,90,4|0,0:0|0:0,0:0:0:0:
173,155,11853,1,8,0:0:0:0:
299,145,12025,1,0,0:0:0:0:
139,49,12198,2,0,L|133:162,1,90
312,76,12542,2,0,B|411:73,1,90,8|0,0:0|0:0,0:0:0:0:
163,288,12887,6,0,P|114:273|169:192,1,180,2|8,0:0|0:0,0:0:0:0:
408,300,13405,2,0,L|517:301,2,90
170,288,13922,2,0,L|60:284,1,90,8|0,0:0|0:0,0:0:0:0:
318,217,14267,6,0,P|378:206|353:103,1,180,2|8,0:0|0:0,0:0:0:0:
275,105,14784,1,0,0:0:0:0:
96,249,14956,1,0,0:0:0:0:
278,294,15129,2,0,L|378:297,2,90,0|8|0,0:0|0:0|0:0,0:0:0:0:
39,180,15646,6,0,L|43:71,1,90,2|0,0:0|0:0,0:0:0:0:
314,82,15991,2,0,L|209:79,1,90,12|0,0:0|0:0,0:0:0:0:
454,313,16336,2,0,L|456:210,1,90
227,134,16680,2,0,L|334:134,1,90,12|0,0:0|0:0,0:0:0:0:
271,135,16939,1,0,0:0:0:0:
71,285,17025,6,0,L|167:286,2,90,2|0|8,0:0|0:0|0:0,0:0:0:0:
307,257,17542,2,0,L|310:161,1,90,2|0,0:0|0:0,0:0:0:0:
144,111,17887,1,0,0:0:0:0:
312,57,18060,1,8,0:0:0:0:
80,203,18232,6,0,L|75:292,1,90,2|0,0:0|0:0,0:0:0:0:
248,282,18577,1,0,0:0:0:0:
72,343,18749,1,8,0:0:0:0:
318,225,18922,6,0,P|381:200|381:96,1,180,2|0,0:0|0:0,0:0:0:0:
211,143,19439,1,8,0:0:0:0:
473,340,19611,6,0,L|482:231,1,90,4|0,0:0|0:0,0:0:0:0:
310,168,19956,2,0,L|414:171,1,90,8|0,0:0|0:0,0:0:0:0:
168,232,20301,1,0,0:0:0:0:
74,175,20474,2,0,P|141:176|141:176,1,45,8|0,0:0|0:0,0:0:0:0:
320,237,20646,1,0,0:0:0:0:
413,164,20818,2,0,L|364:163,1,45,8|0,0:0|0:0,0:0:0:0:
145,74,20991,2,0,L|85:73,1,45,8|0,0:0|0:0,0:0:0:0:
379,326,21163,1,12,0:0:0:0:
337,279,22542,5,2,0:0:0:0:
161,265,22887,2,0,L|160:167,1,90
264,163,23232,2,0,L|372:168,2,90,2|0|8,0:0|0:0|0:0,0:0:0:0:
86,314,23749,2,0,P|40:271|122:212,1,180,2|0,0:0|0:0,0:0:0:0:
199,205,24267,1,8,0:0:0:0:
107,118,24439,1,0,0:0:0:0:
289,330,24784,6,0,L|181:324,1,90,0|8,0:0|0:0,0:0:0:0:
380,140,25129,1,0,0:0:0:0:
142,243,25301,2,0,P|100:216|172:143,1,180,2|8,0:0|0:0,0:0:0:0:
341,328,25818,2,0,L|149:322,1,180,2|0,0:0|0:0,0:0:0:0:
251,323,26336,1,8,0:0:0:0:
438,256,26508,2,0,P|440:150|440:150,1,90
231,257,27025,6,0,P|230:154|230:154,1,90,8|0,0:0|0:0,0:0:0:0:
403,84,27370,2,0,L|494:90,1,90,2|0,0:0|0:0,0:0:0:0:
314,36,27715,2,0,L|223:32,1,90,8|0,0:0|0:0,0:0:0:0:
454,320,28060,6,0,P|488:284|417:191,1,180,2|8,0:0|0:0,0:0:0:0:
101,172,28749,1,2,0:0:0:0:
428,121,29094,1,8,0:0:0:0:
218,324,29439,2,0,P|141:306|94:192,1,180,2|8,0:0|0:0,0:0:0:0:
290,241,30129,2,0,P|350:231|382:116,1,180,0|8,0:0|0:0,0:0:0:0:
296,134,30646,1,0,0:0:0:0:
63,306,30818,6,0,L|246:320,2,180,2|8|0,0:0|0:0|0:0,0:0:0:0:
168,255,31680,2,0,L|277:263,2,90,0|8|0,0:0|0:0|0:0,0:0:0:0:
405,241,32198,6,0,L|399:184,1,45,10|0,0:0|0:0,0:0:0:0:
350,186,32370,2,0,L|298:185,1,45
256,143,32542,2,0,L|312:135,1,45,8|0,0:0|0:0,0:0:0:0:
444,54,32715,2,0,P|464:83|398:151,1,135,10|0,0:0|0:0,0:0:0:0:
193,205,33060,6,0,L|138:204,1,45,10|0,0:0|0:0,0:0:0:0:
378,102,33232,2,8,L|325:103,1,45
107,101,33405,2,8,L|47:100,1,45
302,308,33577,6,0,L|403:307,1,90,4|0,0:0|0:0,0:0:0:0:
213,242,33922,2,0,L|99:242,1,90,8|0,0:0|0:0,0:0:0:0:
296,142,34267,2,0,L|385:143,2,90,0|0|8,0:0|0:0|0:0,0:0:0:0:
58,310,34784,6,0,P|45:266|133:185,1,180,2|0,0:0|0:0,0:0:0:0:
308,177,35301,1,8,0:0:0:0:
175,170,35474,2,0,L|172:73,1,90
353,297,35818,2,0,L|247:302,2,90,0|8|0,0:0|0:0|0:0,0:0:0:0:
117,276,36336,6,0,L|116:181,1,90,2|0,0:0|0:0,0:0:0:0:
301,160,36680,1,8,0:0:0:0:
171,155,36853,2,0,L|159:60,1,90
341,280,37198,2,0,L|432:277,1,90,0|8,0:0|0:0,0:0:0:0:
181,327,37542,6,0,P|119:304|123:189,1,180,2|0,0:0|0:0,0:0:0:0:
350,180,38060,2,0,L|347:82,1,90,8|0,0:0|0:0,0:0:0:0:
186,71,38405,2,0,L|188:187,1,90
349,318,38749,2,0,L|448:311,1,90,8|0,0:0|0:0,0:0:0:0:
193,217,39094,6,0,L|309:207,1,90,6|0,0:0|0:0,0:0:0:0:
116,126,39439,2,0,L|212:120,1,90,8|0,0:0|0:0,0:0:0:0:
440,49,39784,2,0,L|339:56,1,90,2|0,0:0|0:0,0:0:0:0:
187,272,40129,2,0,L|280:265,1,90,8|0,0:0|0:0,0:0:0:0:
23,94,40474,6,0,L|30:184,1,90,2|0,0:0|0:0,0:0:0:0:
206,142,40818,1,8,0:0:0:0:
55,273,40991,2,0,L|249:285,1,180,2|0,0:0|0:0,0:0:0:0:
142,280,41508,1,8,0:0:0:0:
371,250,41680,6,0,P|417:230|360:147,1,180,2|0,0:0|0:0,0:0:0:0:
196,262,42198,2,0,L|192:161,1,90,8|0,0:0|0:0,0:0:0:0:
369,53,42542,2,0,L|375:151,1,90
202,318,42887,2,0,L|316:309,1,90,8|0,0:0|0:0,0:0:0:0:
60,162,43232,6,0,L|154:156,2,90,2|0|8,0:0|0:0|0:0,0:0:0:0:
317,256,43749,2,0,L|412:249,1,90,2|0,0:0|0:0,0:0:0:0:
170,195,44094,2,0,L|119:195,1,45,2|0,0:0|0:0,0:0:0:0:
170,195,44267,2,0,L|216:195,1,45,8|0,0:0|0:0,0:0:0:0:
440,100,44439,2,0,L|395:100,1,45
142,326,44611,6,0,P|114:285|155:167,1,180,12|0,0:0|0:0,0:0:0:0:
348,97,45301,1,10,0:0:0:0:
258,83,45474,1,0,0:0:0:0:
169,70,45646,1,0,0:0:0:0:
331,316,45818,6,0,L|226:302,1,90,2|0,0:0|0:0,0:0:0:0:
74,282,46163,1,0,0:0:0:0:
313,117,46336,2,0,P|364:153|384:273,1,180,2|8,0:0|0:0,0:0:0:0:
170,301,47025,2,0,L|70:296,1,90
327,133,47370,6,0,L|140:128,1,180,2|0,0:0|0:0,0:0:0:0:
328,324,47887,2,0,L|331:220,1,90,0|8,0:0|0:0,0:0:0:0:
165,125,48232,2,0,L|265:119,1,90
88,319,48577,6,0,P|88:216|88:216,1,90,2|0,0:0|0:0,0:0:0:0:
271,203,48922,1,0,0:0:0:0:
98,123,49094,1,2,0:0:0:0:
272,98,49267,2,0,L|373:91,1,90,8|0,0:0|0:0,0:0:0:0:
128,305,49611,2,0,L|327:297,1,180,4|0,0:0|0:0,0:0:0:0:
76,197,50129,6,0,L|73:94,1,90
236,87,50474,1,0,0:0:0:0:
66,347,50646,2,0,B|66:240,1,90,2|8,0:0|0:0,0:0:0:0:
155,253,50991,1,0,0:0:0:0:
325,252,51163,1,0,0:0:0:0:
139,206,51336,6,0,L|137:111,1,90,2|0,0:0|0:0,0:0:0:0:
379,89,51680,1,0,0:0:0:0:
142,314,51853,1,0,0:0:0:0:
385,315,52025,2,0,P|387:213|387:213,1,90,2|8,0:0|0:0,0:0:0:0:
213,130,52370,1,0,0:0:0:0:
340,125,52542,1,0,0:0:0:0:
466,118,52715,1,0,0:0:0:0:
181,269,52887,6,0,L|177:69,1,180,8|8,0:0|0:0,0:0:0:0:
342,273,53405,2,0,L|344:76,1,180
255,91,53922,1,8,0:0:0:0:
165,89,54094,2,0,L|152:188,1,90,0|8,0:0|0:0,0:0:0:0:
254,169,54439,1,0,0:0:0:0:
482,323,54611,6,0,L|486:217,1,90,8|0,0:0|0:0,0:0:0:0:
251,259,54956,2,0,L|256:142,1,90,10|0,0:0|0:0,0:0:0:0:
26,190,55301,2,0,L|31:87,1,90,8|0,0:0|0:0,0:0:0:0:
262,107,55646,6,0,B|374:109|373:109,1,90,14|0,0:0|0:0,0:0:0:0:
117,286,55991,1,0,0:0:0:0:
346,238,56163,2,0,L|239:233,1,90,14|0,0:0|0:0,0:0:0:0:
491,132,56508,1,2,0:0:0:0:
231,301,56680,6,0,L|426:288,1,180,14|0,0:0|0:0,0:0:0:0:
172,184,57198,1,12,0:0:0:0:
336,182,57370,1,12,0:0:0:0:
102,34,57542,6,0,L|50:33,1,45
284,139,57715,2,0,L|329:139,1,45,10|0,0:0|0:0,0:0:0:0:
77,234,57887,2,2,L|17:234,1,45,10|0,0:0|0:0,0:0:0:0:
309,306,58060,2,2,B|369:305,1,45,10|0,0:0|0:0,0:0:0:0:
110,282,58232,6,0,L|-8:280,1,90,6|0,0:0|0:0,0:0:0:0:
255,202,58577,2,0,L|247:317,1,90,2|8,0:0|0:0,0:0:0:0:
415,288,58922,1,0,0:0:0:0:
180,93,59094,1,2,0:0:0:0:
324,93,59267,1,0,0:0:0:0:
467,93,59439,1,8,0:0:0:0:
222,311,59611,6,0,P|171:276|231:192,1,180,2|0,0:0|0:0,0:0:0:0:
452,126,60129,2,0,L|259:112,1,180,10|0,0:0|0:0,0:0:0:0:
362,119,60646,1,0,0:0:0:0:
191,304,60818,2,0,L|186:191,1,90,8|0,0:0|0:0,0:0:0:0:
427,186,61163,5,2,0:0:0:0:
333,194,61336,2,0,L|433:199,1,90,0|8,0:0|0:0,0:0:0:0:
161,306,61680,2,0,P|87:284|45:191,1,180,4|0,0:0|0:0,0:0:0:0:
136,187,62198,1,8,0:0:0:0:
365,201,62370,6,0,P|312:158|195:136,1,180,6|0,0:0|0:0,0:0:0:0:
112,122,62887,1,8,0:0:0:0:
379,288,63060,2,0,L|189:271,1,180,2|0,0:0|0:0,0:0:0:0:
365,204,63577,2,0,L|372:93,1,90,8|0,0:0|0:0,0:0:0:0:
77,174,63922,6,0,P|61:239|146:298,1,180,4|8,0:0|0:0,0:0:0:0:
389,184,64439,2,0,P|374:130|250:89,1,180,2|0,0:0|0:0,0:0:0:0:
159,79,64956,1,8,0:0:0:0:
391,311,65129,1,0,0:0:0:0:
162,211,65301,5,6,0:0:0:0:
316,226,65474,1,0,0:0:0:0:
162,211,65646,1,8,0:0:0:0:
393,165,65818,2,0,P|435:134|355:85,1,180,6|0,0:0|0:0,0:0:0:0:
186,319,66336,2,0,L|181:212,1,90,8|0,0:0|0:0,0:0:0:0:
415,132,66680,6,0,L|324:134,1,90,2|0,0:0|0:0,0:0:0:0:
93,134,67025,1,8,0:0:0:0:
331,277,67198,1,2,0:0:0:0:
375,275,67284,1,0,0:0:0:0:
419,276,67370,1,0,0:0:0:0:
182,155,67542,1,0,0:0:0:0:
359,127,67715,1,8,0:0:0:0:
97,317,67887,6,0,L|292:295,1,180,6|0,0:0|0:0,0:0:0:0:
39,240,68405,2,0,L|52:132,1,90,8|0,0:0|0:0,0:0:0:0:
292,91,68749,6,0,L|348:91,1,45,2|0,0:0|0:0,0:0:0:0:
108,75,68922,2,0,L|45:76,1,45,10|0,0:0|0:0,0:0:0:0:
298,298,69094,2,0,L|355:298,1,45,10|0,0:0|0:0,0:0:0:0:
68,321,69267,6,0,L|64:218,1,90,6|0,0:0|0:0,0:0:0:0:
301,211,69611,2,0,L|405:209,1,90,2|8,0:0|0:0,0:0:0:0:
215,118,69956,1,0,0:0:0:0:
455,76,70129,1,2,0:0:0:0:
302,63,70301,1,0,0:0:0:0:
455,76,70474,1,8,0:0:0:0:
226,314,70646,6,0,P|174:297|182:187,1,180,2|0,0:0|0:0,0:0:0:0:
410,188,71163,2,0,P|432:133|324:88,1,180,10|0,0:0|0:0,0:0:0:0:
256,84,71680,1,0,0:0:0:0:
422,330,71853,2,0,L|428:220,1,90,8|0,0:0|0:0,0:0:0:0:
190,212,72198,6,0,L|91:208,1,90,2|0,0:0|0:0,0:0:0:0:
346,115,72542,1,12,0:0:0:0:
108,329,72715,2,0,L|102:228,1,90,2|0,0:0|0:0,0:0:0:0:
338,245,73060,2,0,B|454:230,1,90,0|8,0:0|0:0,0:0:0:0:
179,254,73405,6,2,P|141:215|203:172,1,135,10|0,0:0|0:0,0:0:0:0:
403,167,73749,2,0,P|467:141|466:60,1,135,10|0,0:0|0:0,0:0:0:0:
242,116,74094,2,0,P|198:95|241:42,1,135,14|0,0:0|0:0,0:0:0:0:
496,304,74439,2,0,L|311:289,1,180,14|0,0:0|0:0,0:0:0:0:
63,221,74956,6,0,L|71:123,1,90,4|0,0:0|0:0,0:0:0:0:
243,83,75301,1,0,0:0:0:0:
66,308,75474,2,0,L|72:207,1,90,2|8,0:0|0:0,0:0:0:0:
243,163,75818,2,0,L|134:157,1,90
393,302,76163,6,0,P|452:273|383:207,1,180,4|0,0:0|0:0,0:0:0:0:
221,193,76680,1,0,0:0:0:0:
396,122,76853,2,0,L|390:231,1,90,2|8,0:0|0:0,0:0:0:0:
159,302,77198,6,0,P|88:277|100:179,1,180,4|0,0:0|0:0,0:0:0:0:
349,223,77715,1,8,0:0:0:0:
492,211,77887,1,0,0:0:0:0:
251,151,78060,1,10,0:0:0:0:
394,137,78232,1,0,0:0:0:0:
143,57,78405,1,8,0:0:0:0:
286,47,78577,1,0,0:0:0:0:
56,319,78749,1,10,0:0:0:0:
308,304,78922,1,0,0:0:0:0:
73,236,79094,6,0,P|72:139|72:139,1,90,10|0,0:0|0:0,0:0:0:0:
117,150,79353,1,0,0:0:0:0:
362,85,79439,2,0,L|313:85,1,45,10|0,0:0|0:0,0:0:0:0:
88,60,79611,2,0,L|44:59,1,45
281,200,79784,5,8,0:0:0:0:
190,184,79956,1,0,0:0:0:0:
97,151,80129,2,0,L|160:151,1,45,2|0,0:0|0:0,0:0:0:0:
370,92,80301,2,0,L|323:93,1,45,2|0,0:0|0:0,0:0:0:0:
66,344,80474,6,0,P|45:298|76:265,1,90,6|0,0:0|0:0,0:0:0:0:
299,239,80818,2,0,L|306:332,1,90,8|0,0:0|0:0,0:0:0:0:
140,197,81163,2,0,L|131:92,1,90,2|0,0:0|0:0,0:0:0:0:
306,83,81508,2,0,L|398:78,1,90,8|0,0:0|0:0,0:0:0:0:
148,297,81853,6,0,P|102:267|156:179,1,180,2|8,0:0|0:0,0:0:0:0:
384,137,82370,2,0,L|271:132,2,90,2|0|0,0:0|0:0|0:0,0:0:0:0:
148,256,82887,2,0,L|141:355,1,90,10|0,0:0|0:0,0:0:0:0:
376,282,83232,6,0,P|453:253|433:164,1,180,2|8,0:0|0:0,0:0:0:0:
275,116,83749,2,0,L|389:107,1,90
132,288,84094,2,0,B|34:283|36:283,2,90,2|8|0,0:0|0:0|0:0,0:0:0:0:
398,274,84611,6,0,L|401:172,1,90,2|0,0:0|0:0,0:0:0:0:
157,83,84956,2,0,L|246:86,1,90,12|0,0:0|0:0,0:0:0:0:
490,227,85301,2,0,L|399:222,1,90,2|0,0:0|0:0,0:0:0:0:
167,130,85646,2,0,L|275:135,1,90,12|0,0:0|0:0,0:0:0:0:
306,140,85905,1,0,0:0:0:0:
102,302,85991,5,2,0:0:0:0:
227,293,86163,1,0,0:0:0:0:
102,302,86336,1,8,0:0:0:0:
356,222,86508,2,0,L|358:125,1,90,2|0,0:0|0:0,0:0:0:0:
117,52,86853,1,0,0:0:0:0:
354,49,87025,1,8,0:0:0:0:
120,195,87198,6,0,B|124:306|124:305,1,90,2|0,0:0|0:0,0:0:0:0:
293,291,87542,1,0,0:0:0:0:
124,312,87715,1,8,0:0:0:0:
366,211,87887,2,0,L|466:205,2,90,2|0|0,0:0|0:0|0:0,0:0:0:0:
127,167,88405,1,8,0:0:0:0:
372,135,88577,6,0,B|477:130,1,90,6|0,0:0|0:0,0:0:0:0:
216,289,88922,2,0,L|112:295,1,90,0|8,0:0|0:0,0:0:0:0:
381,216,89267,1,0,0:0:0:0:
474,173,89439,2,0,P|423:172|423:172,1,45,0|8,0:0|0:0,0:0:0:0:
194,137,89611,2,0,L|138:137,1,45
400,308,89784,2,0,P|454:308|454:308,1,45,8|0,0:0|0:0,0:0:0:0:
172,261,89956,2,0,L|127:260,1,45,8|8,0:0|0:0,0:0:0:0:
408,125,90129,1,4,0:0:0:0:
76,151,91163,5,12,0:0:0:0:
440,163,91336,1,12,0:0:0:0:
256,192,91508,12,0,96336,0:0:0:0:
