osu file format v14

[General]
AudioFilename: Hoshi.mp3
AudioLeadIn: 1500
PreviewTime: 127018
Countdown: 0
SampleSet: Soft
StackLeniency: 0.4
Mode: 0
LetterboxInBreaks: 0
WidescreenStoryboard: 0

[Editor]
DistanceSpacing: 1.2
BeatDivisor: 4
GridSize: 32
TimelineZoom: 1.1

[Metadata]
Title:Hoshi Ori Yume Mirai
TitleUnicode:星織ユメミライ
Artist:Ceui
ArtistUnicode:Ceui
Creator:-Nanaka-
Version:Silky's Insane
Source:星織ユメミライ
Tags:tone work's Opening eroge Visual Novel Narcissu Kanau Mamayu fuyuyu- Silky
BeatmapID:1079089
BeatmapSetID:268509

[Difficulty]
HPDrainRate:7
CircleSize:4
OverallDifficulty:8
ApproachRate:9
SliderMultiplier:1.75
SliderTickRate:1

[Events]
//Background and Video events
0,0,"BG5.jpg",0,0
//Break Periods
2,152951,160427
//Storyboard Layer 0 (Background)
//Storyboard Layer 1 (Fail)
//Storyboard Layer 2 (Pass)
//Storyboard Layer 3 (Foreground)
//Storyboard Sound Samples

[TimingPoints]
1027,344.827586206897,4,2,31,50,1,0
1027,-133.333333333333,4,2,31,50,0,0
10682,-100,4,2,30,70,0,0
11716,-100,4,2,30,50,0,0
11889,-100,4,2,30,60,0,0
12061,-100,4,2,30,70,0,0
16458,-100,4,2,30,5,0,0
16544,-100,4,2,30,70,0,0
20423,-100,4,2,30,5,0,0
20509,-100,4,2,30,70,0,0
23095,-133.333333333333,4,2,31,50,0,0
32751,-100,4,2,30,70,0,0
45164,-133.333333333333,4,2,30,70,0,0
50164,-111.111111111111,4,2,30,70,0,0
50682,-133.333333333333,4,2,30,70,0,0
53440,-111.111111111111,4,2,30,70,0,0
56199,-100,4,2,30,70,0,0
58268,-100,4,2,30,50,0,0
58440,-100,4,2,30,60,0,0
58613,-100,4,2,30,70,0,0
58785,-100,4,2,30,80,0,1
69302,-100,4,2,30,50,0,0
69475,-100,4,2,30,60,0,0
69647,-100,4,2,30,70,0,0
69820,-100,4,2,30,80,0,1
74216,-100,4,2,30,5,0,1
74302,-100,4,2,30,80,0,1
74820,-100,4,2,30,5,0,1
74992,-100,4,2,30,80,0,1
75509,-111.111111111111,4,2,30,80,0,1
78268,-100,4,2,30,80,0,1
80337,-100,4,2,30,70,0,0
81027,-100,4,2,30,70,0,1
81113,-100,4,2,30,70,0,0
89389,-100,4,2,30,5,0,0
89475,-100,4,2,30,70,0,0
90682,-111.111111111111,4,2,30,50,0,0
92061,-100,4,2,30,70,0,0
103009,-100,4,2,30,5,0,0
103095,-100,4,2,30,70,0,0
114130,-133.333333333333,4,2,30,70,0,0
119130,-111.111111111111,4,2,30,70,0,0
119647,-133.333333333333,4,2,30,70,0,0
122406,-111.111111111111,4,2,30,70,0,0
126716,-111.111111111111,4,2,1,70,0,0
127233,-111.111111111111,4,2,31,70,0,0
127751,-100,4,2,30,80,0,1
138268,-100,4,2,30,50,0,0
138440,-100,4,2,30,60,0,0
138613,-100,4,2,30,70,0,0
138785,-100,4,2,30,80,0,1
143182,-100,4,2,30,5,0,1
143268,-100,4,2,30,80,0,1
143785,-100,4,2,30,5,0,1
143958,-100,4,2,30,80,0,1
144475,-111.111111111111,4,2,30,80,0,1
147233,-100,4,2,30,80,0,1
149302,-100,4,2,30,80,0,0
149992,-100,4,2,1,80,0,1
150078,-100,4,2,30,30,0,0
152751,-100,4,2,1,50,0,0
161027,-133.333333333333,4,2,31,50,0,0
161371,-133.333333333333,4,2,1,50,0,0
163613,-133.333333333333,4,2,31,50,0,0
164130,-133.333333333333,4,2,1,50,0,0
166544,-133.333333333333,4,2,31,50,0,0
166889,-133.333333333333,4,2,1,50,0,0
169130,-133.333333333333,4,2,31,50,0,0
169647,-133.333333333333,4,2,1,50,0,0
170682,-100,4,2,30,70,0,0
186630,-100,4,2,30,5,0,0
186716,-100,4,2,30,70,0,0
187320,-100,4,2,30,5,0,0
187406,-100,4,2,30,70,0,0
193440,-100,4,2,30,50,0,0
193613,-100,4,2,30,60,0,0
193785,-100,4,2,30,70,0,0
193958,-111.111111111111,4,2,30,80,0,1
194302,-83.3333333333333,4,2,30,80,0,1
194820,-100,4,2,30,80,0,1
204475,-100,4,2,30,50,0,0
204647,-100,4,2,30,60,0,0
204820,-100,4,2,30,70,0,0
204992,-100,4,2,30,80,0,1
209389,-100,4,2,30,5,0,1
209475,-100,4,2,30,80,0,1
209992,-100,4,2,30,5,0,1
210164,-100,4,2,30,80,0,1
210682,-111.111111111111,4,2,30,80,0,1
213440,-100,4,2,30,80,0,1
216027,-111.111111111111,4,2,30,80,0,0
221199,-100,4,2,30,50,0,0
221371,-100,4,2,30,60,0,0
221544,-100,4,2,30,70,0,0
221716,-100,4,2,30,80,0,1
221975,-100,4,2,30,5,0,1
222061,-100,4,2,30,80,0,1
226544,-100,4,2,30,80,0,0
227233,-100,4,2,30,70,0,1
227320,-100,4,2,30,70,0,0
231630,-100,4,2,30,5,0,0
231716,-100,4,2,30,70,0,0
236975,-100,4,2,30,5,0,0
237061,-100,4,2,30,70,0,0
242664,-100,4,2,30,5,0,0
242751,-100,4,2,30,70,0,0
246630,-100,4,2,30,5,0,0
246716,-100,4,2,30,70,0,0
249302,-133.333333333333,4,2,31,50,0,0
260164,-133.333333333333,4,2,1,50,0,0

[Colours]
Combo1 : 255,128,255
Combo2 : 128,255,255
Combo3 : 255,255,128
Combo4 : 128,128,255

[HitObjects]
59,283,1027,6,0,P|107:257|180:271,1,131.25000500679,2|8,0:0|0:0,0:0:0:0:
274,251,1544,2,0,L|265:324,1,65.6250025033952,0|8,0:0|0:0,0:0:0:0:
352,362,1889,2,0,L|360:296,1,65.6250025033952,0|8,0:0|0:0,0:0:0:0:
436,245,2233,1,0,0:0:0:0:
503,180,2406,6,0,P|455:154|382:168,1,131.25000500679,8|8,0:0|0:0,0:0:0:0:
314,226,2923,2,0,P|299:199|297:144,1,65.6250025033952,0|8,0:0|0:0,0:0:0:0:
201,165,3268,2,0,P|205:132|221:103,1,65.6250025033952,0|8,0:0|0:0,0:0:0:0:
315,49,3613,5,2,0:0:0:0:
315,49,3785,2,0,P|385:56|463:61,1,131.25000500679,2|8,0:0|0:0,0:0:0:0:
512,153,4302,2,0,P|477:155|447:158,1,65.6250025033952,0|8,0:0|0:0,0:0:0:0:
379,231,4647,2,0,P|346:227|313:225,1,65.6250025033952,0|8,0:0|0:0,0:0:0:0:
234,165,4992,1,0,0:0:0:0:
162,236,5164,6,0,P|133:189|151:106,1,131.25000500679,8|8,0:0|0:0,0:0:0:0:
143,116,5682,1,0,0:0:0:0:
299,156,5854,2,0,L|226:166,1,65.6250025033952,8|0,0:0|0:0,0:0:0:0:
114,79,6199,2,0,L|187:89,1,65.6250025033952,8|0,0:0|0:0,0:0:0:0:
299,156,6544,6,0,P|375:170|431:136,1,131.25000500679,2|8,0:0|0:0,0:0:0:0:
503,80,7061,2,0,P|496:149|491:218,1,131.25000500679
420,376,7578,6,0,P|414:310|408:245,1,131.25000500679,8|8,0:0|0:0,0:0:0:0:
323,307,8095,2,0,P|263:281|201:297,1,131.25000500679
106,355,8613,6,0,L|88:261,1,65.6250025033952,8|0,0:0|0:0,0:0:0:0:
171,147,8958,2,0,L|153:241,1,65.6250025033952,8|2,0:0|0:0,0:0:0:0:
97,95,9302,6,0,P|166:105|229:52,1,131.25000500679,2|8,0:0|0:0,0:0:0:0:
386,184,9820,2,0,P|330:151|267:162,1,131.25000500679
207,239,10337,2,0,L|219:303,1,65.6250025033952,8|0,0:0|0:0,0:0:0:0:
313,243,10682,5,2,0:0:0:0:
110,311,10854,1,0,0:0:0:0:
110,311,10940,1,0,0:0:0:0:
110,311,11027,1,8,0:0:0:0:
171,147,11199,1,8,0:3:0:0:
230,335,11371,2,0,L|242:378,2,43.75,0|8|8,0:0|0:0|0:0,0:0:0:0:
85,203,11716,5,0,0:0:0:0:
64,164,11802,1,8,0:0:0:0:
64,121,11888,1,8,0:0:0:0:
83,82,11974,1,8,0:0:0:0:
118,57,12061,6,0,P|185:119|266:111,1,175,6|8,0:0|0:0,0:0:0:0:
421,28,12578,1,0,0:0:0:0:
367,180,12751,2,0,P|360:133|354:85,1,87.5,2|2,0:0|0:0,0:0:0:0:
502,155,13095,2,0,P|495:201|489:250,1,87.5,8|0,0:0|0:0,0:0:0:0:
350,347,13440,6,0,P|267:335|164:329,1,175,2|8,0:0|0:0,0:0:0:0:
0,265,13958,2,0,P|46:260|102:251,1,87.5,0|2,0:0|0:0,0:0:0:0:
258,182,14302,1,2,0:0:0:0:
133,75,14475,2,0,P|139:119|148:168,1,87.5,8|0,0:0|0:0,0:0:0:0:
336,266,14820,6,0,P|368:214|340:96,2,175,2|8|2,0:0|0:0|0:0,0:0:0:0:
146,161,15682,1,2,0:0:0:0:
230,335,15854,2,0,P|235:293|239:240,1,87.5,8|0,0:0|0:0,0:0:0:0:
35,115,16199,6,0,P|82:159|147:160,1,131.25,2|0,0:0|0:0,0:0:0:0:
217,107,16544,2,0,L|206:3,1,87.5,12|0,0:0|0:0,0:0:0:0:
348,106,16889,1,2,0:0:0:0:
251,244,17061,1,8,0:0:0:0:
456,169,17233,1,12,0:0:0:0:
312,330,17406,5,2,0:0:0:0:
312,330,17492,1,8,0:0:0:0:
312,330,17578,1,6,0:0:0:0:
356,141,17751,1,0,0:0:0:0:
484,291,17923,1,8,0:0:0:0:
251,244,18095,2,0,P|296:233|352:227,1,87.5,6|0,0:0|0:0,0:0:0:0:
512,100,18440,2,0,P|468:94|426:84,1,87.5,6|0,0:0|0:0,0:0:0:0:
222,4,18785,6,0,P|271:58|252:174,1,175,6|2,0:0|0:0,0:0:0:0:
131,213,19302,1,8,0:0:0:0:
68,90,19475,2,0,P|114:98|163:103,1,87.5,4|2,0:0|0:0,0:0:0:0:
324,235,19820,2,0,P|280:239|237:247,1,87.5,2|8,0:0|0:0,0:0:0:0:
34,357,20164,6,0,P|8:304|24:228,1,131.25,6|0,0:0|0:0,0:0:0:0:
67,174,20509,1,8,0:0:0:0:
163,303,20682,1,8,0:0:0:0:
303,202,20854,1,2,0:0:0:0:
210,381,21027,1,2,0:0:0:0:
210,381,21113,1,8,0:0:0:0:
210,381,21199,1,2,0:0:0:0:
188,153,21371,1,8,0:0:0:0:
406,269,21544,2,0,L|461:263,2,43.75,8|8|6,0:0|0:0|0:0,0:0:0:0:
384,288,23095,5,0,0:0:0:0:
384,288,23440,2,0,P|349:288|312:285,1,65.6250025033952,8|0,0:0|0:0,0:0:0:0:
241,345,23785,2,0,P|174:339|107:337,1,131.25000500679,0|8,0:0|0:0,0:0:0:0:
19,254,24302,6,0,P|16:208|96:174,1,131.25000500679
83,170,24820,1,8,0:0:0:0:
162,226,24992,2,0,P|171:188|176:140,1,65.6250025033952
138,18,25337,2,0,P|128:55|124:104,1,65.6250025033952,0|8,0:0|0:0,0:0:0:0:
263,152,25682,5,2,0:0:0:0:
263,152,25854,2,0,P|336:157|381:117,1,131.25000500679,2|8,0:0|0:0,0:0:0:0:
449,31,26371,2,0,L|460:177,1,131.25000500679
458,161,26889,1,8,0:0:0:0:
499,317,27061,6,0,P|447:278|383:287,1,131.25000500679
309,339,27578,1,8,0:0:0:0:
284,321,27923,2,0,L|215:312,2,65.6250025033952,0|0|8,0:0|0:0|0:0,0:0:0:0:
384,286,28440,1,0,0:0:0:0:
341,190,28613,6,0,P|350:110|356:41,1,131.25000500679,2|8,0:0|0:0,0:0:0:0:
336,35,29302,2,0,P|275:67|199:41,1,131.25000500679,0|8,0:0|0:0,0:0:0:0:
12,101,29992,6,0,P|78:107|154:120,1,131.25000500679,0|8,0:0|0:0,0:0:0:0:
142,117,30509,1,0,0:0:0:0:
187,195,30682,2,0,P|165:202|116:205,1,65.6250025033952
267,249,31027,2,0,P|242:270|196:289,1,65.6250025033952,8|2,0:0|0:0,0:0:0:0:
60,355,31371,6,0,P|30:302|44:236,2,131.25000500679,2|8|0,0:0|0:0|0:0,0:0:0:0:
125,286,32233,1,0,0:0:0:0:
201,347,32406,2,0,P|239:342|277:341,1,65.6250025033952,8|0,0:0|0:0,0:0:0:0:
447,238,32751,5,2,0:0:0:0:
307,171,32923,1,0,0:0:0:0:
307,171,33009,1,8,0:0:0:0:
307,171,33095,1,8,0:0:0:0:
476,327,33268,2,0,P|431:322|381:306,1,87.5,8|0,0:3|0:0,0:0:0:0:
242,220,33613,2,0,P|283:207|327:202,1,87.5,8|0,0:0|0:0,0:0:0:0:
464,66,33958,5,8,0:0:0:0:
477,96,34044,1,8,0:0:0:0:
481,126,34130,2,0,P|393:137|338:58,1,175,6|8,0:0|0:0,0:0:0:0:
219,27,34647,2,0,P|227:68|231:129,1,87.5,0|2,0:0|0:0,0:0:0:0:
109,239,34992,2,0,P|100:197|97:137,1,87.5,2|8,0:0|0:0,0:0:0:0:
44,334,35337,6,0,P|84:340|139:353,1,87.5,2|0,0:0|0:0,0:0:0:0:
166,173,35682,2,0,P|140:205|102:245,1,87.5,2|8,0:0|0:0,0:0:0:0:
254,358,36027,2,0,P|238:319|222:266,1,87.5,0|2,0:0|0:0,0:0:0:0:
409,324,36371,1,2,0:0:0:0:
359,165,36544,2,0,P|343:204|327:257,1,87.5,8|2,0:0|0:0,0:0:0:0:
450,123,36889,6,0,P|400:76|293:93,1,175,2|8,0:0|0:0,0:0:0:0:
440,220,37406,2,0,P|483:213|532:197,1,87.5,0|2,0:0|0:0,0:0:0:0:
359,165,37751,1,2,0:0:0:0:
450,317,37923,1,8,0:0:0:0:
248,373,38095,6,0,P|219:291|256:209,1,175,2|2,0:0|0:0,0:0:0:0:
259,28,38613,2,0,P|272:72|280:123,1,87.5,8|0,0:0|0:0,0:0:0:0:
97,182,38958,2,0,P|138:160|180:142,1,87.5,2|8,0:0|0:0,0:0:0:0:
316,271,39302,2,0,P|280:241|246:207,1,87.5,8|2,0:0|0:0,0:0:0:0:
502,115,39647,6,0,P|440:176|357:163,1,175,6|8,0:0|0:0,0:0:0:0:
259,28,40164,1,0,0:0:0:0:
413,91,40337,2,0,L|320:79,1,87.5,2|2,0:0|0:0,0:0:0:0:
241,195,40682,2,0,L|327:183,1,87.5,8|0,0:0|0:0,0:0:0:0:
161,285,41027,5,2,0:0:0:0:
206,106,41199,1,2,0:0:0:0:
339,215,41371,1,8,0:0:0:0:
113,300,41544,2,0,L|216:323,1,87.5,0|2,0:0|0:0,0:0:0:0:
339,215,41889,1,2,0:0:0:0:
237,384,42061,1,8,0:0:0:0:
41,346,42233,6,0,P|29:277|108:213,1,175,2|2,0:0|0:0,0:0:0:0:
233,326,42751,1,8,0:0:0:0:
346,168,42923,1,0,0:0:0:0:
161,285,43095,1,2,0:0:0:0:
342,384,43268,2,0,P|387:377|442:371,1,87.5,2|8,0:0|0:0,0:0:0:0:
505,169,43613,6,0,P|463:181|420:191,1,87.5,0|2,0:0|0:0,0:0:0:0:
242,230,43958,2,0,P|285:240|331:254,1,87.5,8|8,0:0|0:0,0:0:0:0:
161,285,44302,2,0,P|154:247|148:183,1,87.5,2|8,0:0|0:0,0:0:0:0:
334,81,44647,1,2,0:0:0:0:
334,81,44733,1,2,0:0:0:0:
334,81,44820,2,0,P|340:118|347:183,1,87.5,8|4,0:0|0:3,0:0:0:0:
209,358,45164,6,0,P|146:371|85:322,2,131.25000500679,6|0|8,0:0|0:0|0:0,0:0:0:0:
313,316,46027,2,0,P|321:282|328:239,1,65.6250025033952,0|2,0:0|0:0,0:0:0:0:
239,172,46371,6,0,P|166:176|101:186,1,131.25000500679,2|8,0:0|0:0,0:0:0:0:
43,81,46889,2,0,P|76:88|114:94,1,65.6250025033952,2|0,0:0|0:0,0:0:0:0:
210,74,47233,2,0,P|278:73|330:135,1,131.25000500679,8|2,0:0|0:0,0:0:0:0:
333,209,47751,1,0,0:0:0:0:
408,270,47923,6,0,P|445:265|494:261,1,65.6250025033952,2|0,0:0|0:0,0:0:0:0:
490,164,48268,2,0,P|457:168|424:171,1,65.6250025033952
333,209,48613,2,0,P|267:204|190:201,1,131.25000500679,8|2,0:0|0:0,0:0:0:0:
126,339,49130,6,0,P|185:290|249:312,1,131.25000500679,2|8,0:0|0:0,0:0:0:0:
335,370,49647,1,2,0:0:0:0:
333,209,49820,2,0,P|299:212|260:214,1,65.6250025033952,8|2,0:0|0:0,0:0:0:0:
377,180,50164,6,0,P|304:188|214:193,1,157.499995193482,12|0,0:0|0:0,0:0:0:0:
68,141,50682,6,0,P|57:81|108:31,1,131.25000500679,6|2,0:0|0:0,0:0:0:0:
210,74,51199,2,0,P|245:71|284:68,1,65.6250025033952,0|8,0:0|0:0,0:0:0:0:
233,164,51544,2,0,P|200:166|167:169,1,65.6250025033952
58,236,51889,6,0,P|72:305|85:378,1,131.25000500679,2|8,0:0|0:0,0:0:0:0:
186,261,52406,2,0,P|178:303|171:345,1,65.6250025033952,2|0,0:0|0:0,0:0:0:0:
280,374,52751,2,0,P|316:313|293:245,1,131.25000500679,8|0,0:0|0:0,0:0:0:0:
233,163,53268,1,0,0:0:0:0:
403,261,53440,6,0,P|442:255|502:250,1,78.7499975967408,6|0,0:0|0:0,0:0:0:0:
311,154,53785,2,0,P|271:159|212:165,1,78.7499975967408,8|0,0:0|0:0,0:0:0:0:
154,326,54130,1,8,0:0:0:0:
280,242,54302,1,0,0:0:0:0:
104,179,54475,1,8,0:0:0:0:
271,320,54647,6,0,P|275:280|283:220,1,78.7499975967408,0|8,0:0|0:0,0:0:0:0:
223,84,54992,1,0,0:0:0:0:
223,84,55164,2,0,L|227:123|231:162,1,78.7499975967408,8|0,0:0|0:0,0:0:0:0:
378,265,55509,2,0,P|418:256|469:250,1,78.7499975967408,8|0,0:0|0:0,0:0:0:0:
154,326,55854,2,0,P|113:317|63:311,1,78.7499975967408,8|0,0:0|0:0,0:0:0:0:
42,130,56199,5,12,0:0:0:0:
203,248,56371,1,2,0:0:0:0:
152,80,56544,1,2,0:0:0:0:
117,244,56716,1,12,0:0:0:0:
311,98,56889,1,2,0:0:0:0:
266,315,57061,1,2,0:0:0:0:
480,219,57233,1,12,0:0:0:0:
480,219,57578,5,2,0:0:0:0:
293,181,57751,1,8,0:0:0:0:
378,365,57923,2,0,P|426:354|479:347,1,87.5,8|2,0:0|0:0,0:0:0:0:
473,118,58268,1,2,0:0:0:0:
490,149,58354,1,8,0:0:0:0:
493,185,58440,1,8,0:0:0:0:
480,219,58526,1,8,0:0:0:0:
454,244,58612,1,8,0:0:0:0:
420,257,58699,1,8,0:0:0:0:
384,253,58785,6,0,P|292:236|207:223,1,175,6|2,0:0|0:0,0:0:0:0:
378,365,59302,2,0,P|420:355|461:338,1,87.5,8|0,0:0|0:0,0:0:0:0:
397,170,59647,1,2,0:0:0:0:
270,325,59820,1,2,0:0:0:0:
311,98,59992,1,8,0:0:0:0:
143,236,60164,6,0,P|225:256|292:204,1,175,2|2,0:0|0:0,0:0:0:0:
63,295,60682,2,0,P|53:249|48:208,1,87.5,8|0,0:0|0:0,0:0:0:0:
191,77,61027,2,0,P|200:122|206:164,1,87.5,2|2,0:0|0:0,0:0:0:0:
160,348,61371,1,8,0:0:0:0:
160,348,61716,5,2,0:0:0:0:
369,249,61889,1,0,0:0:0:0:
205,163,62061,1,8,0:0:0:0:
341,351,62233,2,0,P|387:345|444:342,1,87.5,6|0,0:0|0:0,0:0:0:0:
188,259,62578,2,0,P|142:265|85:268,1,87.5,2|8,0:0|0:0,0:0:0:0:
287,95,62923,6,0,P|328:169|298:254,1,175,6|2,0:0|0:0,0:0:0:0:
159,138,63440,1,8,0:0:0:0:
44,308,63613,2,0,P|104:249|187:259,1,175,6|2,0:0|0:0,0:0:0:0:
266,340,64130,2,0,P|307:341|379:323,1,87.5,8|0,0:0|0:0,0:0:0:0:
505,218,64475,6,0,P|444:158|361:169,1,175,6|8,0:0|0:0,0:0:0:0:
262,225,64992,2,0,P|255:184|246:136,1,87.5,2|0,0:0|0:0,0:0:0:0:
395,331,65337,2,0,P|402:290|410:242,1,87.5,2|8,0:0|0:0,0:0:0:0:
266,340,65682,1,0,0:0:0:0:
174,179,65854,5,6,0:0:0:0:
373,284,66027,1,2,0:0:0:0:
177,384,66199,1,8,0:0:0:0:
294,167,66371,2,0,P|278:255|265:345,1,175,6|2,0:0|0:0,0:0:0:0:
104,282,66889,2,0,P|149:269|205:262,1,87.5,8|0,0:0|0:0,0:0:0:0:
146,134,67233,6,0,P|55:141|1:75,1,175,6|8,0:0|0:0,0:0:0:0:
220,67,67751,1,0,0:0:0:0:
220,67,67837,1,8,0:0:0:0:
220,67,67923,1,2,0:0:0:0:
138,242,68095,1,2,0:0:0:0:
98,45,68268,1,8,0:0:0:0:
269,189,68440,6,0,P|359:177|450:168,1,175,6|2,0:0|0:0,0:0:0:0:
301,300,68958,2,0,P|258:294|205:288,1,87.5,8|2,0:0|0:0,0:0:0:0:
59,169,69302,1,2,0:0:0:0:
48,134,69388,1,8,0:0:0:0:
51,98,69474,1,8,0:0:0:0:
69,67,69560,1,8,0:0:0:0:
98,45,69646,1,8,0:0:0:0:
134,37,69733,1,8,0:0:0:0:
169,44,69820,6,0,P|156:128|149:223,1,175,6|2,0:0|0:0,0:0:0:0:
280,102,70337,2,0,P|272:153|269:192,1,87.5,8|0,0:0|0:0,0:0:0:0:
453,275,70682,1,2,0:0:0:0:
358,163,70854,1,2,0:0:0:0:
512,106,71027,1,8,0:0:0:0:
481,320,71199,6,0,P|392:306|294:296,1,175,2|2,0:0|0:0,0:0:0:0:
184,170,71716,1,8,0:0:0:0:
104,347,71889,1,0,0:0:0:0:
104,347,71975,1,8,0:0:0:0:
104,347,72061,2,0,P|154:345|197:321,1,87.5,2|2,0:0|0:0,0:0:0:0:
368,226,72406,2,0,P|328:208|284:207,1,87.5,8|0,0:0|0:0,0:0:0:0:
126,251,72751,6,0,P|86:188|120:93,1,175,2|8,0:0|0:0,0:0:0:0:
272,38,73268,1,0,0:0:0:0:
272,38,73354,1,8,0:0:0:0:
272,38,73440,1,2,0:0:0:0:
184,170,73613,1,2,0:0:0:0:
392,105,73785,1,8,0:0:0:0:
256,267,73958,6,0,P|186:257|111:249,1,131.25,6|0,0:0|0:0,0:0:0:0:
86,289,74302,2,0,P|124:282|185:274,1,87.5,8|8,0:0|0:0,0:0:0:0:
335,341,74647,2,0,P|373:334|434:326,1,87.5,6|0,0:0|0:0,0:0:0:0:
490,126,74992,2,0,P|456:84|340:90,1,175,6|0,0:0|0:0,0:0:0:0:
293,177,75509,6,0,P|216:170|131:162,1,157.499995193482,6|0,0:0|0:0,0:0:0:0:
38,136,76027,2,0,P|44:178|52:242,1,78.7499975967408,2|8,0:0|0:0,0:0:0:0:
120,342,76371,2,0,P|126:300|134:236,1,78.7499975967408,0|2,0:0|0:0,0:0:0:0:
241,318,76716,6,0,P|306:281|397:305,1,157.499995193482,6|8,0:0|0:0,0:0:0:0:
451,367,77233,1,0,0:0:0:0:
479,269,77406,2,0,P|471:226|467:183,1,78.7499975967408,2|8,0:0|0:0,0:0:0:0:
364,40,77751,2,0,P|389:120|347:173,1,157.499995193482,6|8,0:0|0:0,0:0:0:0:
256,135,78268,6,0,P|259:179|267:241,1,87.5,6|0,0:0|0:0,0:0:0:0:
169,374,78613,2,0,P|165:329|158:268,1,87.5,2|8,0:0|0:0,0:0:0:0:
369,197,78958,2,0,P|364:238|349:286,1,87.5,2|8,0:0|0:0,0:0:0:0:
138,153,79302,2,0,P|142:111|158:64,1,87.5,2|8,0:0|0:0,0:0:0:0:
445,94,79647,5,2,0:0:0:0:
428,116,79733,1,2,0:0:0:0:
409,135,79819,1,8,0:0:0:0:
386,149,79905,1,8,0:0:0:0:
360,158,79991,1,8,0:0:0:0:
333,160,80078,1,8,0:0:0:0:
306,158,80164,1,8,0:0:0:0:
280,149,80250,1,8,0:0:0:0:
256,135,80337,1,8,0:0:0:0:
233,116,81027,6,0,P|255:222|213:269,1,175,6|8,0:0|0:0,0:0:0:0:
83,195,81544,2,0,P|127:191|180:186,1,87.5,0|2,0:0|0:0,0:0:0:0:
275,300,81889,2,0,P|231:295|187:292,1,87.5,2|8,0:0|0:0,0:0:0:0:
0,204,82233,6,0,P|37:126|121:121,1,175,2|2,0:0|0:0,0:0:0:0:
216,266,82751,1,8,0:0:0:0:
83,195,82923,1,0,0:0:0:0:
83,195,83009,1,8,0:0:0:0:
83,195,83095,2,0,P|77:238|75:282,1,87.5,2|2,0:0|0:0,0:0:0:0:
208,353,83440,2,0,P|213:309|215:265,1,87.5,8|0,0:0|0:0,0:0:0:0:
206,76,83785,6,0,P|265:142|375:113,1,175,2|8,0:0|0:0,0:0:0:0:
474,48,84302,1,0,0:0:0:0:
512,199,84475,2,0,L|420:210,1,87.5,2|2,0:0|0:0,0:0:0:0:
301,49,84820,2,0,L|393:60,1,87.5,8|0,0:0|0:0,0:0:0:0:
512,199,85164,5,2,0:0:0:0:
345,137,85337,1,2,0:0:0:0:
415,296,85509,2,0,L|425:201,1,87.5,12|0,0:0|0:0,0:0:0:0:
247,339,85854,1,2,0:0:0:0:
345,137,86027,1,8,0:0:0:0:
512,292,86199,1,12,0:0:0:0:
275,231,86371,5,2,0:0:0:0:
275,231,86458,1,0,0:0:0:0:
275,231,86544,1,2,0:0:0:0:
408,350,86716,1,0,0:0:0:0:
431,159,86889,1,8,0:0:0:0:
223,313,87061,2,0,P|266:317|309:324,1,87.5,2|0,0:0|0:0,0:0:0:0:
485,244,87406,2,0,P|439:252|379:257,1,87.5,2|8,0:0|0:0,0:0:0:0:
206,157,87751,6,0,P|202:63|271:15,1,175,2|2,0:0|0:0,0:0:0:0:
345,137,88268,1,8,0:0:0:0:
235,239,88440,2,0,L|132:222,1,87.5,0|2,0:0|0:0,0:0:0:0:
9,130,88785,2,0,L|112:113,1,87.5,0|8,0:0|0:0,0:0:0:0:
260,17,89130,6,0,P|251:81|243:157,1,131.25,6|0,0:0|0:0,0:0:0:0:
235,239,89475,1,8,0:0:0:0:
108,101,89647,1,8,0:0:0:0:
56,251,89820,1,2,0:0:0:0:
243,147,89992,1,2,0:0:0:0:
243,147,90078,1,8,0:0:0:0:
243,147,90164,1,2,0:0:0:0:
384,286,90337,1,8,0:0:0:0:
192,358,90509,5,8,0:0:0:0:
189,336,90595,1,8,0:0:0:0:
186,314,90682,1,2,0:0:0:0:
354,187,90854,1,8,0:0:0:0:
354,187,91027,1,8,0:0:0:0:
283,341,91199,1,2,0:0:0:0:
158,229,91371,2,0,P|201:233|252:243,1,78.7499975967408,8|2,0:0|0:0,0:0:0:0:
186,314,91630,1,2,0:0:0:0:
186,314,91716,2,0,P|146:309|108:303,1,78.7499975967408,8|4,0:0|0:3,0:0:0:0:
0,172,92061,6,0,P|54:107|161:128,1,175,6|8,0:0|0:0,0:0:0:0:
251,170,92578,2,0,P|261:127|265:79,1,87.5,0|2,0:0|0:0,0:0:0:0:
94,199,92923,2,0,P|97:242|107:285,1,87.5,2|8,0:0|0:0,0:0:0:0:
281,267,93268,6,0,P|242:261|191:248,1,87.5,2|0,0:0|0:0,0:0:0:0:
411,350,93613,2,0,P|453:339|496:332,1,87.5,2|8,0:0|0:0,0:0:0:0:
415,113,93958,2,0,P|404:158|395:212,1,87.5,0|2,0:0|0:0,0:0:0:0:
251,170,94302,1,2,0:0:0:0:
299,352,94475,2,0,P|291:308|280:266,1,87.5,8|0,0:0|0:0,0:0:0:0:
60,282,94820,6,0,P|121:341|205:327,2,175,2|8|2,0:0|0:0|0:0,0:0:0:0:
173,157,95682,1,2,0:0:0:0:
15,112,95854,1,8,0:0:0:0:
153,251,96027,6,0,P|246:237|333:226,1,175,2|2,0:0|0:0,0:0:0:0:
385,364,96544,2,0,P|340:357|298:351,1,87.5,8|2,0:0|0:0,0:0:0:0:
482,309,96889,1,2,0:0:0:0:
326,226,97061,1,8,0:0:0:0:
468,122,97233,2,0,P|460:173|451:222,1,87.5,8|0,0:0|0:0,0:0:0:0:
238,295,97578,6,0,P|230:251|223:208,1,87.5,6|0,0:0|0:0,0:0:0:0:
238,295,97923,2,0,P|176:346|81:317,1,175,8|2,0:0|0:0,0:0:0:0:
156,149,98440,1,2,0:0:0:0:
0,213,98613,2,0,P|42:219|93:229,1,87.5,8|2,0:0|0:0,0:0:0:0:
191,85,98958,6,0,P|148:93|104:99,1,87.5,0|2,0:0|0:0,0:0:0:0:
223,208,99302,1,8,0:0:0:0:
355,53,99475,2,0,P|336:147|325:236,1,175,2|2,0:0|0:0,0:0:0:0:
419,365,99992,2,0,P|426:321|434:260,1,87.5,8|0,0:0|0:0,0:0:0:0:
255,346,100337,5,2,0:0:0:0:
255,346,100682,2,0,P|210:341|147:338,1,87.5,8|0,0:0|0:0,0:0:0:0:
318,252,101027,1,2,0:0:0:0:
205,148,101199,1,2,0:0:0:0:
318,252,101371,2,0,P|361:249|405:244,1,87.5,8|0,0:0|0:0,0:0:0:0:
502,85,101716,5,2,0:0:0:0:
352,167,101889,1,8,0:0:0:0:
483,266,102061,1,8,0:0:0:0:
403,88,102233,1,2,0:0:0:0:
237,202,102406,2,0,P|284:195|337:192,1,87.5,8|2,0:0|0:0,0:0:0:0:
352,167,102664,1,2,0:0:0:0:
352,167,102751,2,0,P|341:264|329:329,1,131.25,8|0,0:0|0:0,0:0:0:0:
271,352,103095,6,0,P|185:349|139:278,1,175,6|8,0:0|0:0,0:0:0:0:
0,347,103613,2,0,P|44:357|120:369,1,87.5,0|2,0:0|0:0,0:0:0:0:
169,189,103958,2,0,P|125:196|83:206,1,87.5,2|8,0:0|0:0,0:0:0:0:
256,247,104302,6,0,P|265:203|273:147,1,87.5,2|0,0:0|0:0,0:0:0:0:
350,308,104647,2,0,P|359:264|367:208,1,87.5,2|8,0:0|0:0,0:0:0:0:
139,280,104992,2,0,P|145:323|154:366,1,87.5,0|2,0:0|0:0,0:0:0:0:
256,247,105337,1,2,0:0:0:0:
75,128,105509,2,0,P|65:170|59:214,1,87.5,8|0,0:0|0:0,0:0:0:0:
167,86,105854,6,0,P|114:35|9:57,1,175,2|8,0:0|0:0,0:0:0:0:
173,188,106371,2,0,P|220:180|262:177,1,87.5,0|2,0:0|0:0,0:0:0:0:
75,128,106716,1,2,0:0:0:0:
139,280,106889,1,8,0:0:0:0:
340,233,107061,6,0,P|357:171|300:84,1,175,2|2,0:0|0:0,0:0:0:0:
259,177,107578,1,8,0:0:0:0:
309,338,107751,2,0,P|352:334|395:327,1,87.5,2|2,0:0|0:0,0:0:0:0:
340,233,108095,1,8,0:0:0:0:
189,376,108268,2,0,P|182:331|172:276,1,87.5,8|0,0:0|0:0,0:0:0:0:
289,157,108613,6,0,P|393:158|430:240,1,175,6|8,0:0|0:0,0:0:0:0:
309,338,109130,1,0,0:0:0:0:
196,187,109302,2,0,P|202:141|211:89,1,87.5,2|2,0:0|0:0,0:0:0:0:
97,1,109647,2,0,P|90:46|82:99,1,87.5,8|0,0:0|0:0,0:0:0:0:
0,222,109992,5,2,0:0:0:0:
196,187,110164,1,0,0:0:0:0:
83,87,110337,1,8,0:0:0:0:
112,306,110509,2,0,P|152:299|209:291,1,87.5,0|2,0:0|0:0,0:0:0:0:
427,210,110854,2,0,P|383:203|340:196,1,87.5,2|8,0:0|0:0,0:0:0:0:
260,55,111199,6,0,P|342:43|398:114,1,175,2|2,0:0|0:0,0:0:0:0:
275,253,111716,1,8,0:0:0:0:
311,128,111889,1,0,0:0:0:0:
400,311,112061,2,0,P|448:302|499:291,1,87.5,2|2,0:0|0:0,0:0:0:0:
256,377,112406,2,0,P|213:367|170:360,1,87.5,8|0,0:0|0:0,0:0:0:0:
78,175,112751,5,2,0:0:0:0:
78,175,112837,1,8,0:0:0:0:
78,175,112923,1,8,0:0:0:0:
241,280,113095,1,8,0:0:0:0:
26,375,113268,2,0,L|18:323,2,43.75,8|2|2,0:0|0:0|0:0,0:0:0:0:
157,152,113613,2,0,B|184:140|200:116|200:116|173:258,1,175,2|0,0:0|0:0,0:0:0:0:
229,337,114130,6,0,P|305:348|351:294,2,131.25000500679,6|0|8,0:0|0:0|0:0,0:0:0:0:
130,316,114992,2,0,P|134:349|137:382,1,65.6250025033952,0|2,0:0|0:0,0:0:0:0:
0,324,115337,6,0,P|1:256|77:218,1,131.25000500679,2|8,0:0|0:0,0:0:0:0:
130,160,115854,2,0,P|162:165|203:171,1,65.6250025033952,2|0,0:0|0:0,0:0:0:0:
292,219,116199,2,0,P|292:154|286:82,1,131.25000500679,8|2,0:0|0:0,0:0:0:0:
219,13,116716,1,0,0:0:0:0:
95,73,116889,6,0,P|62:77|30:82,1,65.6250025033952
65,169,117233,2,0,L|97:164|129:159,1,65.6250025033952
215,209,117578,2,0,P|207:287|204:364,1,131.25000500679,8|2,0:0|0:0,0:0:0:0:
404,384,118095,6,0,P|421:316|389:258,1,131.25000500679,2|8,0:0|0:0,0:0:0:0:
307,333,118613,1,2,0:0:0:0:
225,144,118785,2,0,P|220:173|214:213,1,65.6250025033952,8|2,0:0|0:0,0:0:0:0:
262,105,119130,6,0,P|245:192|233:278,1,157.499995193482,12|0,0:0|0:0,0:0:0:0:
77,307,119647,6,0,P|141:320|213:342,1,131.25000500679,2|2,0:0|0:0,0:0:0:0:
125,230,120164,2,0,P|121:192|134:155,1,65.6250025033952,0|8,0:0|0:0,0:0:0:0:
91,76,120509,2,0,P|117:49|160:32,1,65.6250025033952
258,13,120854,6,0,P|247:78|237:154,1,131.25000500679,2|8,0:0|0:0,0:0:0:0:
325,215,121371,2,0,P|356:210|395:206,1,65.6250025033952,2|0,0:0|0:0,0:0:0:0:
485,107,121716,2,0,P|417:113|365:63,1,131.25000500679,8|2,0:0|0:0,0:0:0:0:
325,215,122233,1,0,0:0:0:0:
210,149,122406,6,0,P|249:142|293:138,1,78.7499975967408,2|0,0:0|0:0,0:0:0:0:
159,248,122751,2,0,P|198:241|242:237,1,78.7499975967408,8|0,0:0|0:0,0:0:0:0:
58,156,123095,1,8,0:0:0:0:
236,59,123268,1,0,0:0:0:0:
159,248,123440,1,8,0:0:0:0:
346,279,123613,6,0,P|356:202|310:141,1,157.499995193482,6|0,0:0|0:0,0:0:0:0:
280,340,124130,2,0,P|316:358|378:369,1,78.7499975967408,8|0,0:0|0:0,0:0:0:0:
166,308,124476,2,0,P|132:330|91:378,1,78.7499975967408,8|0,0:0|0:0,0:0:0:0:
240,228,124820,2,0,P|237:187|216:128,1,78.7499975967408,8|8,0:0|0:0,0:0:0:0:
72,49,125164,5,12,0:0:0:0:
164,202,125337,1,2,0:0:0:0:
0,132,125509,1,2,0:0:0:0:
174,92,125682,1,12,0:0:0:0:
57,227,125854,1,2,0:0:0:0:
254,138,126027,1,2,0:0:0:0:
353,321,126199,1,12,0:0:0:0:
353,321,126716,6,0,L|409:313,2,39.3749987983704,4|0|2,0:0|0:0|0:0,0:0:0:0:
168,241,127061,1,2,0:0:0:0:
247,384,127233,2,0,P|251:315|267:222,1,157.499995193482,4|0,0:0|0:0,0:0:0:0:
270,193,127751,6,0,P|352:250|446:220,1,175,6|2,0:0|0:0,0:0:0:0:
495,336,128268,2,0,P|453:344|400:357,1,87.5,8|0,0:0|0:0,0:0:0:0:
254,298,128613,1,2,0:0:0:0:
421,237,128785,1,2,0:0:0:0:
239,153,128958,1,8,0:0:0:0:
102,342,129130,6,0,P|187:351|254:298,1,175,2|2,0:0|0:0,0:0:0:0:
342,177,129647,2,0,P|341:130|327:81,1,87.5,8|0,0:0|0:0,0:0:0:0:
135,121,129992,2,0,P|136:168|150:217,1,87.5,2|2,0:0|0:0,0:0:0:0:
239,153,130337,1,8,0:0:0:0:
239,153,130682,5,2,0:0:0:0:
83,314,130854,1,0,0:0:0:0:
135,121,131027,1,8,0:0:0:0:
334,250,131199,2,0,P|379:243|431:236,1,87.5,6|0,0:0|0:0,0:0:0:0:
166,201,131544,2,0,P|211:194|263:187,1,87.5,2|8,0:0|0:0,0:0:0:0:
447,326,131889,6,0,P|507:261|473:160,1,175,6|2,0:0|0:0,0:0:0:0:
324,89,132406,1,8,0:0:0:0:
221,282,132578,2,0,P|133:292|70:221,1,175,6|2,0:0|0:0,0:0:0:0:
323,336,133095,2,0,P|331:293|334:250,1,87.5,8|0,0:0|0:0,0:0:0:0:
204,130,133440,6,0,P|178:222|232:288,1,175,6|8,0:0|0:0,0:0:0:0:
388,175,133958,2,0,P|348:171|299:164,1,87.5,2|0,0:0|0:0,0:0:0:0:
74,235,134302,2,0,P|117:228|160:224,1,87.5,2|8,0:0|0:0,0:0:0:0:
237,45,134647,1,0,0:0:0:0:
258,241,134820,5,6,0:0:0:0:
103,142,134992,1,2,0:0:0:0:
324,89,135164,1,8,0:0:0:0:
222,303,135337,2,0,P|213:204|202:122,1,175,6|2,0:0|0:0,0:0:0:0:
351,203,135854,2,0,P|345:252|338:293,1,87.5,8|0,0:0|0:0,0:0:0:0:
462,160,136199,6,0,P|408:94|323:89,1,175,6|8,0:0|0:0,0:0:0:0:
179,172,136716,1,2,0:0:0:0:
179,172,136802,1,8,0:0:0:0:
179,172,136889,1,2,0:0:0:0:
351,203,137061,1,2,0:0:0:0:
237,45,137233,1,8,0:0:0:0:
90,215,137406,6,0,P|167:205|269:185,1,175,6|2,0:0|0:0,0:0:0:0:
404,309,137923,2,0,P|365:298|318:289,1,87.5,8|2,0:0|0:0,0:0:0:0:
408,75,138268,1,2,0:0:0:0:
443,80,138354,1,8,0:0:0:0:
474,99,138440,1,8,0:0:0:0:
494,129,138526,1,8,0:0:0:0:
500,164,138612,1,8,0:0:0:0:
491,200,138699,1,8,0:0:0:0:
469,228,138785,6,0,P|392:209|291:193,1,175,6|2,0:0|0:0,0:0:0:0:
176,37,139302,2,0,P|185:81|200:132,1,87.5,8|0,0:0|0:0,0:0:0:0:
328,76,139647,1,2,0:0:0:0:
198,225,139820,1,2,0:0:0:0:
60,122,139992,1,8,0:0:0:0:
224,315,140164,6,0,P|283:260|253:151,1,175,2|2,0:0|0:0,0:0:0:0:
156,109,140682,1,8,0:0:0:0:
26,249,140854,1,0,0:0:0:0:
26,249,140940,1,8,0:0:0:0:
26,249,141027,2,0,P|71:241|120:236,1,87.5,2|2,0:0|0:0,0:0:0:0:
281,351,141371,2,0,P|235:343|187:338,1,87.5,8|0,0:0|0:0,0:0:0:0:
430,286,141716,6,0,P|451:195|399:133,1,175,2|8,0:0|0:0,0:0:0:0:
219,176,142233,1,0,0:0:0:0:
219,176,142320,1,8,0:0:0:0:
219,176,142406,1,2,0:0:0:0:
358,221,142578,1,2,0:0:0:0:
146,263,142751,1,8,0:0:0:0:
341,351,142923,6,0,P|350:283|358:220,1,131.25,6|0,0:0|0:0,0:0:0:0:
326,177,143268,2,0,P|332:220|337:263,1,87.5,8|8,0:0|0:0,0:0:0:0:
189,370,143613,2,0,P|183:326|177:283,1,87.5,6|0,0:0|0:0,0:0:0:0:
58,74,143958,2,0,P|-1:135|35:244,1,175,6|0,0:0|0:0,0:0:0:0:
98,270,144475,6,0,P|181:257|266:250,1,157.499995193482,6|0,0:0|0:0,0:0:0:0:
326,177,144992,2,0,P|330:136|333:92,1,78.7499975967408,2|8,0:0|0:0,0:0:0:0:
225,44,145337,2,0,P|227:83|231:122,1,78.7499975967408,0|2,0:0|0:0,0:0:0:0:
399,11,145682,6,0,P|441:75|426:156,1,157.499995193482,6|8,0:0|0:0,0:0:0:0:
326,177,146199,1,0,0:0:0:0:
400,261,146371,2,0,P|438:255|480:251,1,78.7499975967408,2|8,0:0|0:0,0:0:0:0:
296,343,146716,2,0,P|203:348|166:288,1,157.499995193482,6|0,0:0|0:0,0:0:0:0:
266,191,147233,6,0,P|256:238|247:290,1,87.5,6|0,0:0|0:0,0:0:0:0:
133,117,147578,2,0,P|143:164|152:216,1,87.5,2|8,0:0|0:0,0:0:0:0:
367,100,147923,2,0,P|346:137|315:197,1,87.5,2|8,0:0|0:0,0:0:0:0:
60,58,148268,2,0,P|75:101|91:151,1,87.5,2|8,0:0|0:0,0:0:0:0:
187,335,148613,5,2,0:0:0:0:
191,308,148699,1,2,0:0:0:0:
195,281,148785,1,8,0:0:0:0:
199,253,148871,1,8,0:0:0:0:
201,226,148957,1,8,0:0:0:0:
202,199,149044,1,8,0:0:0:0:
203,171,149130,1,8,0:0:0:0:
202,144,149216,1,8,0:0:0:0:
201,117,149302,1,2,0:0:0:0:
197,89,149992,5,4,0:0:0:0:
256,192,150078,12,2,152751,0:3:0:0:
149,202,161027,5,10,0:0:0:0:
149,202,161371,2,0,P|156:239|160:287,1,65.6250025033952,8|0,0:0|0:0,0:0:0:0:
259,249,161716,2,0,P|255:281|248:313,1,65.6250025033952,8|0,0:0|0:0,0:0:0:0:
77,361,162061,2,0,P|69:328|65:296,1,65.6250025033952,8|0,0:0|0:0,0:0:0:0:
64,162,162406,6,0,P|111:114|196:123,1,131.25000500679,8|8,0:0|0:0,0:0:0:0:
254,156,162923,2,0,P|285:151|332:146,1,65.6250025033952,0|4,0:0|0:0,0:0:0:0:
400,94,163268,2,0,P|396:61|385:18,2,65.6250025033952,0|8|2,0:0|0:0|0:0,0:0:0:0:
480,198,163785,6,0,P|470:268|463:336,1,131.25000500679,10|8,0:0|0:0,0:0:0:0:
368,381,164302,2,0,P|363:346|353:288,1,65.6250025033952,0|8,0:0|0:0,0:0:0:0:
259,249,164647,2,0,P|253:281|249:313,1,65.6250025033952,0|8,0:0|0:0,0:0:0:0:
144,352,164992,1,0,0:0:0:0:
27,270,165164,6,0,P|16:220|72:151,1,131.25000500679,8|8,0:0|0:0,0:0:0:0:
153,135,165682,1,0,0:0:0:0:
167,238,165854,2,0,P|134:233|90:229,1,65.6250025033952,4|0,0:0|0:0,0:0:0:0:
245,169,166199,2,0,P|278:174|322:178,1,65.6250025033952,8|0,0:0|0:0,0:0:0:0:
461,152,166544,6,0,P|472:102|416:33,2,131.25000500679,10|8|8,0:0|0:0|0:0,0:0:0:0:
375,212,167406,1,0,0:0:0:0:
375,212,167578,2,0,P|367:179|361:147,1,65.6250025033952,8|0,0:0|0:0,0:0:0:0:
275,53,167923,6,0,P|240:95|148:86,1,131.25000500679,8|8,0:0|0:0,0:0:0:0:
87,33,168440,1,0,0:0:0:0:
68,130,168613,2,0,P|75:168|80:206,1,65.6250025033952,8|0,0:0|0:0,0:0:0:0:
167,263,168958,2,0,P|171:230|177:198,1,65.6250025033952,8|2,0:0|0:0,0:0:0:0:
86,321,169302,6,0,P|136:362|211:353,1,131.25000500679,10|8,0:0|0:0,0:0:0:0:
263,283,169820,2,0,P|299:292|340:299,1,65.6250025033952,0|8,0:0|0:0,0:0:0:0:
429,284,170164,2,0,P|424:318|415:352,2,65.6250025033952,0|8|0,0:0|0:0|0:0,0:0:0:0:
307,165,170682,5,2,0:0:0:0:
472,98,170854,1,0,0:0:0:0:
472,98,170940,1,0,0:0:0:0:
472,98,171027,1,8,0:0:0:0:
332,264,171199,2,0,P|289:255|214:244,1,87.5,8|0,0:0|0:0,0:0:0:0:
135,164,171544,1,2,0:0:0:0:
135,164,171630,1,2,0:0:0:0:
135,164,171716,1,8,0:0:0:0:
253,362,171889,1,2,0:0:0:0:
435,249,172061,6,0,P|390:177|307:165,1,175,6|8,0:0|0:0,0:0:0:0:
153,247,172578,1,0,0:0:0:0:
197,74,172751,2,0,P|208:114|222:174,1,87.5,2|2,0:0|0:0,0:0:0:0:
332,264,173095,2,0,P|322:306|310:348,1,87.5,8|0,0:0|0:0,0:0:0:0:
77,335,173440,6,0,P|135:266|234:285,1,175,2|8,0:0|0:0,0:0:0:0:
380,237,173958,2,0,P|334:232|272:220,1,87.5,2|0,0:0|0:0,0:0:0:0:
168,356,174302,2,0,P|211:348|254:343,1,87.5,2|8,0:0|0:0,0:0:0:0:
155,181,174647,1,0,0:0:0:0:
332,264,174820,6,0,P|381:195|342:86,1,175,2|8,0:0|0:0,0:0:0:0:
215,257,175337,1,0,0:0:0:0:
215,257,175423,1,8,0:0:0:0:
215,257,175509,1,2,0:0:0:0:
52,183,175682,1,2,0:0:0:0:
168,356,175854,1,8,0:0:0:0:
308,219,176027,6,0,P|225:232|122:242,1,175,2|2,0:0|0:0,0:0:0:0:
69,72,176544,1,8,0:0:0:0:
219,145,176716,2,0,P|268:138|319:128,1,87.5,6|2,0:0|0:0,0:0:0:0:
477,189,177061,1,8,0:0:0:0:
477,189,177233,2,0,P|433:181|390:174,1,87.5,12|0,0:0|0:0,0:0:0:0:
228,343,177578,6,0,P|220:299|214:256,1,87.5,6|2,0:0|0:0,0:0:0:0:
228,343,177923,2,0,P|321:364|382:309,1,175,8|2,0:0|0:0,0:0:0:0:
357,168,178440,1,2,0:0:0:0:
482,313,178613,1,8,0:0:0:0:
291,265,178785,6,0,P|204:250|117:243,1,175,2|2,0:0|0:0,0:0:0:0:
228,343,179302,1,8,0:0:0:0:
389,319,179475,2,0,P|407:236|357:168,1,175,2|2,0:0|0:0,0:0:0:0:
366,133,179906,1,2,0:0:0:0:
359,136,179992,2,0,P|317:152|244:165,1,87.5,8|0,0:0|0:0,0:0:0:0:
51,81,180337,6,0,P|93:90|134:106,1,87.5,2|8,0:0|0:0,0:0:0:0:
170,90,180595,1,8,0:0:0:0:
167,96,180682,2,0,P|153:143|144:208,1,87.5,2|8,0:0|0:0,0:0:0:0:
240,321,181027,5,2,0:0:0:0:
275,161,181199,1,8,0:0:0:0:
253,353,181371,1,8,0:0:0:0:
262,129,181544,1,8,0:0:0:0:
418,278,181716,5,2,0:0:0:0:
442,288,181802,1,2,0:0:0:0:
469,287,181888,1,8,0:0:0:0:
493,274,181974,1,8,0:0:0:0:
508,252,182060,1,8,0:0:0:0:
512,225,182147,1,8,0:0:0:0:
504,199,182233,1,8,0:0:0:0:
484,180,182319,1,8,0:0:0:0:
459,172,182406,6,0,P|412:182|360:191,1,87.5,8|4,0:3|0:3,0:0:0:0:
491,82,182751,1,4,0:3:0:0:
418,278,182923,6,0,P|341:263|230:246,1,175,6|2,0:0|0:0,0:0:0:0:
63,346,183440,2,0,P|111:338|155:328,1,87.5,8|0,0:0|0:0,0:0:0:0:
88,232,183785,1,2,0:0:0:0:
239,344,183958,1,2,0:0:0:0:
206,129,184130,1,8,0:0:0:0:
349,317,184302,6,0,P|443:321|497:263,1,175,2|2,0:0|0:0,0:0:0:0:
385,182,184820,2,0,P|343:191|281:197,1,87.5,8|0,0:0|0:0,0:0:0:0:
276,221,185078,1,8,0:0:0:0:
277,211,185164,2,0,P|275:165|261:103,1,87.5,2|2,0:0|0:0,0:0:0:0:
88,232,185509,2,0,P|89:277|104:340,1,87.5,8|0,0:0|0:0,0:0:0:0:
151,147,185854,6,0,P|69:126|0:176,1,175,2|8,0:0|0:0,0:0:0:0:
84,339,186371,2,0,P|153:326|223:320,1,131.25,6|0,0:0|0:0,0:0:0:0:
289,310,186716,2,0,P|248:304|191:293,1,87.5,2|8,0:0|0:0,0:0:0:0:
427,358,187061,6,0,P|477:277|453:213,1,131.25,6|0,0:0|0:0,0:0:0:0:
426,185,187406,2,0,P|433:229|439:290,1,87.5,2|8,0:0|0:0,0:0:0:0:
317,152,187751,2,0,P|329:242|339:340,1,175,6|2,0:0|0:0,0:0:0:0:
156,239,188268,1,8,0:0:0:0:
156,239,188613,5,6,0:0:0:0:
225,358,188785,1,0,0:0:0:0:
29,291,188958,1,8,0:0:0:0:
220,159,189130,2,0,P|174:151|130:143,1,87.5,2|0,0:0|0:0,0:0:0:0:
289,310,189475,2,0,L|332:302|375:294,1,87.5,2|8,0:0|0:0,0:0:0:0:
156,239,189820,1,0,0:0:0:0:
308,97,189992,6,0,P|315:140|320:202,1,87.5,6|2,0:0|0:0,0:0:0:0:
124,120,190337,1,8,0:0:0:0:
241,242,190509,2,0,P|329:225|419:209,1,175,6|2,0:0|0:0,0:0:0:0:
302,332,191027,2,0,P|350:338|410:347,1,87.5,8|0,0:0|0:0,0:0:0:0:
169,325,191371,6,0,P|160:282|155:238,1,87.5,2|0,0:0|0:0,0:0:0:0:
399,296,191716,2,0,P|407:253|412:209,1,87.5,8|2,0:0|0:0,0:0:0:0:
399,180,191975,1,8,0:0:0:0:
399,180,192061,1,2,0:0:0:0:
302,332,192233,1,2,0:0:0:0:
236,109,192406,1,8,0:0:0:0:
86,281,192578,6,0,P|171:292|240:241,1,175,6|2,0:0|0:0,0:0:0:0:
118,380,193095,2,0,P|77:371|27:363,1,87.5,8|2,0:0|0:0,0:0:0:0:
4,161,193440,1,2,0:0:0:0:
39,169,193526,1,2,0:0:0:0:
75,176,193612,1,8,0:0:0:0:
110,184,193698,1,8,0:0:0:0:
146,191,193784,1,8,0:0:0:0:
182,197,193871,1,8,0:0:0:0:
218,204,193958,6,0,P|266:198|320:189,1,78.7499975967408,2|0,0:0|0:0,0:0:0:0:
477,341,194302,5,2,0:0:0:0:
493,317,194389,1,2,0:0:0:0:
500,288,194475,2,0,P|454:253|369:265,1,104.999996795654,12|0,0:0|0:0,0:0:0:0:
302,332,194820,5,2,0:0:0:0:
379,152,194992,1,2,0:0:0:0:
193,232,195164,1,8,0:0:0:0:
408,248,195337,6,0,P|468:183|443:80,1,175,2|2,0:0|0:0,0:0:0:0:
232,261,195854,2,0,P|277:269|335:277,1,87.5,8|0,0:0|0:0,0:0:0:0:
379,152,196199,2,0,P|336:160|292:166,1,87.5,2|2,0:0|0:0,0:0:0:0:
385,349,196544,1,8,0:0:0:0:
385,349,196889,5,2,0:0:0:0:
232,261,197061,1,0,0:0:0:0:
379,152,197233,1,8,0:0:0:0:
279,359,197406,2,0,P|273:316|266:264,1,87.5,6|0,0:0|0:0,0:0:0:0:
478,127,197751,2,0,P|472:170|467:214,1,87.5,2|8,0:0|0:0,0:0:0:0:
267,165,198095,6,0,P|232:75|297:-11,1,175,6|2,0:0|0:0,0:0:0:0:
379,152,198613,1,8,0:0:0:0:
232,261,198785,2,0,P|138:216|61:252,1,175,6|2,0:0|0:0,0:0:0:0:
203,357,199302,2,0,P|246:356|300:338,1,87.5,8|0,0:0|0:0,0:0:0:0:
448,200,199647,6,0,P|435:279|421:377,1,175,6|8,0:0|0:0,0:0:0:0:
243,211,200164,2,0,P|249:251|256:305,1,87.5,2|0,0:0|0:0,0:0:0:0:
385,96,200509,2,0,P|378:139|372:182,1,87.5,2|8,0:0|0:0,0:0:0:0:
226,69,200854,1,0,0:0:0:0:
135,246,201027,5,6,0:0:0:0:
297,151,201199,1,2,0:0:0:0:
202,327,201371,1,8,0:0:0:0:
35,211,201544,2,0,P|88:151|194:159,1,175,6|2,0:0|0:0,0:0:0:0:
324,252,202061,2,0,P|282:242|232:234,1,87.5,8|0,0:0|0:0,0:0:0:0:
394,346,202406,6,0,P|442:290|426:188,1,175,6|8,0:0|0:0,0:0:0:0:
238,234,202923,1,0,0:0:0:0:
238,234,203009,1,8,0:0:0:0:
238,234,203095,1,2,0:0:0:0:
302,356,203268,1,2,0:0:0:0:
344,139,203440,1,8,0:0:0:0:
145,259,203613,6,0,P|61:269|-3:207,1,175,6|2,0:0|0:0,0:0:0:0:
207,146,204130,2,0,P|172:119|131:79,1,87.5,8|2,0:0|0:0,0:0:0:0:
342,28,204475,1,2,0:0:0:0:
314,50,204561,1,2,0:0:0:0:
303,84,204647,1,8,0:0:0:0:
315,118,204733,1,8,0:0:0:0:
344,139,204819,1,8,0:0:0:0:
380,140,204906,1,8,0:0:0:0:
409,120,204992,6,0,P|394:216|385:295,1,175,2|2,0:0|0:0,0:0:0:0:
238,234,205509,2,0,P|243:282|249:320,1,87.5,12|0,0:0|0:0,0:0:0:0:
68,253,205854,1,2,0:0:0:0:
207,146,206027,1,2,0:0:0:0:
116,359,206199,1,8,0:0:0:0:
312,248,206371,6,0,P|219:231|119:216,1,175,2|2,0:0|0:0,0:0:0:0:
315,118,206889,1,8,0:0:0:0:
407,315,207061,1,0,0:0:0:0:
407,315,207147,1,8,0:0:0:0:
407,315,207233,2,0,P|460:310|501:289,1,87.5,2|2,0:0|0:0,0:0:0:0:
255,352,207578,2,0,P|214:335|171:333,1,87.5,8|0,0:0|0:0,0:0:0:0:
425,218,207923,6,0,P|464:159|424:43,1,175,2|8,0:0|0:0,0:0:0:0:
311,248,208440,1,0,0:0:0:0:
311,248,208527,1,8,0:0:0:0:
311,248,208613,1,2,0:0:0:0:
180,75,208785,1,2,0:0:0:0:
350,131,208958,1,8,0:0:0:0:
175,279,209130,6,0,P|109:267|17:255,1,131.25,6|0,0:0|0:0,0:0:0:0:
2,252,209475,2,0,P|45:245|88:239,1,87.5,8|8,0:0|0:0,0:0:0:0:
255,352,209820,2,0,P|211:358|168:364,1,87.5,6|0,0:0|0:0,0:0:0:0:
404,250,210164,2,0,P|342:158|259:170,1,175,6|0,0:0|0:0,0:0:0:0:
207,235,210682,6,0,P|175:155|209:81,1,157.499995193482,6|0,0:0|0:0,0:0:0:0:
292,54,211199,2,0,P|331:60|374:66,1,78.7499975967408,0|8,0:0|0:0,0:0:0:0:
424,147,211544,2,0,P|463:141|502:136,1,78.7499975967408,0|2,0:0|0:0,0:0:0:0:
497,289,211889,6,0,P|439:252|355:270,1,157.499995193482,6|8,0:0|0:0,0:0:0:0:
287,352,212406,1,0,0:0:0:0:
248,258,212578,2,0,P|252:218|256:174,1,78.7499975967408,2|8,0:0|0:0,0:0:0:0:
135,316,212923,2,0,P|126:236|117:157,1,157.499995193482,6|0,0:0|0:0,0:0:0:0:
64,57,213440,6,0,P|109:67|157:76,1,87.5,6|0,0:0|0:0,0:0:0:0:
341,161,213785,2,0,P|298:169|255:178,1,87.5,8|0,0:0|0:0,0:0:0:0:
428,221,214130,2,0,P|436:181|439:122,1,87.5,8|2,0:0|0:0,0:0:0:0:
246,8,214475,2,0,P|237:50|234:94,1,87.5,0|8,0:0|0:0,0:0:0:0:
269,220,214820,5,0,0:0:0:0:
363,88,214992,1,2,0:0:0:0:
146,212,215164,1,12,0:0:0:0:
349,321,215337,2,0,P|393:315|439:312,1,87.5
256,160,215682,5,8,0:0:0:0:
224,371,215854,1,8,0:0:0:0:
20,318,216027,6,0,P|70:263|165:284,1,157.499995193482,6|0,0:0|0:0,0:0:0:0:
234,293,216544,2,0,P|228:331|224:371,1,78.7499975967408,0|2,0:0|0:0,0:0:0:0:
349,321,216889,2,0,P|342:250|336:155,1,157.499995193482,8|0,0:0|0:0,0:0:0:0:
391,65,217406,6,0,P|456:55|510:135,1,157.499995193482,2|8,0:0|0:0,0:0:0:0:
499,233,217923,2,0,P|460:224|420:217,1,78.7499975967408
256,170,218268,2,0,P|294:163|333:154,1,78.7499975967408,8|2,0:0|0:0,0:0:0:0:
212,71,218613,1,0,0:0:0:0:
166,213,218785,1,2,0:0:0:0:
45,72,218958,6,0,P|61:151|79:254,1,157.499995193482,6|0,0:0|0:0,0:0:0:0:
127,366,219475,1,2,0:0:0:0:
127,366,219561,1,2,0:0:0:0:
127,366,219647,2,0,P|132:326|142:270,1,78.7499975967408,8|0,0:0|0:0,0:0:0:0:
161,183,219992,1,0,0:0:0:0:
261,248,220164,6,0,P|355:244|397:180,1,157.499995193482,8|8,0:0|0:0,0:0:0:0:
384,87,220682,2,0,P|345:96|307:102,1,78.7499975967408,0|2,0:0|0:0,0:0:0:0:
214,43,221027,1,12,0:0:0:0:
32,110,221199,1,2,0:0:0:0:
9,138,221285,1,2,0:0:0:0:
0,173,221371,1,8,0:0:0:0:
6,209,221457,1,8,0:0:0:0:
26,239,221543,1,8,0:0:0:0:
56,259,221630,1,8,0:0:0:0:
91,265,221716,6,0,P|148:236|229:261,1,131.25,6|0,0:0|0:0,0:0:0:0:
279,284,222061,2,0,P|265:324|259:373,1,87.5,8|0,0:0|0:0,0:0:0:0:
421,203,222406,2,0,P|415:159|401:118,1,87.5,2|2,0:0|0:0,0:0:0:0:
405,329,222751,2,0,P|447:321|498:315,1,87.5,8|2,0:0|0:0,0:0:0:0:
384,93,223095,6,0,P|331:154|243:135,1,175,0|8,0:0|0:0,0:0:0:0:
320,23,223613,2,0,P|358:11|414:2,1,87.5,0|2,0:0|0:0,0:0:0:0:
505,223,223958,2,0,P|462:215|421:203,1,87.5,2|8,0:0|0:0,0:0:0:0:
268,109,224302,1,0,0:0:0:0:
154,292,224475,5,6,0:0:0:0:
377,243,224647,1,8,0:0:0:0:
256,369,224820,1,8,0:0:0:0:
268,109,224992,1,8,0:0:0:0:
67,276,225164,2,0,P|111:283|164:294,1,87.5,8|8,0:0|0:0,0:0:0:0:
440,334,225509,2,0,P|397:342|353:349,1,87.5,8|8,0:0|0:0,0:0:0:0:
268,109,225854,6,0,P|272:83|277:46,3,43.75,8|2|8|8,0:0|0:0|0:0|0:0,0:0:0:0:
142,86,226199,5,8,0:0:0:0:
115,40,226285,1,8,0:0:0:0:
150,1,226371,1,2,0:0:0:0:
198,22,226458,1,8,0:0:0:0:
193,75,226544,1,8,0:0:0:0:
193,75,227233,6,0,P|179:171|171:273,1,175,6|8,0:0|0:0,0:0:0:0:
77,362,227751,2,0,P|73:324|65:265,1,87.5,0|2,0:0|0:0,0:0:0:0:
28,149,228095,1,2,0:0:0:0:
172,248,228268,2,0,P|214:241|267:236,1,87.5,8|0,0:0|0:0,0:0:0:0:
492,358,228613,6,0,P|430:376|345:301,1,175,2|8,0:0|0:0,0:0:0:0:
512,174,229130,1,0,0:0:0:0:
433,288,229302,2,0,P|424:244|416:190,1,87.5,2|2,0:0|0:0,0:0:0:0:
455,22,229647,2,0,P|448:65|439:108,1,87.5,8|0,0:0|0:0,0:0:0:0:
216,96,229992,6,0,P|281:39|371:62,2,175,2|8|2,0:0|0:0|0:0,0:0:0:0:
417,201,230854,1,2,0:0:0:0:
228,275,231027,2,0,P|183:269|137:259,1,87.5,8|0,0:0|0:0,0:0:0:0:
308,352,231371,6,0,P|339:301|321:216,1,131.25,2|0,0:0|0:0,0:0:0:0:
275,176,231716,2,0,P|282:134|291:81,1,87.5,12|2,0:0|0:0,0:0:0:0:
105,167,232061,1,2,0:0:0:0:
228,275,232233,1,8,0:0:0:0:
37,343,232406,1,12,0:0:0:0:
38,124,232578,5,2,0:0:0:0:
38,124,232664,1,0,0:0:0:0:
38,124,232751,2,0,P|92:187|191:167,1,175,6|8,0:0|0:0,0:0:0:0:
289,89,233268,1,0,0:0:0:0:
228,275,233440,1,2,0:0:0:0:
417,201,233613,1,2,0:0:0:0:
308,352,233785,1,8,0:0:0:0:
493,181,233958,6,0,P|451:174|386:159,1,87.5,0|2,0:0|0:0,0:0:0:0:
228,275,234302,2,0,P|270:265|313:258,1,87.5,2|8,0:0|0:0,0:0:0:0:
242,51,234647,2,0,P|252:100|262:153,1,87.5,0|2,0:0|0:0,0:0:0:0:
399,286,234992,2,0,P|408:243|417:201,1,87.5,2|8,0:0|0:0,0:0:0:0:
256,350,235337,6,0,P|200:303|105:321,1,175,2|2,0:0|0:0,0:0:0:0:
8,192,235854,2,0,P|48:202|103:212,1,87.5,8|8,0:0|0:0,0:0:0:0:
294,141,236199,1,2,0:0:0:0:
184,268,236371,1,2,0:0:0:0:
80,121,236544,1,8,0:0:0:0:
321,215,236716,6,0,P|336:153|345:75,1,131.25,2|0,0:0|0:0,0:0:0:0:
277,55,237061,2,0,P|283:100|302:165,1,87.5,8|8,0:0|0:0,0:0:0:0:
505,291,237406,2,0,P|462:274|397:257,1,87.5,2|8,0:0|0:0,0:0:0:0:
222,359,237751,1,8,0:0:0:0:
186,368,237837,1,8,0:0:0:0:
150,363,237923,1,8,0:0:0:0:
119,346,238009,1,8,0:3:0:0:
96,318,238095,1,4,0:3:0:0:
85,283,238182,1,4,0:3:0:0:
87,247,238268,6,0,P|181:273|261:278,1,175,6|8,0:0|0:0,0:0:0:0:
445,163,238785,2,0,P|392:170|334:188,1,87.5,0|2,0:0|0:0,0:0:0:0:
410,348,239130,2,0,P|418:309|422:254,1,87.5,2|8,0:0|0:0,0:0:0:0:
254,116,239475,6,0,P|298:62|416:64,1,175,2|2,0:0|0:0,0:0:0:0:
287,254,239992,1,8,0:0:0:0:
445,163,240164,1,0,0:0:0:0:
445,163,240251,1,8,0:0:0:0:
445,163,240337,2,0,P|409:157|351:152,1,87.5,2|2,0:0|0:0,0:0:0:0:
221,297,240682,2,0,P|264:290|307:286,1,87.5,8|0,0:0|0:0,0:0:0:0:
124,226,241027,6,0,P|96:306|135:383,2,175,2|8|2,0:0|0:0|0:0,0:0:0:0:
221,297,241889,1,2,0:0:0:0:
162,121,242061,2,0,P|114:128|76:131,1,87.5,8|0,0:0|0:0,0:0:0:0:
41,307,242406,6,0,P|92:346|156:340,1,131.25,2|0,0:0|0:0,0:0:0:0:
221,297,242751,2,0,P|214:249|212:194,1,87.5,12|2,0:0|0:0,0:0:0:0:
346,43,243095,1,2,0:0:0:0:
162,121,243268,1,8,0:0:0:0:
397,174,243440,1,12,0:0:0:0:
195,26,243613,5,2,0:0:0:0:
195,26,243699,1,0,0:0:0:0:
195,26,243785,1,6,0:0:0:0:
289,222,243958,1,0,0:0:0:0:
68,138,244130,1,8,0:0:0:0:
252,260,244302,2,0,P|290:254|354:247,1,87.5,2|0,0:0|0:0,0:0:0:0:
116,113,244647,2,0,P|72:106|29:101,1,87.5,2|8,0:0|0:0,0:0:0:0:
268,22,244992,6,0,P|213:99|245:185,1,175,2|2,0:0|0:0,0:0:0:0:
415,91,245509,1,8,0:0:0:0:
324,201,245682,2,0,P|318:152|314:101,1,87.5,0|2,0:0|0:0,0:0:0:0:
475,237,246027,1,2,0:0:0:0:
475,237,246113,1,2,0:0:0:0:
475,237,246199,1,8,0:0:0:0:
306,341,246371,6,0,P|238:331|158:322,1,131.25,6|0,0:0|0:0,0:0:0:0:
97,332,246716,1,8,0:0:0:0:
229,183,246889,1,8,0:0:0:0:
43,250,247061,1,2,0:0:0:0:
239,373,247233,1,2,0:0:0:0:
239,373,247320,1,8,0:0:0:0:
239,373,247406,1,2,0:0:0:0:
225,101,247578,1,8,0:0:0:0:
431,255,247751,2,0,L|439:206,2,43.75,8|8|6,0:0|0:0|0:0,0:0:0:0:
426,284,249302,6,0,P|371:324|300:293,1,131.25000500679,2|8,0:0|0:0,0:0:0:0:
226,270,249820,2,0,P|227:303|232:350,1,65.6250025033952,0|8,0:0|0:0,0:0:0:0:
144,366,250164,2,0,P|142:332|138:286,1,65.6250025033952,0|8,0:0|0:0,0:0:0:0:
169,195,250509,1,0,0:0:0:0:
74,219,250682,6,0,P|69:149|62:72,1,131.25000500679,8|8,0:0|0:0,0:0:0:0:
156,108,251199,2,0,P|189:115|230:122,1,65.6250025033952,0|8,0:0|0:0,0:0:0:0:
297,189,251544,2,0,P|329:183|361:176,1,65.6250025033952,0|8,0:0|0:0,0:0:0:0:
452,100,251889,5,2,0:0:0:0:
452,100,252061,2,0,P|482:169|461:240,1,131.25000500679,2|8,0:0|0:0,0:0:0:0:
411,298,252578,2,0,P|378:291|346:285,1,65.6250025033952,0|8,0:0|0:0,0:0:0:0:
297,189,252923,2,0,P|264:195|232:202,1,65.6250025033952,0|8,0:0|0:0,0:0:0:0:
140,223,253268,1,0,0:0:0:0:
63,279,253440,6,0,P|119:319|189:305,1,131.25000500679,8|8,0:0|0:0,0:0:0:0:
178,312,253958,1,0,0:0:0:0:
266,284,254130,2,0,P|263:316|259:361,1,65.6250025033952,8|0,0:0|0:0,0:0:0:0:
140,223,254475,2,0,P|142:190|145:157,1,65.6250025033952,8|0,0:0|0:0,0:0:0:0:
65,93,254820,6,0,P|121:53|191:67,1,131.25000500679,2|8,0:0|0:0,0:0:0:0:
240,141,255337,2,0,P|274:134|316:122,1,65.6250025033952,0|8,0:0|0:0,0:0:0:0:
399,154,255682,2,0,P|419:124|436:92,2,65.6250025033952,0|8|0,0:0|0:0|0:0,0:0:0:0:
325,225,256199,6,0,P|308:294|341:352,1,131.25000500679,8|8,0:0|0:0,0:0:0:0:
422,384,256716,2,0,P|426:348|431:305,1,65.6250025033952,0|8,0:0|0:0,0:0:0:0:
512,264,257061,2,0,P|508:228|503:185,1,65.6250025033952,0|8,0:0|0:0,0:0:0:0:
433,98,257406,5,2,0:0:0:0:
433,98,257578,2,0,P|364:108|278:115,1,131.25000500679,2|8,0:0|0:0,0:0:0:0:
208,158,258095,2,0,P|203:125|198:93,1,65.6250025033952,0|8,0:0|0:0,0:0:0:0:
96,80,258440,2,0,P|100:47|105:15,2,65.6250025033952,0|8|0,0:0|0:0|0:0,0:0:0:0:
10,141,258958,6,0,P|58:200|54:269,1,131.25000500679,8|8,0:0|0:0,0:0:0:0:
0,332,259475,1,0,0:0:0:0:
95,352,259647,2,0,P|126:346|169:341,1,65.6250025033952,8|0,0:0|0:0,0:0:0:0:
268,256,259992,6,0,P|260:224|256:192,1,65.6250025033952,8|4,0:0|0:0,0:0:0:0:
