osu file format v14

[General]
AudioFilename: Hoshi.mp3
AudioLeadIn: 1500
PreviewTime: 127018
Countdown: 0
SampleSet: Soft
StackLeniency: 0.7
Mode: 0
LetterboxInBreaks: 0
WidescreenStoryboard: 0

[Editor]
DistanceSpacing: 0.9
BeatDivisor: 2
GridSize: 32
TimelineZoom: 1.1

[Metadata]
Title:Hoshi Ori Yume Mirai
TitleUnicode:星織ユメミライ
Artist:Ceui
ArtistUnicode:Ceui
Creator:-Nanaka-
Version:Normal
Source:星織ユメミライ
Tags:tone work's Opening eroge Visual Novel Narcissu Kanau Mamayu fuyuyu- Silky
BeatmapID:823524
BeatmapSetID:268509

[Difficulty]
HPDrainRate:4
CircleSize:3.5
OverallDifficulty:4
ApproachRate:5
SliderMultiplier:1.1
SliderTickRate:1

[Events]
//Background and Video events
0,0,"BG4.jpg",0,0
//Break Periods
2,152951,159827
//Storyboard Layer 0 (Background)
//Storyboard Layer 1 (Fail)
//Storyboard Layer 2 (Pass)
//Storyboard Layer 3 (Foreground)
//Storyboard Sound Samples

[TimingPoints]
1027,344.827586206897,4,2,1,50,1,0
5682,-100,4,2,1,30,0,0
5854,-100,4,2,1,50,0,0
6544,-100,4,2,1,40,0,0
7061,-100,4,2,1,30,0,0
7578,-100,4,2,1,40,0,0
8095,-100,4,2,1,30,0,0
8613,-100,4,2,1,40,0,0
8958,-100,4,2,1,50,0,0
12061,-100,4,2,1,50,0,0
12406,-100,4,2,1,60,0,0
16544,-100,4,2,1,30,0,0
16716,-100,4,2,1,60,0,0
17233,-100,4,2,1,30,0,0
17578,-100,4,2,1,60,0,0
20164,-100,4,2,1,40,0,0
20251,-100,4,2,1,60,0,0
21716,-100,4,2,1,30,0,0
23095,-100,4,2,1,50,0,0
27061,-100,4,2,1,40,0,0
27923,-100,4,2,1,50,0,0
32751,-100,4,2,1,25,0,0
33268,-100,4,2,1,25,0,0
33613,-100,4,2,1,30,0,0
34130,-100,4,2,1,50,0,0
34302,-100,4,2,1,60,0,0
45164,-100,4,2,1,50,0,0
50164,-100,4,2,1,30,0,0
50509,-100,4,2,1,60,0,0
53440,-100,4,2,1,70,0,0
56199,-100,4,2,1,70,0,0
57578,-100,4,2,1,80,0,0
58268,-100,4,2,1,60,0,0
58785,-100,4,2,1,80,0,1
69130,-100,4,2,1,80,0,0
69820,-100,4,2,1,80,0,1
80854,-100,4,2,1,80,0,0
83785,-100,4,2,1,60,0,0
90682,-100,4,2,1,50,0,0
91199,-100,4,2,1,40,0,0
91544,-100,4,2,1,30,0,0
92061,-100,4,2,1,60,0,0
97578,-100,4,2,1,40,0,0
97923,-100,4,2,1,60,0,0
102578,-100,4,2,1,50,0,0
103095,-100,4,2,1,50,0,0
103440,-100,4,2,1,60,0,0
114130,-100,4,2,1,50,0,0
119130,-100,4,2,1,30,0,0
119475,-100,4,2,1,50,0,0
122406,-100,4,2,1,60,0,0
123613,-100,4,2,1,70,0,0
125164,-100,4,2,1,70,0,0
126716,-100,4,2,1,50,0,0
127233,-100,4,2,1,70,0,0
127751,-100,4,2,1,80,0,1
138095,-100,4,2,1,80,0,0
138785,-100,4,2,1,80,0,1
148613,-100,4,2,1,60,0,1
149475,-100,4,2,1,50,0,0
150078,-100,4,2,1,30,0,0
161027,-100,4,2,1,30,0,0
170682,-100,4,2,1,55,0,0
171544,-100,4,2,1,45,0,0
172061,-100,4,2,1,60,0,0
180337,-100,4,2,1,70,0,0
181716,-100,4,2,1,70,0,0
182061,-100,4,2,1,60,0,0
182233,-100,4,2,1,70,0,0
183613,-100,4,2,1,60,0,0
185854,-100,4,2,1,60,0,0
186371,-100,4,2,1,40,0,0
186630,-100,4,2,1,60,0,0
187061,-100,4,2,1,40,0,0
187320,-100,4,2,1,60,0,0
187751,-100,4,2,1,40,0,0
187923,-100,4,2,1,60,0,0
191371,-100,4,2,1,70,0,0
193440,-100,4,2,1,60,0,0
193958,-100,4,2,1,80,0,1
204302,-100,4,2,1,80,0,0
204992,-100,4,2,1,80,0,1
216027,-100,4,2,1,70,0,0
217061,-100,4,2,1,50,0,0
217233,-100,4,2,1,70,0,0
217751,-100,4,2,1,50,0,0
217923,-100,4,2,1,70,0,0
218958,-100,4,2,1,70,0,0
221716,-100,4,2,1,80,0,1
226027,-100,4,2,1,60,0,1
226544,-100,4,2,1,80,0,1
227233,-100,4,2,1,60,0,0
236716,-100,4,2,1,50,0,0
237061,-100,4,2,1,60,0,0
237406,-100,4,2,1,70,0,0
237578,-100,4,2,1,60,0,0
244647,-100,4,2,1,40,0,0
244992,-100,4,2,1,60,0,0
245337,-100,4,2,1,40,0,0
245682,-100,4,2,1,60,0,0
248958,-100,4,2,1,30,0,0

[Colours]
Combo1 : 211,207,194
Combo2 : 255,0,0
Combo3 : 0,64,128
Combo4 : 255,128,0
Combo5 : 0,255,255

[HitObjects]
111,286,1027,6,0,L|132:161,1,110,4|8,3:2|0:0,0:0:0:0:
136,128,1544,2,0,P|181:160|247:181,1,110,2|2,0:1|0:0,0:0:0:0:
282,177,2061,1,8,0:0:0:0:
365,124,2406,2,0,L|384:235,1,110,8|8,0:0|0:0,0:0:0:0:
383,282,2923,2,0,P|333:313|265:322,1,110,2|2,0:1|0:0,0:0:0:0:
235,309,3440,1,8,0:0:0:0:
146,352,3785,6,0,L|129:232,1,110,8|8,3:2|0:0,0:0:0:0:
146,196,4302,2,0,P|162:138|170:72,1,110,2|2,0:1|0:0,0:0:0:0:
161,39,4820,1,8,0:0:0:0:
253,74,5164,2,0,P|311:63|366:51,1,110,8|8,0:0|0:0,0:0:0:0:
457,29,5854,2,0,P|472:90|478:158,1,110,8|8,0:0|0:0,0:0:0:0:
455,233,6544,6,0,P|378:215|278:203,1,165,4|2,3:2|0:0,0:0:0:0:
171,289,7578,2,0,P|160:211|143:113,1,165,12|4,0:0|0:0,0:0:0:0:
33,28,8613,2,0,P|31:80|28:141,1,110,12|10,0:0|0:0,0:0:0:0:
40,236,9302,6,0,L|59:352,1,110,4|10,3:2|0:1,0:0:0:0:
105,359,9820,2,0,P|158:327|216:313,1,110,2|2,0:0|0:0,0:0:0:0:
301,333,10509,1,2,0:1:0:0:
301,333,10682,2,0,L|320:216,1,110,10|2,0:3|1:2,0:0:0:0:
283,189,11199,2,0,P|230:218|155:227,1,110,2|4,3:1|1:2,0:0:0:0:
58,142,12061,6,0,L|79:274,2,110,4|0|0,0:1|1:0|3:0,0:0:0:0:
95,50,13095,1,2,1:2:0:0:
173,110,13440,2,0,P|232:101|299:72,1,110,2|0,3:2|1:0,0:0:0:0:
322,58,13958,2,0,P|376:75|438:106,1,110,2|0,0:0|3:0,0:0:0:0:
454,137,14475,1,2,1:2:0:0:
460,235,14820,6,0,P|450:295|427:352,1,110,2|0,3:2|1:0,0:0:0:0:
344,296,15509,2,0,P|296:323|244:341,1,110,2|0,0:0|1:0,0:0:0:0:
156,295,16199,1,2,3:2:0:0:
74,351,16544,1,4,1:1:0:0:
67,252,16889,2,0,L|56:175,2,55,0|0|12,3:0|1:2|1:1,0:0:0:0:
156,295,17578,6,0,L|176:183,1,110,2|0,3:2|1:0,0:0:0:0:
206,148,18095,2,0,P|256:178|323:194,1,110,4|2,3:2|3:2,0:0:0:0:
352,176,18613,1,0,1:0:0:0:
352,176,18785,2,0,P|405:188|460:220,2,110,4|2|2,3:2|3:2|0:2,0:2:0:0:
338,274,19820,2,0,L|331:336,1,55,2|2,3:2|1:2,0:0:0:0:
327,377,20164,5,4,0:1:0:0:
256,192,20251,12,4,21716,0:1:0:0:
256,323,23095,5,4,0:0:0:0:
192,247,23440,2,0,P|210:203|217:125,2,110,8|0|8,0:0|0:0|0:0,0:0:0:0:
167,290,24302,2,0,P|114:260|51:251,2,110,0|0|0,0:0|0:0|0:0,0:0:0:0:
245,351,25337,2,0,L|354:324,1,110,0|0,0:0|3:0,0:0:0:0:
394,299,25854,6,0,P|408:248|411:189,1,110,4|8,3:2|0:0,0:0:0:0:
373,159,26371,2,0,L|260:187,1,110
180,133,27061,2,0,P|113:89|14:81,1,165,0|8,0:0|0:0,0:0:0:0:
35,177,27923,6,0,L|51:295,1,110,0|8,0:0|0:0,0:0:0:0:
121,356,28613,2,0,P|167:320|235:304,1,110,4|8,3:2|0:0,0:0:0:0:
286,375,29302,2,0,P|307:330|308:270,1,110,2|8,0:1|0:0,0:0:0:0:
265,180,29992,6,0,P|213:206|146:220,1,110,0|8,0:0|0:0,0:0:0:0:
81,161,30682,2,0,P|57:115|46:43,1,110,0|8,0:0|0:0,0:0:0:0:
143,41,31371,2,0,B|218:67|218:67|279:50|279:50|315:72|366:84,1,220,4|0,3:2|0:0,0:0:0:0:
438,34,32406,1,8,0:0:0:0:
420,131,32751,6,0,P|405:183|386:244,1,110,8|0,3:0|1:0,0:0:0:0:
375,284,33268,1,10,0:3:0:0:
300,218,33613,2,0,P|246:194|171:186,1,110,4|0,1:2|1:0,0:0:0:0:
147,197,34130,5,4,0:1:0:0:
83,120,34475,2,0,P|62:72|58:3,2,110,0|2|0,1:0|3:2|1:0,0:0:0:0:
129,102,35337,2,0,B|211:76|211:76|300:108,1,165,2|0,3:2|1:0,0:0:0:0:
330,123,36027,1,2,0:0:0:0:
422,89,36371,2,0,P|415:134|407:211,1,110,2|2,3:2|3:2,0:0:0:0:
400,247,36889,6,0,P|355:279|290:286,1,110,2|8,3:2|1:0,0:0:0:0:
255,269,37406,2,0,P|207:244|131:227,1,110,2|2,0:0|3:2,0:0:0:0:
88,304,38095,2,0,P|61:256|64:185,1,110,4|0,3:2|0:0,0:0:0:0:
89,162,38613,2,0,P|117:112|131:52,2,110,4|4|2,1:2|3:2|1:2,0:0:0:0:
188,148,39647,6,0,L|311:114,1,110,4|0,0:0|1:0,0:0:0:0:
390,93,40337,2,0,P|373:148|366:224,1,110,2|0,3:2|1:0,0:0:0:0:
291,264,41027,2,0,L|180:239,1,110,2|0,0:0|1:0,0:0:0:0:
139,261,41544,2,0,P|117:209|109:134,1,110,2|2,0:0|3:2,0:0:0:0:
120,108,42061,1,0,1:0:0:0:
120,108,42233,6,0,P|74:141|9:153,2,110,4|2|2,0:0|0:1|0:0,0:0:0:0:
155,73,43095,2,0,P|206:87|262:125,1,110,2|0,3:1|1:0,0:0:0:0:
326,184,43785,2,0,P|384:167|430:131,1,110,4|0,3:2|1:0,0:0:0:0:
461,106,44302,2,0,L|483:182,1,55,4|0,3:2|1:0,0:0:0:0:
480,208,44647,2,0,L|461:319,1,110,2|0,3:1|0:0,0:0:0:0:
456,365,45164,5,4,3:2:0:0:
274,284,45854,2,0,P|220:262|147:244,1,110,8|0,0:0|3:0,0:0:0:0:
125,269,46371,2,0,P|107:220|93:157,1,110,2|0,0:1|0:0,0:0:0:0:
111,116,46889,2,0,P|162:138|225:150,1,110,2|8,3:2|0:0,0:0:0:0:
305,188,47578,2,0,L|326:121,1,55,0|2,3:0|0:0,0:0:0:0:
360,104,47923,6,0,P|439:123|459:220,1,165,4|2,0:0|0:0,0:0:0:0:
445,292,48785,2,0,P|408:279|374:282,1,55,2|0,0:0|3:2,0:0:0:0:
351,307,49130,2,0,P|302:334|237:345,1,110,4|8,3:2|0:0,0:0:0:0:
201,334,49647,1,2,3:2:0:0:
201,334,49820,2,0,P|151:313|74:298,1,110,12|4,3:2|3:1,0:0:0:0:
14,176,50682,6,0,P|63:201|128:210,1,110,2|8,3:2|0:0,0:0:0:0:
166,205,51199,2,0,P|212:167|241:118,1,110,2|0,0:0|0:0,0:0:0:0:
218,80,51716,1,2,0:0:0:0:
218,80,51889,2,0,L|97:97,2,110,2|10|2,3:2|0:0|0:0,0:0:0:0:
315,58,52923,2,0,L|324:-5,2,55,2|8|2,0:0|3:2|0:0,0:0:0:0:
315,107,53440,6,0,L|340:239,1,110,4|8,0:0|0:0,0:0:0:0:
433,199,54130,2,0,L|411:310,1,110,8|8,0:0|3:2,0:0:0:0:
374,340,54647,2,0,L|243:303,1,110,4|0,0:0|0:0,0:0:0:0:
222,291,55164,1,10,0:1:0:0:
155,364,55509,1,12,0:0:0:0:
88,290,55854,1,10,0:1:0:0:
156,220,56199,6,0,P|195:161|213:111,1,110,4|2,1:2|3:1,0:0:0:0:
221,76,56716,2,0,L|251:201,1,110,4|4,1:2|0:0,0:0:0:0:
260,231,57233,1,2,1:1:0:0:
336,292,57578,2,0,L|336:371,2,55,8|0|0,3:2|1:0|1:0,0:0:0:0:
409,225,58268,2,0,P|436:179|436:117,1,110,0|0,1:0|1:0,0:0:0:0:
427,75,58785,6,0,B|307:103,1,110,6|2,0:0|0:0,0:0:0:0:
271,111,59302,1,0,1:0:0:0:
178,74,59647,2,0,P|156:54|126:38,2,55,2|0|0,3:2|3:0|1:0,0:0:0:0:
180,123,60164,2,0,P|144:157|66:188,1,110,2|2,3:2|3:2,0:0:0:0:
45,162,60682,2,0,P|21:212|15:289,1,110,0|2,1:0|3:2,0:0:0:0:
62,351,61371,1,0,1:0:0:0:
147,301,61716,6,0,P|201:288|265:314,1,110,2|0,3:1|1:0,0:0:0:0:
293,331,62233,2,0,P|340:359|413:366,1,110,2|2,0:1|3:2,0:0:0:0:
438,343,62751,1,0,1:0:0:0:
438,343,62923,2,0,P|460:290|466:232,1,110,2|2,3:1|3:2,0:0:0:0:
455,189,63440,1,0,1:0:0:0:
455,189,63613,2,0,B|419:148|419:148|363:142|363:142|340:110|305:98,1,165,4|0,0:0|1:0,0:0:0:0:
245,43,64475,6,0,L|228:159,1,110,2|0,0:1|1:0,0:0:0:0:
192,184,64992,2,0,L|218:307,1,110,4|2,3:2|3:2,0:0:0:0:
226,340,65509,1,0,1:0:0:0:
226,340,65682,2,0,P|271:314|346:298,1,110,2|2,0:1|3:2,0:0:0:0:
373,316,66199,1,0,1:0:0:0:
373,316,66371,2,0,P|406:242|408:139,1,165,4|0,0:0|1:0,0:0:0:0:
374,66,67233,6,0,P|315:73|265:102,1,110,2|0,3:1|1:0,0:0:0:0:
228,122,67751,2,0,P|173:103|124:49,1,110,4|2,0:0|3:2,0:0:0:0:
97,36,68268,1,0,1:0:0:0:
97,36,68440,2,0,B|63:90|63:90|86:136|70:204,1,165,2|0,3:1|1:0,0:0:0:0:
45,283,69302,2,0,P|71:329|133:317,1,110,2|0,3:0|1:0,0:0:0:0:
153,287,69820,6,0,B|266:323,1,110,6|2,0:0|0:0,0:0:0:0:
306,331,70337,1,0,1:0:0:0:
390,279,70682,2,0,L|452:239,2,55,2|2|0,3:2|3:2|1:0,0:0:0:0:
343,264,71199,2,0,P|300:234|270:167,1,110,4|2,3:2|3:2,0:0:0:0:
270,135,71716,2,0,L|385:161,1,110,0|2,1:0|3:2,0:0:0:0:
476,169,72406,1,2,1:1:0:0:
431,80,72751,6,0,L|311:54,1,110,4|8,0:0|1:0,0:0:0:0:
275,46,73268,1,2,0:1:0:0:
177,24,73613,1,4,3:2:0:0:
97,82,73958,2,0,P|111:138|123:204,1,110,4|2,0:0|1:1,0:0:0:0:
155,282,74647,2,0,P|206:308|275:326,1,110,4|2,3:2|1:1,0:0:0:0:
333,259,75337,1,2,0:0:0:0:
333,259,75509,6,0,P|350:195|357:134,1,110,4|0,0:0|0:0,0:0:0:0:
341,104,76027,2,0,L|223:128,1,110,2|2,0:1|0:0,0:0:0:0:
187,106,76544,1,0,3:0:0:0:
187,106,76716,2,0,P|133:73|68:65,1,110,2|8,0:1|1:0,0:0:0:0:
54,101,77233,1,2,0:0:0:0:
54,101,77406,2,0,L|75:219,1,110,2|4,0:1|0:2,0:0:0:0:
49,354,78268,6,0,P|93:318|153:304,1,110,4|4,3:2|3:2,0:0:0:0:
235,341,78958,1,4,3:2:0:0:
287,257,79302,1,2,1:0:0:0:
372,306,79647,2,0,P|397:254|408:186,1,110,2|0,3:0|1:0,0:0:0:0:
403,153,80164,1,0,1:0:0:0:
324,92,80509,2,0,B|207:118,1,110,2|2,0:1|0:0,0:0:0:0:
167,126,81027,5,6,3:2:0:0:
256,192,81371,12,6,83785,1:2:0:0:
256,192,84475,5,4,3:2:0:0:
256,192,84647,2,0,P|306:214|371:221,1,110,4|4,3:2|0:0,0:0:0:0:
400,191,85164,2,0,P|449:208|492:268,1,110,2|4,3:1|1:2,0:0:0:0:
412,317,85854,2,0,L|300:294,1,110,0|0,3:0|1:0,0:0:0:0:
210,329,86544,6,0,L|190:201,1,110,4|2,3:2|1:2,0:0:0:0:
189,170,87061,2,0,P|139:200|72:216,1,110,2|2,3:2|3:2,0:0:0:0:
43,195,87578,1,0,1:0:0:0:
43,195,87751,2,0,L|24:84,2,110,2|2|2,3:2|3:2|0:0,0:0:0:0:
61,293,88785,2,0,P|94:314|119:323,1,55,2|0,3:2|1:0,0:0:0:0:
155,303,89130,6,0,P|208:278|275:276,1,110,2|0,0:1|1:0,0:0:0:0:
304,293,89647,1,8,1:2:0:0:
304,293,89820,2,0,L|304:170,2,110,2|4|0,1:0|1:2|1:0,0:0:0:0:
329,335,90682,2,0,P|385:320|435:295,1,110,2|8,3:1|0:0,0:0:0:0:
448,250,91199,1,4,3:2:0:0:
448,250,91371,2,0,L|448:137,1,110,0|8,1:2|1:2,0:0:0:0:
490,50,92061,5,4,3:2:0:0:
394,75,92406,2,0,P|337:65|271:37,1,110,0|2,1:0|0:0,0:0:0:0:
189,45,93095,1,0,1:0:0:0:
189,45,93268,2,0,P|133:68|68:77,1,110,2|2,3:2|3:2,0:0:0:0:
41,51,93785,2,0,L|27:169,1,110,0|0,1:0|3:0,0:0:0:0:
44,258,94475,1,0,1:0:0:0:
133,212,94820,6,0,P|185:227|242:255,1,110,2|0,3:2|1:0,0:0:0:0:
320,302,95509,2,0,P|371:283|415:250,1,110,2|0,0:0|1:0,0:0:0:0:
426,201,96027,2,0,P|353:165|270:164,1,165,2|0,3:2|1:0,0:0:0:0:
186,112,96889,2,0,L|167:43,2,55,0|2|8,3:0|1:2|1:0,0:0:0:0:
197,210,97578,6,0,P|184:263|166:315,1,110,4|0,0:1|1:0,0:0:0:0:
100,240,98268,2,0,P|88:188|81:118,1,110,2|2,3:2|1:2,0:0:0:0:
78,32,98958,2,0,P|31:50|-13:103,2,110,2|0|2,0:0|1:0|0:0,0:0:0:0:
162,83,99992,1,0,1:0:0:0:
247,32,100337,6,0,P|294:47|337:103,1,110,2|0,0:0|1:0,0:0:0:0:
345,190,101027,2,0,L|320:316,1,110,2|0,0:0|1:0,0:0:0:0:
290,334,101544,2,0,P|238:300|180:285,1,110,4|0,3:2|1:0,0:0:0:0:
148,309,102061,1,0,1:0:0:0:
148,309,102233,2,0,L|131:181,1,110,4|4,3:2|3:2,0:0:0:0:
113,154,102751,2,0,P|91:138|42:126,2,55,0|2|4,1:0|0:0|0:1,0:0:0:0:
206,187,103440,6,0,P|264:170|322:140,1,110,0|2,1:0|3:2,0:0:0:0:
391,93,104130,1,0,1:0:0:0:
391,93,104302,2,0,P|428:132|444:184,1,110,2|2,3:2|3:2,0:0:0:0:
443,235,104820,2,0,P|426:280|376:336,1,110,0|0,1:0|3:0,0:0:0:0:
293,294,105509,1,0,1:0:0:0:
202,253,105854,6,0,P|150:261|97:304,1,110,2|0,0:0|1:0,0:0:0:0:
73,332,106371,2,0,L|56:205,1,110,2|2,0:0|3:2,0:0:0:0:
60,124,107061,2,0,P|108:156|183:166,1,110,2|2,3:1|3:2,0:0:0:0:
204,149,107578,1,0,1:0:0:0:
204,149,107751,2,0,P|254:174|313:179,1,110,2|0,0:1|1:0,0:0:0:0:
356,171,108268,5,4,1:2:0:0:
447,133,108613,2,0,L|462:257,1,110,4|0,3:2|1:0,0:0:0:0:
419,332,109302,2,0,P|366:313|297:295,1,110,2|0,0:0|1:0,0:0:0:0:
214,296,109992,2,0,P|162:306|86:332,1,110,2|0,3:2|1:0,0:0:0:0:
61,342,110509,2,0,L|43:211,1,110,2|2,0:0|3:2,0:0:0:0:
41,183,111027,5,0,1:0:0:0:
41,183,111199,2,0,B|101:223|101:223|143:205|217:198,1,165,4|0,0:0|1:0,0:0:0:0:
239,188,111889,2,0,L|348:217,1,110,2|2,0:0|3:2,0:0:0:0:
432,168,112578,2,0,L|439:112,2,55,2|4|0,0:0|3:2|1:0,0:0:0:0:
428,217,113095,1,0,1:0:0:0:
428,217,113268,2,0,L|412:338,1,110,2|4,3:1|3:2,0:0:0:0:
274,377,114130,5,4,3:2:0:0:
314,182,114820,2,0,L|297:56,1,110,8|0,0:0|3:0,0:0:0:0:
265,36,115337,2,0,P|218:71|150:83,1,110,2|0,3:1|0:0,0:0:0:0:
120,70,115854,2,0,P|79:108|61:165,1,110,2|8,3:2|0:0,0:0:0:0:
59,257,116544,2,0,P|89:271|116:274,1,55,0|2,3:0|0:0,0:0:0:0:
159,266,116889,6,0,B|203:238|203:238|251:283|318:263,1,165,4|2,3:2|0:0,0:0:0:0:
363,184,117751,2,0,P|372:150|378:117,1,55,2|0,3:2|0:0,0:0:0:0:
359,84,118095,2,0,L|231:113,1,110,4|8,0:0|0:0,0:0:0:0:
206,87,118613,1,2,0:0:0:0:
206,87,118785,2,0,L|82:117,1,110,12|4,0:0|3:1,0:0:0:0:
23,241,119647,6,0,L|149:279,1,110,2|2,3:2|3:2,0:0:0:0:
176,261,120164,2,0,P|228:278|269:331,1,110,2|0,0:0|0:0,0:0:0:0:
286,363,120682,1,2,0:0:0:0:
286,363,120854,2,0,P|338:341|377:298,2,110,2|2|2,3:2|0:0|0:0,0:0:0:0:
186,362,121889,2,0,P|157:353|112:331,2,55,2|0|2,0:0|3:0|0:0,0:0:0:0:
218,324,122406,6,0,P|225:271|231:213,1,110,12|10,0:0|0:0,0:0:0:0:
174,133,123095,2,0,P|125:159|46:168,1,110,12|8,0:0|0:0,0:0:0:0:
28,145,123613,2,0,L|48:272,1,110,4|0,0:0|0:0,0:0:0:0:
53,302,124130,1,10,0:0:0:0:
136,248,124475,1,10,0:0:0:0:
163,343,124820,1,2,0:1:0:0:
235,276,125164,6,0,P|248:224|260:149,1,110,4|2,1:2|3:1,0:0:0:0:
259,118,125682,2,0,P|213:85|142:74,1,110,4|4,1:2|3:2,0:0:0:0:
113,83,126199,1,2,1:1:0:0:
28,205,126716,2,0,P|5:186|-16:173,2,55,2|2|2,0:1|0:0|0:0,0:0:0:0:
52,248,127233,2,0,P|92:282|160:301,1,110,4|2,0:0|0:0,0:0:0:0:
187,327,127751,6,0,P|238:317|287:279,1,110,6|2,0:0|0:0,0:0:0:0:
319,248,128268,1,0,1:0:0:0:
402,304,128613,2,0,L|403:360,2,55,2|0|0,3:2|3:0|1:0,0:0:0:0:
429,262,129130,2,0,P|446:220|452:150,1,110,2|2,3:2|3:2,0:0:0:0:
419,118,129647,2,0,P|373:146|303:162,1,110,0|2,1:0|3:2,0:0:0:0:
227,122,130337,1,0,1:0:0:0:
199,217,130682,6,0,P|217:266|226:341,1,110,2|0,3:1|1:0,0:0:0:0:
188,355,131199,2,0,P|135:327|59:317,1,110,2|2,0:1|3:2,0:0:0:0:
39,333,131716,1,0,1:0:0:0:
39,333,131889,2,0,P|20:275|13:210,1,110,2|2,3:1|3:2,0:0:0:0:
34,181,132406,1,0,1:0:0:0:
34,181,132578,2,0,B|78:130|136:129|136:129|188:159,1,165,4|0,0:0|1:0,0:0:0:0:
243,224,133440,6,0,P|265:185|266:116,1,110,2|0,0:1|1:0,0:0:0:0:
259,71,133958,2,0,P|307:98|367:106,1,110,4|2,3:2|3:2,0:0:0:0:
408,93,134475,1,0,1:0:0:0:
408,93,134647,2,0,P|465:100|522:134,1,110,2|2,0:1|3:2,0:0:0:0:
507,174,135164,1,0,1:0:0:0:
507,174,135337,2,0,P|489:254|446:322,1,165,4|0,0:0|1:0,0:0:0:0:
354,363,136199,6,0,L|226:335,1,110,2|0,3:1|1:0,0:0:0:0:
198,352,136716,2,0,P|174:308|161:230,1,110,4|2,0:0|3:2,0:0:0:0:
151,201,137233,1,0,1:0:0:0:
151,201,137406,2,0,B|210:267|313:255,1,165,2|0,3:1|1:0,0:0:0:0:
379,197,138268,2,0,P|415:150|416:93,1,110,2|0,3:0|1:0,0:0:0:0:
403,54,138785,6,0,B|290:80,1,110,6|2,0:0|0:0,0:0:0:0:
247,89,139302,1,0,1:0:0:0:
163,37,139647,2,0,P|138:21|101:6,2,55,2|2|0,3:2|3:2|1:0,0:0:0:0:
161,86,140164,2,0,L|147:210,1,110,4|2,3:2|3:2,0:0:0:0:
147,245,140682,2,0,P|165:287|234:325,1,110,0|2,1:0|3:2,0:0:0:0:
309,289,141371,1,2,1:1:0:0:
322,191,141716,6,0,L|338:57,1,110,4|0,3:2|1:0,0:0:0:0:
340,32,142233,1,2,0:1:0:0:
423,85,142578,1,4,3:2:0:0:
413,183,142923,2,0,L|398:298,1,110,4|2,3:2|1:0,0:0:0:0:
321,354,143613,2,0,P|273:323|198:314,1,110,4|2,3:2|1:0,0:0:0:0:
131,352,144302,1,2,0:0:0:0:
131,352,144475,6,0,L|119:221,1,110,4|0,0:0|0:0,0:0:0:0:
119,193,144992,2,0,P|172:222|235:234,1,110,2|2,0:0|0:1,0:0:0:0:
267,216,145509,1,0,3:0:0:0:
267,216,145682,2,0,P|320:188|377:169,1,110,4|0,0:0|1:0,0:0:0:0:
403,205,146199,1,2,0:0:0:0:
403,205,146371,2,0,L|388:317,1,110,2|4,0:1|0:0,0:0:0:0:
251,371,147233,6,0,P|189:363|130:331,1,110,4|4,3:2|3:2,0:0:0:0:
86,263,147923,1,4,3:2:0:0:
55,169,148268,1,4,1:2:0:0:
149,197,148613,2,0,P|205:184|266:160,1,110,4|0,1:2|1:0,0:0:0:0:
299,145,149130,1,0,1:0:0:0:
388,102,149475,2,0,P|411:156|433:219,1,110,2|0,0:1|0:0,0:0:0:0:
442,252,149992,5,4,0:0:0:0:
256,192,150078,12,4,152751,0:0:0:0:
256,191,161027,5,8,3:2:0:0:
175,134,161371,1,10,3:2:0:0:
186,232,161716,2,0,L|203:357,1,110,10|10,3:2|3:2,0:0:0:0:
287,291,162406,2,0,P|337:302|406:342,1,110,10|10,3:2|3:2,0:0:0:0:
459,259,163095,2,0,L|473:135,1,110,10|10,3:2|3:2,0:0:0:0:
425,61,163785,6,0,P|370:88|301:104,1,110,10|8,3:1|3:2,0:0:0:0:
227,75,164475,2,0,L|245:191,1,110,10|10,3:2|3:2,0:0:0:0:
168,248,165164,2,0,L|146:123,2,110,12|10|12,3:2|3:2|3:2,0:0:0:0:
185,345,166199,1,8,3:2:0:0:
262,283,166544,6,0,P|318:269|388:294,2,110,10|10|8,3:1|3:2|3:2,0:0:0:0:
185,345,167578,1,12,3:2:0:0:
168,248,167923,2,0,L|146:123,1,110,12|12,3:2|3:2,0:0:0:0:
73,75,168613,2,0,L|59:191,1,110,10|8,3:1|3:2,0:0:0:0:
73,282,169302,6,0,P|110:326|178:347,2,110,12|10|10,3:2|3:1|3:2,0:0:0:0:
168,248,170337,1,8,3:2:0:0:
210,158,170682,2,0,P|223:108|233:32,1,110,2|0,3:1|1:0,0:0:0:0:
269,18,171199,2,0,P|322:38|379:77,1,110,2|6,1:2|1:3,0:0:0:0:
390,213,172061,6,0,P|380:273|364:345,1,110,4|0,3:2|1:0,0:0:0:0:
343,363,172578,1,2,0:0:0:0:
343,363,172751,2,0,P|293:341|225:325,1,110,2|0,3:2|1:0,0:0:0:0:
191,339,173268,1,2,0:0:0:0:
191,339,173440,6,0,P|140:362|69:370,1,110,4|0,3:2|1:0,0:0:0:0:
44,344,173958,2,0,P|23:293|7:216,1,110,2|2,3:2|3:0,0:0:0:0:
0,191,174475,1,0,1:0:0:0:
68,119,174820,6,0,L|187:147,1,110,2|0,3:1|1:0,0:0:0:0:
210,51,175509,2,0,L|340:80,1,110,4|0,3:2|1:0,0:0:0:0:
365,89,176027,2,0,P|383:160|386:216,1,110,2|0,0:1|3:2,0:0:0:0:
350,231,176544,1,2,1:2:0:0:
350,231,176716,2,0,L|233:202,1,110,2|2,3:2|1:0,0:0:0:0:
195,190,177233,1,0,1:0:0:0:
130,264,177578,6,0,P|100:212|108:147,2,110,4|0|2,3:2|1:0|3:2,0:0:0:0:
200,333,178613,1,0,1:0:0:0:
200,333,178785,2,0,L|381:294,1,165,4|2,3:2|1:0,0:0:0:0:
442,354,179647,1,2,0:0:0:0:
452,255,179992,1,4,1:2:0:0:
366,205,180337,6,0,L|190:244,1,165,2|0,0:1|0:0,0:0:0:0:
164,270,181027,2,0,P|147:225|134:146,1,110,10|10,0:0|0:0,0:0:0:0:
192,83,181716,2,0,P|245:96|305:138,1,110,4|0,3:2|1:0,0:0:0:0:
371,183,182406,2,0,P|421:157|451:89,1,110,2|2,0:1|0:1,0:0:0:0:
468,67,182923,6,0,L|445:257,1,165,4|0,0:0|1:0,0:0:0:0:
387,309,183785,2,0,P|343:277|285:263,1,110,2|0,3:2|1:0,0:0:0:0:
248,290,184302,2,0,L|118:271,1,110,4|2,0:0|3:2,0:0:0:0:
91,264,184820,1,2,1:2:0:0:
38,180,185164,2,0,P|25:154|16:103,2,55,2|2|0,3:2|3:2|1:0,0:0:0:0:
127,137,185854,6,0,L|246:157,1,110,4|2,0:1|1:2,0:0:0:0:
263,196,186371,2,0,L|390:214,1,110,4|2,0:1|3:2,0:0:0:0:
421,296,187061,2,0,P|455:263|465:187,1,110,4|0,0:1|3:0,0:0:0:0:
456,156,187578,1,2,1:2:0:0:
456,156,187751,2,0,P|394:113|299:135,1,165,4|0,0:1|1:0,0:0:0:0:
225,179,188613,6,0,P|169:151|131:112,1,110,2|2,3:1|1:2,0:0:0:0:
103,80,189130,2,0,P|57:117|-4:135,2,110,4|4|0,3:2|3:2|0:0,0:0:0:0:
137,44,189992,2,0,L|264:69,1,110,2|10,3:1|1:2,0:0:0:0:
283,34,190509,2,0,P|338:42|383:77,1,110,4|0,0:0|3:0,0:0:0:0:
407,116,191027,1,0,1:0:0:0:
404,215,191371,6,0,P|372:259|301:282,1,110,4|0,0:0|1:0,0:0:0:0:
280,254,191889,1,2,3:0:0:0:
280,254,192061,2,0,P|232:235|168:228,1,110,2|2,3:2|1:2,0:0:0:0:
135,258,192578,2,0,L|119:126,1,110,6|2,0:0|0:0,0:0:0:0:
182,70,193268,1,2,0:1:0:0:
182,70,193440,2,0,P|219:114|284:127,1,110,0|0,1:0|1:0,0:0:0:0:
305,95,193958,6,0,P|363:103|411:142,1,110,6|2,0:0|0:0,0:0:0:0:
433,172,194475,1,4,1:0:0:0:
410,268,194820,2,0,L|412:339,2,55,2|2|0,3:2|3:2|1:0,0:0:0:0:
375,232,195337,2,0,P|324:235|267:272,1,110,2|2,3:2|3:2,0:0:0:0:
239,300,195854,2,0,P|192:325|127:335,1,110,0|2,1:0|3:2,0:0:0:0:
43,300,196544,1,2,1:0:0:0:
115,232,196889,6,0,B|131:176|131:176|113:109,1,110,4|0,3:2|1:0,0:0:0:0:
98,81,197406,2,0,P|142:111|198:126,1,110,2|2,0:1|3:2,0:0:0:0:
240,102,197923,1,0,1:0:0:0:
240,102,198095,2,0,P|288:131|346:144,1,110,2|2,0:1|3:2,0:0:0:0:
387,127,198613,1,0,1:0:0:0:
387,127,198785,2,0,B|406:169|406:169|396:216|396:216|412:247|412:297,1,165,4|0,3:2|1:0,0:0:0:0:
331,342,199647,6,0,L|214:306,1,110,2|0,0:1|1:0,0:0:0:0:
185,338,200164,2,0,P|137:365|66:377,1,110,4|2,3:2|3:2,0:0:0:0:
44,345,200682,1,0,1:0:0:0:
44,345,200854,2,0,L|23:233,1,110,2|0,0:1|3:0,0:0:0:0:
27,187,201371,1,0,1:0:0:0:
27,187,201544,2,0,B|67:151|67:151|111:147|111:147|130:118|160:102,1,165,4|0,0:0|1:0,0:0:0:0:
238,162,202406,6,0,L|223:295,1,110,2|0,0:1|1:0,0:0:0:0:
221,320,202923,2,0,P|258:355|330:376,1,110,4|2,0:0|3:2,0:0:0:0:
362,375,203440,1,0,1:0:0:0:
362,375,203613,2,0,P|436:337|460:257,1,165,4|0,0:0|1:0,0:0:0:0:
433,222,204302,1,4,0:0:0:0:
433,222,204475,2,0,P|387:187|379:123,1,110,2|0,1:0|1:0,0:0:0:0:
406,98,204992,6,0,B|283:133,1,110,6|2,0:0|0:0,0:0:0:0:
252,140,205509,1,0,1:0:0:0:
154,157,205854,2,0,P|138:142|119:102,2,55,2|2|0,3:1|3:2|1:0,0:0:0:0:
183,198,206371,2,0,L|158:315,1,110,4|2,3:2|3:2,0:0:0:0:
153,355,206889,2,0,P|206:334|272:319,1,110,0|0,1:0|3:0,0:0:0:0:
355,332,207578,1,2,1:0:0:0:
392,240,207923,6,0,P|409:191|417:127,1,110,4|4,0:0|1:2,0:0:0:0:
382,99,208440,2,0,L|266:129,1,110,2|4,0:1|3:2,0:0:0:0:
179,148,209130,1,2,3:1:0:0:
100,87,209475,1,12,1:2:0:0:
23,24,209820,1,4,3:2:0:0:
11,122,210164,2,0,P|21:177|41:240,1,110,6|2,1:2|0:1,0:0:0:0:
79,256,210682,6,0,L|192:230,1,110,6|2,3:2|0:0,0:0:0:0:
223,198,211199,2,0,L|334:235,1,110,2|2,3:2|0:0,0:0:0:0:
368,260,211716,1,0,3:0:0:0:
368,260,211889,2,0,P|397:219|408:150,1,110,2|2,3:1|1:2,0:0:0:0:
398,112,212406,1,2,0:0:0:0:
398,112,212578,2,0,L|269:69,1,110,2|4,0:1|3:2,0:0:0:0:
152,31,213440,6,0,L|174:150,1,110,4|4,3:2|1:2,0:0:0:0:
247,203,214130,2,0,L|218:333,1,110,4|4,1:2|0:0,0:0:0:0:
206,357,214647,1,0,1:0:0:0:
206,357,214820,2,0,P|160:323|98:305,1,110,4|4,0:0|1:2,0:0:0:0:
65,328,215337,2,0,L|51:214,1,110,2|2,0:1|1:1,0:0:0:0:
102,133,216027,6,0,B|213:139|161:172|277:178,1,165,4|2,0:0|0:1,0:0:0:0:
352,145,216889,2,0,L|367:85,2,55,2|2|0,1:2|0:0|0:0,0:0:0:0:
346,194,217406,2,0,L|362:306,1,110,4|2,0:0|1:1,0:0:0:0:
330,341,217923,2,0,P|284:313|209:304,1,110,2|0,0:0|1:0,0:0:0:0:
129,313,218613,2,0,P|91:299|62:278,1,55,2|0,0:0|0:0,0:0:0:0:
56,247,218958,6,0,B|80:199|97:132,1,110,2|2,3:1|0:0,0:0:0:0:
109,96,219475,1,2,3:2:0:0:
189,36,219820,2,0,P|243:23|317:49,2,110,2|4|2,0:1|1:2|3:2,0:0:0:0:
183,85,220682,2,0,P|191:142|209:200,1,110,2|0,1:1|1:0,0:0:0:0:
248,281,221371,1,2,1:2:0:0:
159,325,221716,6,0,L|30:292,1,110,6|4,0:0|1:2,0:0:0:0:
17,204,222406,2,0,L|133:234,1,110,2|4,0:0|1:2,0:0:0:0:
214,192,223095,2,0,P|274:196|333:241,1,110,2|0,0:1|1:0,0:0:0:0:
357,249,223613,2,0,L|380:128,1,110,4|2,0:0|0:1,0:0:0:0:
385,91,224130,1,0,1:0:0:0:
288,117,224475,6,0,P|235:97|194:60,1,110,4|4,0:0|1:2,0:0:0:0:
178,159,225164,2,0,L|200:286,1,110,4|4,3:2|1:2,0:2:0:0:
216,314,225682,1,2,1:1:0:0:
216,314,225854,2,0,L|280:337,1,55,0|0,3:0|1:0,0:0:0:0:
315,320,226199,2,0,L|391:296,1,55,0|0,1:0|1:0,0:0:0:0:
414,288,226544,1,2,1:0:0:0:
482,102,227233,6,0,L|354:139,1,110,6|6,3:2|1:2,0:0:0:0:
333,158,227751,2,0,L|187:124,1,110,2|0,0:1|3:0,0:0:0:0:
184,105,228268,2,0,P|144:70|61:46,1,110,4|4,1:2|3:2,0:0:0:0:
69,93,228785,2,0,L|94:220,1,110,2|0,0:1|0:0,0:0:0:0:
97,250,229302,1,4,3:2:0:0:
79,347,229647,1,2,1:0:0:0:
172,313,229992,6,0,B|305:334,1,110,4|10,0:0|1:0,0:0:0:0:
326,349,230509,1,4,0:2:0:0:
326,349,230682,2,0,P|344:296|353:239,1,110,0|0,3:0|1:0,0:0:0:0:
306,156,231371,2,0,B|255:174|255:174|183:151,1,110,2|4,0:1|1:2,0:0:0:0:
156,137,231889,2,0,L|179:267,1,110,2|4,3:1|1:2,0:0:0:0:
183,294,232406,1,0,1:0:0:0:
104,353,232751,5,4,3:2:0:0:
67,261,233095,2,0,L|46:135,1,110,2|4,1:0|3:2,0:0:0:0:
57,103,233613,2,0,L|143:135,1,55,2|0,3:1|1:0,0:0:0:0:
156,137,233958,2,0,P|211:115|257:71,1,110,2|4,0:1|0:0,0:0:0:0:
311,4,234647,2,0,P|353:33|395:100,1,110,2|2,0:0|3:2,0:0:0:0:
381,179,235337,6,0,P|351:227|245:272,1,165,4|0,3:2|1:0,0:0:0:0:
156,277,236199,2,0,P|133:255|104:238,2,55,2|2|0,0:1|3:2|1:0,0:0:0:0:
171,324,236716,2,0,P|226:358|295:365,1,110,4|2,3:2|0:1,0:0:0:0:
341,297,237406,2,0,P|398:307|470:367,1,110,6|2,3:2|1:0,0:0:0:0:
471,187,238268,6,0,P|488:132|480:57,2,110,2|2|0,0:1|1:2|3:0,0:0:0:0:
381,143,239302,1,0,1:0:0:0:
373,242,239647,2,0,P|333:276|259:279,1,110,2|0,0:1|1:0,0:0:0:0:
244,246,240164,2,0,L|226:115,1,110,2|4,0:1|3:2,0:0:0:0:
223,87,240682,1,0,1:0:0:0:
127,59,241027,6,0,L|121:186,1,110,2|2,3:1|1:2,0:0:0:0:
23,160,241716,2,0,L|39:279,1,110,2|0,3:2|1:0,0:0:0:0:
123,319,242406,2,0,L|136:262,2,55,2|4|2,3:1|0:0|1:0,0:0:0:0:
115,368,242923,1,4,3:2:0:0:
204,325,243268,2,0,L|230:209,1,110,6|0,0:0|3:0,0:0:0:0:
234,169,243785,6,0,P|279:206|346:224,1,110,6|0,0:0|1:0,0:0:0:0:
371,198,244302,2,0,L|389:76,1,110,4|4,3:2|3:2,0:0:0:0:
460,156,244992,2,0,L|442:279,1,110,4|4,3:2|3:2,0:0:0:0:
431,312,245509,1,0,1:0:0:0:
431,312,245682,2,0,P|388:343|323:355,1,110,4|2,0:0|3:2,0:0:0:0:
287,335,246199,1,0,1:0:0:0:
287,335,246371,6,0,P|233:305|166:294,2,110,2|0|0,0:1|1:0|1:0,0:0:0:0:
349,257,247406,2,0,L|369:83,1,165,0|2,1:0|1:0,0:0:0:0:
111,98,249302,6,0,L|132:223,1,110,4|8,3:2|0:0,0:0:0:0:
136,256,249820,2,0,P|181:224|247:203,1,110,2|2,0:1|0:0,0:0:0:0:
282,207,250337,1,8,0:0:0:0:
365,260,250682,2,0,L|384:149,1,110,8|8,0:0|0:0,0:0:0:0:
383,102,251199,2,0,P|333:71|265:62,1,110,2|2,0:1|0:0,0:0:0:0:
236,76,251716,1,8,0:0:0:0:
145,33,252061,6,0,L|164:161,1,110,8|8,3:2|0:0,0:0:0:0:
189,182,252578,2,0,L|169:303,1,110,2|2,0:1|0:0,0:0:0:0:
163,339,253095,1,8,0:0:0:0:
254,299,253440,2,0,P|308:310|365:347,1,110,8|8,0:0|0:0,0:0:0:0:
392,370,253958,1,2,0:1:0:0:
392,370,254130,2,0,P|420:323|429:255,1,110,10|4,0:0|0:0,0:0:0:0:
380,182,254820,6,0,P|358:129|356:55,1,110,12|8,3:2|0:0,0:0:0:0:
373,31,255337,2,0,L|246:64,1,110,2|2,0:1|0:0,0:0:0:0:
218,71,255854,1,8,0:0:0:0:
263,159,256199,2,0,P|251:220|219:275,1,110,8|8,3:2|0:0,0:0:0:0:
193,296,256716,2,0,L|321:327,1,110,2|2,0:1|0:0,0:0:0:0:
349,328,257233,1,8,0:0:0:0:
432,274,257578,6,0,L|452:158,1,110,8|8,3:2|0:0,0:0:0:0:
428,121,258095,2,0,P|379:152|308:162,1,110,2|2,0:1|0:0,0:0:0:0:
279,154,258613,1,2,0:1:0:0:
213,228,258958,2,0,P|161:213|112:174,1,110,12|8,0:0|0:0,0:0:0:0:
95,135,259475,1,2,0:0:0:0:
95,135,259647,6,0,B|76:188|76:188|86:228|86:228|76:252|72:301,1,165,8|6,0:0|0:0,0:0:0:0:
