osu file format v14

[General]
AudioFilename: Hoshi.mp3
AudioLeadIn: 1500
PreviewTime: 127018
Countdown: 0
SampleSet: Soft
StackLeniency: 0.7
Mode: 0
LetterboxInBreaks: 0
WidescreenStoryboard: 0

[Editor]
DistanceSpacing: 1.3
BeatDivisor: 4
GridSize: 32
TimelineZoom: 1.8

[Metadata]
Title:Hoshi Ori Yume Mirai
TitleUnicode:星織ユメミライ
Artist:Ceui
ArtistUnicode:Ceui
Creator:-Nanaka-
Version:7Ka's Hard
Source:星織ユメミライ
Tags:tone work's Opening eroge Visual Novel Narcissu Kanau Mamayu fuyuyu- Silky
BeatmapID:820297
BeatmapSetID:268509

[Difficulty]
HPDrainRate:5
CircleSize:4
OverallDifficulty:6
ApproachRate:8
SliderMultiplier:1.5
SliderTickRate:1

[Events]
//Background and Video events
0,0,"BG3.jpg",0,0
//Break Periods
2,152951,160277
//Storyboard Layer 0 (Background)
//Storyboard Layer 1 (Fail)
//Storyboard Layer 2 (Pass)
//Storyboard Layer 3 (Foreground)
//Storyboard Sound Samples

[TimingPoints]
1027,344.827586206897,4,2,1,50,1,0
1027,-133.333333333333,4,2,1,50,0,0
5682,-133.333333333333,4,2,1,30,0,0
5854,-133.333333333333,4,2,1,50,0,0
6544,-133.333333333333,4,2,1,40,0,0
7061,-133.333333333333,4,2,1,30,0,0
7578,-133.333333333333,4,2,1,40,0,0
8095,-133.333333333333,4,2,1,30,0,0
8613,-133.333333333333,4,2,1,40,0,0
8958,-133.333333333333,4,2,1,50,0,0
11371,-100,4,2,1,50,0,0
11716,-100,4,2,1,60,0,0
12061,-100,4,2,1,50,0,0
12406,-100,4,2,1,60,0,0
16544,-100,4,2,1,30,0,0
16716,-100,4,2,1,60,0,0
17233,-100,4,2,1,30,0,0
17578,-100,4,2,1,60,0,0
20164,-100,4,2,1,40,0,0
20337,-100,4,2,1,60,0,0
21716,-133.333333333333,4,2,1,50,0,0
21889,-133.333333333333,4,2,1,30,0,0
22061,-133.333333333333,4,2,1,30,0,0
22233,-133.333333333333,4,2,1,40,0,0
22406,-133.333333333333,4,2,1,30,0,0
22578,-133.333333333333,4,2,1,20,0,0
23095,-133.333333333333,4,2,1,50,0,0
32751,-133.333333333333,4,2,2,25,0,0
33268,-133.333333333333,4,2,1,25,0,0
33613,-133.333333333333,4,2,1,30,0,0
33871,-133.333333333333,4,2,1,40,0,0
34130,-100,4,2,1,40,0,0
34302,-100,4,2,1,60,0,0
45164,-133.333333333333,4,2,1,50,0,0
50164,-133.333333333333,4,2,1,30,0,0
50509,-133.333333333333,4,2,1,60,0,0
53440,-117.647058823529,4,2,1,70,0,0
56199,-100,4,2,1,70,0,0
57578,-133.333333333333,4,2,1,80,0,0
58268,-133.333333333333,4,2,1,50,0,0
58785,-100,4,2,1,80,0,1
69130,-100,4,2,1,80,0,0
69820,-100,4,2,1,80,0,1
80854,-100,4,2,1,80,0,0
81027,-100,4,2,1,70,0,0
83785,-100,4,2,1,60,0,0
90682,-100,4,2,1,50,0,0
91199,-100,4,2,1,40,0,0
91544,-100,4,2,1,30,0,0
92061,-100,4,2,1,60,0,0
97578,-100,4,2,1,30,0,0
97751,-100,4,2,1,60,0,0
102578,-100,4,2,1,50,0,0
103440,-100,4,2,1,60,0,0
114130,-133.333333333333,4,2,1,50,0,0
119130,-133.333333333333,4,2,1,30,0,0
119475,-133.333333333333,4,2,1,50,0,0
122406,-117.647058823529,4,2,1,60,0,0
123613,-117.647058823529,4,2,1,70,0,0
125164,-100,4,2,1,70,0,0
126716,-100,4,2,1,50,0,0
127233,-100,4,2,1,70,0,0
127751,-100,4,2,1,80,0,1
138095,-100,4,2,1,80,0,0
138785,-100,4,2,1,80,0,1
148613,-100,4,2,1,60,0,1
149475,-133.333333333333,4,2,1,50,0,0
150078,-133.333333333333,4,2,1,30,0,0
161027,-133.333333333333,4,2,1,30,0,0
170682,-117.647058823529,4,2,1,55,0,0
171544,-117.647058823529,4,2,1,45,0,0
171889,-117.647058823529,4,2,1,55,0,0
172061,-100,4,2,1,60,0,0
180337,-100,4,2,1,70,0,0
181716,-100,4,2,1,70,0,0
181889,-100,4,2,1,50,0,0
182061,-100,4,2,1,60,0,0
182233,-100,4,2,1,70,0,0
183613,-100,4,2,1,60,0,0
185854,-100,4,2,1,60,0,0
186027,-100,4,2,1,60,0,0
186371,-100,4,2,1,40,0,0
186630,-100,4,2,1,60,0,0
187061,-100,4,2,1,40,0,0
187320,-100,4,2,1,60,0,0
187751,-100,4,2,1,40,0,0
187923,-100,4,2,1,60,0,0
191371,-100,4,2,1,70,0,0
193440,-100,4,2,1,60,0,0
193958,-100,4,2,1,80,0,1
204302,-100,4,2,1,80,0,0
204992,-100,4,2,1,80,0,1
216027,-117.647058823529,4,2,1,70,0,0
217061,-117.647058823529,4,2,1,50,0,0
217233,-117.647058823529,4,2,1,70,0,0
217751,-117.647058823529,4,2,1,50,0,0
217923,-117.647058823529,4,2,1,70,0,0
218958,-117.647058823529,4,2,1,70,0,0
221716,-100,4,2,1,80,0,1
226027,-100,4,2,1,60,0,1
226544,-100,4,2,1,80,0,1
227233,-100,4,2,1,60,0,0
236716,-100,4,2,1,50,0,0
237061,-100,4,2,1,60,0,0
237406,-100,4,2,1,70,0,0
237578,-100,4,2,1,60,0,0
244647,-100,4,2,1,40,0,0
244992,-100,4,2,1,60,0,0
245337,-100,4,2,1,40,0,0
245682,-100,4,2,1,60,0,0
248958,-133.333333333333,4,2,1,20,0,0

[Colours]
Combo1 : 211,207,194
Combo2 : 255,0,0
Combo3 : 0,64,128
Combo4 : 255,128,0
Combo5 : 0,255,255

[HitObjects]
440,108,1027,6,0,L|435:180,1,56.2500021457673,4|2,3:2|0:0,0:0:0:0:
431,248,1371,1,8,0:0:0:0:
363,197,1544,2,0,P|311:172|240:177,2,112.500004291535,2|2|4,0:1|0:0|0:0,0:0:0:0:
431,248,2406,5,8,0:0:0:0:
406,328,2578,2,0,P|384:351|347:375,1,56.2500021457673,2|8,0:0|0:0,0:0:0:0:
285,333,2923,2,0,P|229:317|169:341,2,112.500004291535,2|2|4,0:1|0:0|3:2,0:0:0:0:
346,274,3785,6,0,P|356:246|363:212,1,56.2500021457673,8|2,3:2|0:0,0:0:0:0:
352,136,4130,1,8,0:0:0:0:
283,184,4302,2,0,P|231:212|167:214,2,112.500004291535,2|2|4,0:1|0:0|0:0,0:0:0:0:
352,136,5164,6,0,P|366:102|371:72,1,56.2500021457673,8|2,0:0|0:0,0:0:0:0:
323,12,5509,1,8,0:0:0:0:
254,61,5682,2,0,P|245:32|240:-2,2,56.2500021457673,2|8|2,0:1|0:0|0:0,0:0:0:0:
197,123,6199,2,0,L|126:100,1,56.2500021457673,8|2,0:0|0:0,0:0:0:0:
66,70,6544,6,0,B|88:121|106:194|106:194,1,112.500004291535,4|8,3:2|0:0,0:0:0:0:
62,251,7061,2,0,P|46:283|36:320,2,56.2500021457673,2|8|0,0:0|0:0|0:0,0:0:0:0:
134,296,7578,2,0,P|178:264|255:254,1,112.500004291535,12|8,0:0|0:0,0:0:0:0:
293,312,8095,2,0,P|340:343|400:358,1,112.500004291535,4|0,0:0|0:0,0:0:0:0:
460,304,8613,2,0,L|475:230,1,56.2500021457673,12|0,0:0|0:0,0:0:0:0:
506,172,8958,2,0,L|491:110,1,56.2500021457673,10|0,0:0|3:0,0:0:0:0:
418,57,9302,6,0,P|386:47|338:37,1,56.2500021457673,4|0,0:0|0:0,0:0:0:0:
290,85,9647,1,10,0:1:0:0:
223,136,9820,2,0,P|190:150|156:159,1,56.2500021457673,2|8,0:0|0:0,0:0:0:0:
100,201,10164,2,0,P|66:192|36:178,1,56.2500021457673,2|8,0:0|0:0,0:0:0:0:
0,112,10509,1,2,0:1:0:0:
75,59,10682,6,0,L|89:135,1,56.2500021457673,10|0,0:3|0:0,0:0:0:0:
100,201,11027,1,2,1:2:0:0:
49,275,11199,2,0,P|69:321|128:363,1,112.500004291535,2|4,3:1|1:2,0:0:0:0:
215,336,11716,2,0,P|229:321|250:306,3,37.5,0|0|0|0,1:0|1:0|1:0|1:0,0:0:0:0:
265,295,12061,6,0,P|333:271|413:303,2,150,4|0|0,0:1|1:0|3:0,0:0:0:0:
333,371,12923,1,0,3:0:0:0:
404,295,13095,2,0,P|421:259|433:219,1,75,2|0,1:2|0:0,0:0:0:0:
378,152,13440,6,0,P|310:132|230:160,1,150,2|0,3:2|1:0,0:0:0:0:
159,203,13958,2,0,P|94:170|64:91,1,150,2|0,0:0|3:0,0:0:0:0:
135,40,14475,2,0,L|239:72,1,75,2|0,1:2|0:0,0:0:0:0:
295,106,14820,6,0,L|445:63,1,150,2|0,3:2|1:0,0:0:0:0:
512,10,15337,1,0,0:0:0:0:
506,107,15509,1,2,0:0:0:0:
506,107,15682,2,0,L|489:217,1,75,0|0,3:0|1:0,0:0:0:0:
479,270,16027,1,0,0:0:0:0:
396,218,16199,6,0,P|351:198|295:191,1,75,2|0,3:2|0:0,0:0:0:0:
261,255,16544,2,0,P|233:281|180:306,1,75,4|2,1:1|0:0,0:0:0:0:
128,353,16889,1,0,3:0:0:0:
128,353,17061,1,0,1:2:0:0:
55,300,17233,2,0,P|34:268|21:233,1,75,4|0,1:1|3:0,0:0:0:0:
72,150,17578,6,0,P|117:175|159:183,1,75,2|2,3:2|0:0,0:0:0:0:
218,136,17923,1,0,1:0:0:0:
296,181,18095,2,0,P|373:173|408:104,1,150,4|2,3:2|3:2,0:0:0:0:
380,29,18613,1,0,1:0:0:0:
330,109,18785,6,0,P|361:176|446:181,1,150,4|0,3:2|3:0,0:0:0:0:
512,146,19302,1,0,1:0:0:0:
512,236,19475,2,0,P|461:278|379:268,1,150,2|0,0:0|3:0,0:0:0:0:
299,328,19992,1,2,1:2:0:0:
253,223,20164,6,0,P|193:171|122:166,1,150,4|4,0:1|1:3,0:0:0:0:
67,242,20682,2,0,L|93:350,1,75,8|2,0:3|0:1,0:0:0:0:
173,343,21027,2,0,L|164:379,2,37.5,0|0|0,1:0|1:0|1:0,0:0:0:0:
166,253,21371,1,0,1:0:0:0:
243,299,21544,1,0,1:0:0:0:
243,299,21630,1,0,1:0:0:0:
243,299,21716,6,0,P|273:314|306:325,1,56.2500021457673,4|2,0:1|0:0,0:0:0:0:
373,355,22061,2,0,P|407:340|430:329,1,56.2500021457673,2|2,0:0|0:0,0:0:0:0:
492,277,22406,2,0,P|502:244|506:203,1,56.2500021457673,2|4,0:0|0:0,0:0:0:0:
479,139,22751,1,4,0:0:0:0:
479,139,22923,1,2,0:0:0:0:
397,176,23095,6,0,P|344:163|269:139,1,112.500004291535,4|8,0:0|0:0,0:0:0:0:
218,97,23613,2,0,P|211:135|202:169,1,56.2500021457673
122,146,23958,2,0,P|134:182|141:219,1,56.2500021457673,0|8,0:0|0:0,0:0:0:0:
106,277,24302,2,0,P|145:314|219:338,1,112.500004291535
278,304,24820,1,8,0:0:0:0:
353,340,24992,2,0,P|405:319|445:281,1,112.500004291535
479,203,25509,2,0,P|488:174|493:129,1,56.2500021457673,8|0,0:0|3:0,0:0:0:0:
427,85,25854,6,0,L|296:115,1,112.500004291535,4|8,3:2|0:0,0:0:0:0:
242,70,26371,2,0,B|193:66|163:38|163:38|113:49,1,112.500004291535
68,92,26889,1,8,0:0:0:0:
145,125,27061,2,0,P|138:173|122:250,1,112.500004291535
85,310,27578,1,8,0:0:0:0:
232,365,27923,2,0,P|262:356|289:346,1,56.2500021457673
357,303,28268,2,0,P|385:320|411:332,1,56.2500021457673,8|0,0:0|0:0,0:0:0:0:
460,257,28613,6,0,L|474:141,1,112.500004291535,4|8,3:2|0:0,0:0:0:0:
328,221,29302,2,0,P|278:250|213:261,1,112.500004291535,2|8,0:1|0:0,0:0:0:0:
75,211,29992,2,0,L|109:337,1,112.500004291535,0|8,0:0|0:0,0:0:0:0:
164,202,30682,2,0,L|173:140,1,56.2500021457673
90,135,31027,2,0,L|77:80,1,56.2500021457673,8|0,0:0|3:0,0:0:0:0:
146,23,31371,6,0,L|263:53,2,112.500004291535,4|8|0,3:2|0:0|0:0,0:0:0:0:
77,80,32233,1,0,0:0:0:0:
15,21,32406,1,8,0:0:0:0:
15,21,32578,1,0,0:0:0:0:
77,80,32751,6,0,P|100:106|115:146,1,56.2500021457673,8|0,3:0|3:0,0:0:0:0:
121,154,33009,1,0,3:0:0:0:
121,154,33095,1,0,1:0:0:0:
211,115,33268,2,0,L|345:146,1,112.500004291535,10|4,0:3|1:2,0:0:0:0:
397,93,33785,2,0,L|409:125,3,28.1250010728836,0|0|0|0,1:0|1:0|1:0|1:0,0:0:0:0:
414,157,34130,6,0,P|402:228|366:309,1,150,4|0,0:1|1:0,0:0:0:0:
303,359,34647,1,2,0:0:0:0:
226,310,34820,2,0,L|139:332,1,75,2|0,3:2|3:0,0:0:0:0:
77,376,35164,1,0,1:0:0:0:
18,297,35337,6,0,B|-14:231|-14:231|27:148,1,150,2|2,3:2|3:2,0:0:0:0:
82,230,35854,2,0,L|161:211,1,75,0|2,1:0|0:0,0:0:0:0:
231,164,36199,1,2,3:2:0:0:
298,223,36371,2,0,P|311:185|313:140,1,75,2|0,3:2|1:0,0:0:0:0:
295,62,36716,1,2,3:2:0:0:
382,85,36889,6,0,L|469:62,1,75,2|0,3:2|0:0,0:0:0:0:
480,151,37233,2,0,P|477:187|459:240,2,75,8|2|0,1:0|0:0|3:0,0:0:0:0:
386,170,37751,2,0,L|297:146,1,75,2|0,3:2|1:0,0:0:0:0:
227,175,38095,2,0,L|58:123,1,150,4|0,3:2|3:0,0:0:0:0:
11,197,38613,6,0,L|37:292,1,75,4|0,1:2|0:0,0:0:0:0:
109,345,38958,2,0,L|123:271,1,75,4|8,3:2|0:0,0:0:0:0:
211,324,39302,2,0,L|301:293,1,75,2|0,1:2|0:0,0:0:0:0:
370,342,39647,6,0,P|437:284|433:202,1,150,4|0,0:0|1:0,0:0:0:0:
395,149,40164,1,0,0:0:0:0:
309,177,40337,2,0,P|236:164|194:104,1,150,2|0,3:2|1:0,0:0:0:0:
283,91,40854,1,0,3:0:0:0:
309,177,41027,6,0,P|317:225|305:273,1,75,2|0,0:0|3:0,0:0:0:0:
276,332,41371,1,0,1:0:0:0:
194,370,41544,2,0,P|157:362|127:340,1,75,0|2,0:0|0:2,0:0:0:0:
61,279,41889,1,2,3:2:0:0:
32,194,42061,1,0,1:0:0:0:
32,194,42233,6,0,B|90:178|90:178|127:222|186:225,1,150,4|2,0:0|0:1,0:0:0:0:
242,174,42751,1,2,1:2:0:0:
242,174,42923,1,2,0:0:0:0:
313,227,43095,2,0,P|349:218|392:183,1,75,2|2,3:1|3:2,0:0:0:0:
433,124,43440,1,0,1:0:0:0:
433,124,43613,1,2,0:0:0:0:
473,212,43785,6,0,L|456:302,1,75,4|0,3:2|1:0,0:0:0:0:
409,360,44130,1,0,1:0:0:0:
332,300,44302,2,0,B|315:303|289:321|289:321|244:320|244:320|194:348,1,150,4|2,3:2|3:1,0:0:0:0:
104,363,44820,2,0,P|78:345|60:326,3,37.5,0|0|4|0,1:0|3:0|0:3|3:0,0:0:0:0:
43,311,45164,6,0,P|25:261|24:182,1,112.500004291535,4|0,3:2|0:0,0:0:0:0:
127,100,45854,2,0,L|66:77,2,56.2500021457673,8|2|0,0:0|0:0|3:0,0:0:0:0:
200,142,46371,6,0,L|329:109,1,112.500004291535,2|0,0:1|0:0,0:0:0:0:
392,97,46889,2,0,P|376:149|368:211,1,112.500004291535,0|8,3:0|0:0,0:0:0:0:
412,278,47406,1,0,3:0:0:0:
342,324,47578,2,0,P|309:342|269:352,1,56.2500021457673,0|0,3:0|3:0,0:0:0:0:
204,372,47923,6,0,L|74:332,1,112.500004291535,4|8,0:0|0:0,0:0:0:0:
40,275,48440,2,0,P|26:240|16:199,1,56.2500021457673,2|8,0:0|0:0,0:0:0:0:
45,141,48785,1,2,0:0:0:0:
45,141,48958,1,0,3:0:0:0:
126,178,49130,6,0,P|192:151|230:118,1,112.500004291535,4|8,3:2|0:0,0:0:0:0:
279,61,49647,1,2,3:2:0:0:
279,61,49820,1,12,3:2:0:0:
279,61,50164,2,0,L|400:96,1,112.500004291535,4|0,3:1|0:0,0:0:0:0:
430,165,50682,6,0,L|440:238,1,56.2500021457673,2|0,3:2|0:0,0:0:0:0:
474,296,51027,1,8,0:0:0:0:
404,343,51199,2,0,P|349:355|295:342,1,112.500004291535,2|2,0:0|0:0,0:0:0:0:
226,292,51716,1,0,0:0:0:0:
162,347,51889,6,0,P|143:294|178:225,1,112.500004291535,2|10,3:2|0:0,0:0:0:0:
220,183,52406,2,0,P|230:157|234:123,1,56.2500021457673,0|2,3:0|0:0,0:0:0:0:
226,44,52751,1,8,0:0:0:0:
154,88,52923,2,0,P|120:80|81:60,2,56.2500021457673,2|8|2,0:0|3:2|0:0,0:0:0:0:
226,44,53440,6,0,P|291:25|365:57,1,127.50000243187,4|8,0:0|0:0,0:0:0:0:
420,103,53958,1,2,0:0:0:0:
436,196,54130,2,0,P|431:228|423:264,1,63.7500012159348,8|2,0:0|0:0,0:0:0:0:
376,341,54475,1,10,0:0:0:0:
289,287,54647,6,0,L|158:307,1,127.50000243187,4|0,0:0|0:0,0:0:0:0:
100,379,55164,2,0,P|80:346|71:302,1,63.7500012159348,10|0,0:1|0:0,0:0:0:0:
101,230,55509,2,0,P|162:208|236:241,1,127.50000243187,12|10,0:0|0:1,0:0:0:0:
220,226,56199,6,0,L|249:74,1,150,4|2,1:2|3:1,0:0:0:0:
126,22,56716,2,0,L|156:204,1,150,4|4,1:2|0:0,0:0:0:0:
131,266,57233,1,2,1:1:0:0:
131,266,57578,6,0,P|105:245|81:235,2,56.2500021457673,8|0|0,3:2|1:0|1:0,0:0:0:0:
154,349,58095,1,2,3:1:0:0:
154,349,58268,2,0,P|195:330|217:252,1,112.500004291535,0|0,1:0|1:0,0:0:0:0:
308,312,58785,6,0,L|452:272,1,150,6|2,0:0|0:0,0:0:0:0:
502,196,59302,1,0,1:0:0:0:
502,196,59475,1,2,0:0:0:0:
443,126,59647,2,0,P|402:143|353:155,1,75,2|2,3:2|3:2,0:0:0:0:
295,103,59992,1,0,1:0:0:0:
219,150,60164,6,0,P|134:105|103:42,1,150,2|2,3:2|3:2,0:0:0:0:
83,164,60682,2,0,P|89:202|101:244,1,75,0|0,1:0|0:0,0:0:0:0:
149,311,61027,1,2,3:2:0:0:
149,311,61199,1,0,0:0:0:0:
230,273,61371,2,0,P|265:255|323:250,1,75,0|0,1:0|0:0,0:0:0:0:
382,300,61716,6,0,P|439:253|450:174,1,150,2|0,3:1|1:0,0:0:0:0:
397,108,62233,2,0,B|356:132|356:132|253:91,1,150,2|2,0:1|3:2,0:0:0:0:
183,45,62751,1,0,1:0:0:0:
156,138,62923,6,0,L|182:235,1,75,2|0,3:1|0:0,0:0:0:0:
148,295,63268,1,2,3:2:0:0:
82,233,63440,1,0,1:0:0:0:
175,210,63613,2,0,L|346:245,1,150,4|0,0:0|3:0,0:0:0:0:
401,282,64130,2,0,P|423:253|434:206,1,75,0|2,1:0|0:0,0:0:0:0:
375,134,64475,6,0,L|405:302,1,150,2|0,0:1|1:0,0:0:0:0:
343,350,64992,2,0,L|244:330,1,75,4|0,3:2|0:0,0:0:0:0:
180,351,65337,2,0,P|151:327|122:281,1,75,2|0,3:2|1:0,0:0:0:0:
33,276,65682,6,0,P|72:219|172:208,1,150,2|0,0:1|3:0,0:0:0:0:
218,256,66199,1,0,1:0:0:0:
284,184,66371,2,0,B|301:137|301:137|289:89|289:89|309:61|301:17,1,150,4|2,0:0|3:2,0:0:0:0:
375,96,66889,2,0,P|382:132|378:178,1,75,0|2,1:0|3:2,0:0:0:0:
339,258,67233,6,0,P|266:266|187:199,1,150,2|0,3:1|1:0,0:0:0:0:
137,153,67751,2,0,P|108:134|70:125,1,75,4|0,0:0|3:0,0:0:0:0:
9,201,68095,2,0,L|32:284,1,75,2|0,3:2|1:0,0:0:0:0:
108,377,68440,6,0,L|130:218,1,150,2|4,3:1|0:0,0:0:0:0:
139,135,68958,1,0,1:0:0:0:
214,183,69130,1,2,3:1:0:0:
214,183,69302,2,0,P|259:156|283:117,1,75,2|0,3:0|1:0,0:0:0:0:
322,63,69647,1,0,1:0:0:0:
378,142,69820,6,0,P|410:209|431:315,1,150,6|2,0:0|3:2,0:0:0:0:
363,345,70337,2,0,L|271:319,1,75,0|2,1:0|0:0,0:0:0:0:
204,352,70682,2,0,L|120:330,1,75,2|2,3:2|3:2,0:0:0:0:
48,367,71027,1,0,1:0:0:0:
65,271,71199,6,0,L|94:124,1,150,4|2,3:2|3:2,0:0:0:0:
67,38,71716,1,0,1:0:0:0:
154,60,71889,1,2,0:0:0:0:
154,60,72061,2,0,L|238:34,1,75,2|0,3:2|3:0,0:0:0:0:
288,102,72406,2,0,B|380:130,1,75,2|0,1:1|0:0,0:0:0:0:
452,92,72751,6,0,L|434:183,1,75,4|2,0:0|0:0,0:0:0:0:
421,253,73095,1,8,1:0:0:0:
338,318,73268,2,0,P|265:339|180:311,1,150,2|4,0:1|3:2,0:0:0:0:
133,260,73785,1,0,1:0:0:0:
230,220,73958,6,0,P|274:159|283:80,1,150,4|2,0:0|1:1,0:0:0:0:
214,6,74475,1,8,1:0:0:0:
144,84,74647,2,0,P|154:157|197:217,1,150,4|2,3:2|1:1,0:0:0:0:
331,315,75337,1,2,0:0:0:0:
331,315,75509,6,0,B|352:269|352:269|351:219|351:219|373:175,1,150,4|2,0:0|0:0,0:0:0:0:
439,112,76027,2,0,P|459:161|456:200,1,75,2|0,0:1|1:0,0:0:0:0:
451,271,76371,2,0,P|442:314|418:354,1,75,2|4,0:0|0:2,0:0:0:0:
331,315,76716,6,0,B|279:300|279:300|247:332|184:348,1,150,2|8,0:1|1:0,0:0:0:0:
111,379,77233,1,2,0:0:0:0:
138,293,77406,2,0,P|150:253|155:200,1,75,2|0,0:1|1:0,0:0:0:0:
83,120,77751,2,0,B|113:149|113:149|164:121|224:171,1,150,4|0,0:2|0:0,0:0:0:0:
304,191,78268,6,0,P|320:152|324:107,1,75,4|0,3:2|0:0,0:0:0:0:
214,163,78613,2,0,L|230:250,1,75,4|0,3:2|0:0,0:0:0:0:
259,324,78958,2,0,B|315:364|367:336,1,112.5,4|0,3:2|0:0,0:0:0:0:
391,348,79302,2,0,L|411:272,1,75,2|0,1:0|1:0,0:0:0:0:
470,208,79647,6,0,L|454:162,3,37.5,2|0|0|0,3:0|3:0|1:0|1:3,0:0:0:0:
446,139,79992,2,0,L|429:93,3,37.5,0|0|0|0,1:0|1:0|1:0|1:0,0:0:0:0:
418,71,80337,1,2,1:0:0:0:
330,37,80509,2,0,P|295:26|226:27,1,75,2|2,0:1|0:3,0:0:0:0:
177,61,80854,2,0,P|139:106|161:210,1,150,2|2,0:0|0:0,0:0:0:0:
211,278,81371,6,0,B|236:206|236:206|214:140|214:140|281:137|281:137|330:85|330:85|363:155|363:155|437:189|437:189|370:242|370:242|359:316|359:316|291:269|291:269|223:281,1,750,6|4,1:2|3:2,0:0:0:0:
444,290,83440,6,0,P|479:275|506:240,1,75,2|0,1:1|3:0,0:0:0:0:
512,153,83785,2,0,P|491:128|422:104,1,75,4|0,3:2|0:0,0:0:0:0:
370,140,84130,2,0,L|268:117,1,75,2|4,1:2|0:0,0:0:0:0:
212,157,84475,1,4,3:2:0:0:
127,125,84647,2,0,B|114:155|134:211|134:211|118:271,1,150,4|4,3:2|0:0,0:0:0:0:
62,343,85164,6,0,B|111:371|111:371|161:350|207:367,1,150,2|4,3:1|1:2,0:0:0:0:
297,371,85682,2,0,P|316:341|326:296,1,75,2|0,0:1|3:0,0:0:0:0:
299,208,86027,1,4,1:2:0:0:
299,208,86199,1,0,1:0:0:0:
118,271,86544,6,0,P|93:232|76:178,1,75,4|2,3:2|0:0,0:0:0:0:
91,120,86889,1,2,1:2:0:0:
160,61,87061,2,0,B|210:68|210:68|252:95|252:95|301:99,1,150,2|2,3:2|3:2,0:0:0:0:
391,90,87578,1,0,1:0:0:0:
407,178,87751,6,0,P|335:162|301:86,1,150,2|0,3:2|3:0,0:0:0:0:
391,90,88268,1,0,1:0:0:0:
407,178,88440,2,0,P|400:254|380:334,1,150,2|2,0:0|3:2,0:0:0:0:
304,370,88958,1,0,1:0:0:0:
251,287,89130,6,0,P|196:240|115:239,1,150,2|2,0:1|1:2,0:0:0:0:
35,284,89647,2,0,L|14:198,1,75,2|2,1:2|1:0,0:0:0:0:
95,125,89992,2,0,L|87:184,2,37.5,0|0|4,1:0|1:0|1:2,0:0:0:0:
69,35,90337,1,0,1:0:0:0:
159,75,90509,1,0,1:0:0:0:
159,75,90595,1,0,1:0:0:0:
159,75,90682,6,0,L|237:59,1,75,2|4,3:1|1:2,0:0:0:0:
314,21,91027,2,0,L|399:41,1,75,8|4,0:0|3:2,0:0:0:0:
452,100,91371,2,0,P|463:136|469:173,1,75,0|4,1:2|3:2,0:0:0:0:
466,184,91630,1,0,3:0:0:0:
464,195,91716,2,0,P|447:230|440:270,1,75,8|8,1:2|3:0,0:0:0:0:
468,360,92061,5,4,3:2:0:0:
306,378,92406,2,0,L|204:347,1,75,0|0,1:0|0:0,0:0:0:0:
151,317,92751,2,0,P|202:272|290:280,1,150,2|0,0:0|1:0,0:0:0:0:
362,322,93268,6,0,P|409:277|418:165,1,150,2|2,3:2|3:2,0:0:0:0:
360,130,93785,2,0,P|325:146|289:158,1,75,0|2,1:0|0:0,0:0:0:0:
214,108,94130,1,0,3:0:0:0:
214,108,94302,1,2,3:2:0:0:
160,180,94475,2,0,P|171:219|180:258,1,75,0|2,1:0|0:0,0:0:0:0:
183,346,94820,6,0,P|192:276|208:181,1,150,2|0,3:2|1:0,0:0:0:0:
214,108,95337,1,0,0:0:0:0:
291,153,95509,2,0,P|315:127|329:83,2,75,2|0|0,0:0|3:0|1:0,0:0:0:0:
205,198,96027,6,0,P|140:147|65:141,1,150,2|0,3:2|3:0,0:0:0:0:
25,215,96544,2,0,L|58:313,1,75,0|2,1:0|3:2,0:0:0:0:
115,357,96889,2,0,P|130:331|137:264,1,75,0|2,3:0|1:2,0:0:0:0:
118,199,97233,1,8,1:0:0:0:
211,227,97406,6,0,L|312:194,1,75,2|4,3:0|0:1,0:0:0:0:
356,151,97751,2,0,P|403:172|432:272,1,150,2|0,0:0|0:0,0:0:0:0:
382,333,98268,2,0,L|285:302,1,75,2|0,3:2|3:0,0:0:0:0:
234,359,98613,2,0,L|141:387,1,75,0|0,1:0|3:0,0:0:0:0:
80,326,98958,6,0,P|41:257|49:177,1,150,2|0,0:0|1:0,0:0:0:0:
90,110,99475,1,0,3:0:0:0:
162,162,99647,2,0,P|232:182|314:146,1,150,2|0,0:0|1:0,0:0:0:0:
366,92,100164,1,0,3:0:0:0:
440,29,100337,6,0,B|459:83|459:83|442:140|459:189,2,150,2|0|2,0:0|1:0|0:0,0:0:0:0:
366,92,101199,1,0,3:0:0:0:
301,28,101371,1,0,1:0:0:0:
227,95,101544,6,0,L|72:59,1,150,2|0,3:2|1:0,0:0:0:0:
24,131,102061,1,0,1:0:0:0:
65,210,102233,2,0,P|93:185|106:151,1,75,4|0,3:2|1:0,0:0:0:0:
81,61,102578,2,0,L|81:20,2,37.5,4|0|0,3:2|3:0|1:0,0:0:0:0:
24,131,102923,1,2,0:0:0:0:
65,210,103095,6,0,P|134:230|214:205,1,150,4|0,0:1|1:0,0:0:0:0:
272,148,103613,1,2,0:0:0:0:
337,213,103785,2,0,P|361:183|371:117,1,75,0|2,3:0|3:2,0:0:0:0:
397,61,104130,1,0,1:0:0:0:
449,133,104302,6,0,P|434:211|373:287,1,150,2|2,3:2|3:2,0:0:0:0:
311,304,104820,1,0,1:0:0:0:
254,234,104992,2,0,P|182:206|111:238,1,150,2|2,0:0|3:2,0:0:0:0:
89,317,105509,1,0,1:0:0:0:
89,317,105682,1,2,3:2:0:0:
177,296,105854,6,0,B|218:237|185:178|185:178|231:168,1,150,2|0,0:0|1:0,0:0:0:0:
295,205,106371,2,0,L|379:174,1,75,2|0,0:0|0:0,0:0:0:0:
451,144,106716,2,0,P|462:178|469:222,1,75,2|0,3:2|1:0,0:0:0:0:
429,320,107061,6,0,L|278:286,1,150,2|2,3:1|3:2,0:0:0:0:
207,218,107578,1,0,1:0:0:0:
150,288,107751,2,0,P|120:239|151:144,1,150,2|0,0:1|1:0,0:0:0:0:
211,93,108268,2,0,P|244:113|296:126,1,75,4|0,1:2|0:0,0:0:0:0:
368,72,108613,6,0,P|453:95|494:172,1,150,4|0,3:2|1:0,0:0:0:0:
503,232,109130,1,0,0:0:0:0:
463,315,109302,2,0,P|419:298|391:275,1,75,2|0,0:0|3:0,0:0:0:0:
321,236,109647,2,0,P|284:255|246:296,1,75,0|0,1:0|0:0,0:0:0:0:
194,350,109992,6,0,P|107:354|50:293,1,150,2|0,3:2|1:0,0:0:0:0:
5,245,110509,2,0,P|62:226|146:296,1,150,2|2,0:0|3:2,0:0:0:0:
61,316,111027,1,0,1:0:0:0:
5,245,111199,6,0,P|-13:173|25:84,1,150,4|0,0:0|0:0,0:0:0:0:
77,41,111716,1,0,1:0:0:0:
140,104,111889,2,0,L|214:91,1,75,2|0,0:0|3:0,0:0:0:0:
295,128,112233,1,2,3:2:0:0:
351,63,112406,1,0,1:0:0:0:
398,148,112578,6,0,P|374:185|328:208,1,75,2|4,0:0|3:2,0:0:0:0:
338,206,112837,1,0,0:0:0:0:
326,207,112923,2,0,P|337:251|342:302,1,75,0|0,1:0|1:0,0:0:0:0:
273,344,113268,2,0,B|224:368|224:368|181:355|181:355|151:365|121:392,1,150,2|4,3:1|3:2,0:0:0:0:
137,379,114130,6,0,P|94:340|72:274,1,112.500004291535,4|0,3:2|0:0,0:0:0:0:
132,124,114820,2,0,L|132:64,2,56.2500021457673,8|2|0,0:0|0:0|3:0,0:0:0:0:
190,193,115337,6,0,P|247:218|308:208,1,112.500004291535,2|2,3:1|0:0,0:0:0:0:
371,175,115854,2,0,P|425:191|474:254,1,112.500004291535,0|8,3:0|0:0,0:0:0:0:
403,349,116544,1,0,3:0:0:0:
403,349,116716,1,2,0:0:0:0:
403,349,116889,6,0,P|339:361|278:340,1,112.500004291535,4|2,3:2|0:0,0:0:0:0:
246,278,117406,2,0,P|221:301|201:333,1,56.2500021457673,2|8,0:0|0:0,0:0:0:0:
138,366,117751,2,0,P|109:337|88:301,1,56.2500021457673,2|8,3:2|0:0,0:0:0:0:
148,248,118095,6,0,P|174:188|188:128,1,112.500004291535,4|8,0:0|0:0,0:0:0:0:
165,59,118613,1,2,0:0:0:0:
165,59,118785,1,12,0:0:0:0:
165,59,119130,2,0,P|211:94|271:100,1,112.500004291535,4|0,3:1|0:0,0:0:0:0:
338,60,119647,6,0,P|367:44|404:36,1,56.2500021457673,2|0,3:2|0:0,0:0:0:0:
471,56,119992,1,0,3:0:0:0:
506,132,120164,2,0,P|518:186|500:241,1,112.500004291535,2|0,0:0|0:0,0:0:0:0:
439,297,120682,1,2,0:0:0:0:
371,246,120854,6,0,P|318:228|266:247,1,112.500004291535,2|2,3:2|0:0,0:0:0:0:
199,297,121371,2,0,P|162:290|135:273,1,56.2500021457673,0|2,3:0|0:0,0:0:0:0:
84,222,121716,1,8,0:0:0:0:
140,158,121889,2,0,P|163:130|168:96,2,56.2500021457673,2|0|2,0:0|3:0|0:0,0:0:0:0:
84,222,122406,6,0,P|149:203|223:235,1,127.50000243187,12|10,0:0|0:0,0:0:0:0:
271,288,122923,1,2,0:0:0:0:
326,210,123095,2,0,L|343:123,1,63.7500012159348,12|2,0:0|0:0,0:0:0:0:
359,53,123440,1,10,0:0:0:0:
423,123,123613,6,0,L|398:260,1,127.50000243187,4|0,0:0|0:0,0:0:0:0:
356,334,124130,2,0,P|323:356|287:371,1,63.7500012159348,10|0,0:0|0:0,0:0:0:0:
220,314,124475,2,0,P|186:296|148:286,1,63.7500012159348,10|0,0:0|0:0,0:0:0:0:
70,319,124820,2,0,P|53:289|46:237,1,63.7500012159348,2|8,0:1|0:0,0:0:0:0:
120,166,125164,6,0,L|267:195,1,150,4|2,1:2|3:1,0:0:0:0:
307,302,125682,2,0,P|362:260|375:178,1,150,4|4,1:2|3:2,0:0:0:0:
322,95,126199,1,2,1:1:0:0:
322,95,126716,6,0,L|240:117,1,75,2|2,0:1|0:0,0:0:0:0:
172,172,127061,1,2,0:0:0:0:
172,172,127233,2,0,L|88:147,1,75,4|2,0:0|0:0,0:0:0:0:
33,88,127578,1,2,0:0:0:0:
2,181,127751,6,0,P|52:237|142:244,1,150,6|2,0:0|0:0,0:0:0:0:
172,172,128268,1,0,1:0:0:0:
172,172,128440,1,2,0:0:0:0:
254,208,128613,2,0,P|288:183|305:156,1,75,2|2,3:2|3:2,0:0:0:0:
324,67,128958,1,0,1:0:0:0:
401,126,129130,6,0,P|390:191|322:267,1,150,2|2,3:2|3:2,0:0:0:0:
269,313,129647,2,0,P|238:291|204:276,1,75,0|0,1:0|0:0,0:0:0:0:
124,318,129992,1,2,3:2:0:0:
124,318,130164,1,0,0:0:0:0:
63,251,130337,2,0,B|35:208|33:167,1,75,0|2,1:0|0:0,0:0:0:0:
64,89,130682,6,0,P|92:57|202:47,1,150,2|0,3:1|1:0,0:0:0:0:
280,91,131199,2,0,B|378:129|378:129|441:106,1,150,2|2,0:1|3:2,0:0:0:0:
494,63,131716,1,0,1:0:0:0:
502,158,131889,6,0,P|502:195|490:243,1,75,2|0,3:1|0:0,0:0:0:0:
444,307,132233,1,2,3:2:0:0:
382,240,132406,1,0,1:0:0:0:
326,319,132578,2,0,P|269:354|165:345,1,150,4|0,0:0|3:0,0:0:0:0:
103,304,133095,2,0,P|114:261|120:209,1,75,0|2,1:0|0:0,0:0:0:0:
72,119,133440,6,0,P|142:152|225:169,1,150,2|0,0:1|1:0,0:0:0:0:
285,114,133958,2,0,L|305:206,1,75,4|0,3:2|0:0,0:0:0:0:
374,273,134302,2,0,L|394:173,1,75,2|0,3:2|1:0,0:0:0:0:
463,320,134647,6,0,P|401:367|314:366,1,150,2|2,0:1|3:2,0:0:0:0:
261,307,135164,1,0,1:0:0:0:
183,368,135337,2,0,B|166:321|166:321|178:273|178:273|158:245|163:225,1,150,4|2,0:0|3:2,0:0:0:0:
250,217,135854,2,0,P|283:206|325:174,1,75,0|4,1:0|0:0,0:0:0:0:
376,267,136199,6,0,P|413:204|387:109,1,150,2|0,3:1|1:0,0:0:0:0:
402,32,136716,2,0,P|369:54|334:64,1,75,4|0,0:0|3:0,0:0:0:0:
244,28,137061,2,0,P|210:42|165:74,1,75,2|0,3:2|1:0,0:0:0:0:
117,149,137406,6,0,P|137:220|158:317,1,150,2|4,3:1|3:2,0:0:0:0:
220,366,137923,1,0,1:0:0:0:
299,324,138095,1,2,3:1:0:0:
299,324,138268,2,0,L|378:343,1,75,2|0,3:0|1:0,0:0:0:0:
468,360,138613,1,0,1:0:0:0:
421,274,138785,6,0,P|399:205|383:125,1,150,6|2,0:0|3:2,0:0:0:0:
492,88,139302,2,0,P|484:135|463:180,1,75,0|2,1:0|0:0,0:0:0:0:
384,129,139647,2,0,P|340:108|291:100,1,75,2|2,3:2|3:2,0:0:0:0:
246,43,139992,1,0,1:0:0:0:
202,129,140164,6,0,P|224:199|242:277,1,150,4|2,3:2|3:2,0:0:0:0:
163,319,140682,2,0,L|69:288,1,75,0|2,1:0|0:0,0:0:0:0:
46,217,141027,2,0,P|26:180|17:116,1,75,2|0,3:2|3:0,0:0:0:0:
72,66,141371,6,0,P|126:95|165:104,1,75,2|0,1:1|0:0,0:0:0:0:
231,66,141716,2,0,L|310:40,1,75,4|2,3:2|0:0,0:0:0:0:
337,130,142061,1,0,1:0:0:0:
442,95,142233,2,0,P|477:160|464:248,1,150,2|4,0:1|3:2,0:0:0:0:
407,298,142751,1,0,1:0:0:0:
320,239,142923,6,0,P|255:211|180:250,1,150,4|2,3:2|1:0,0:0:0:0:
116,320,143440,1,0,1:0:0:0:
47,241,143613,2,0,B|29:196|29:196|55:152|35:98,1,150,4|2,3:2|1:0,0:0:0:0:
190,10,144302,1,2,0:0:0:0:
190,10,144475,6,0,B|234:30|234:30|284:28|284:28|308:45|332:48,1,150,4|0,0:0|0:0,0:0:0:0:
415,16,144992,2,0,P|434:51|443:119,1,75,2|0,0:0|1:0,0:0:0:0:
396,162,145337,2,0,P|372:196|357:247,1,75,2|0,0:1|0:0,0:0:0:0:
319,315,145682,6,0,B|261:344|261:344|223:326|156:314,1,150,4|0,0:0|1:0,0:0:0:0:
81,344,146199,1,2,0:0:0:0:
127,260,146371,2,0,P|155:211|169:172,1,75,2|0,0:1|1:0,0:0:0:0:
57,139,146716,2,0,P|107:179|125:272,1,150,4|0,0:0|0:0,0:0:0:0:
81,344,147233,6,0,P|45:309|35:265,1,75,4|0,3:2|0:0,0:0:0:0:
127,259,147578,2,0,L|213:289,1,75,4|0,3:2|0:0,0:0:0:0:
275,343,147923,2,0,B|323:295|329:232,1,112.5,4|0,3:2|0:0,0:0:0:0:
328,205,148268,2,0,L|252:222,1,75,4|8,1:2|1:0,0:0:0:0:
173,164,148613,6,0,L|163:125,3,37.5,4|0|0|0,1:2|1:0|1:0|1:0,0:0:0:0:
157,96,148958,2,0,L|149:60,3,37.5,0|0|0|0,1:0|1:0|1:0|3:0,0:0:0:0:
142,29,149302,1,2,1:0:0:0:
236,50,149475,2,0,L|367:30,1,112.500004291535,2|0,0:1|0:0,0:0:0:0:
458,20,149992,5,4,0:0:0:0:
256,192,150078,12,4,152751,0:0:0:0:
445,60,161027,5,8,3:2:0:0:
445,60,161371,2,0,P|465:34|474:6,2,56.2500021457673,10|0|10,3:2|0:0|3:2,0:0:0:0:
376,110,161889,1,0,0:0:0:0:
296,83,162061,2,0,L|226:97,1,56.2500021457673,10|0,3:2|0:0,0:0:0:0:
162,62,162406,6,0,L|140:173,1,112.500004291535,10|10,3:2|3:2,0:0:0:0:
63,135,162923,1,4,0:0:0:0:
75,218,163095,2,0,L|92:298,1,56.2500021457673,10|0,3:2|0:0,0:0:0:0:
105,355,163440,1,10,3:2:0:0:
105,355,163613,1,4,3:2:0:0:
177,310,163785,6,0,P|232:297|304:315,1,112.500004291535,10|8,3:1|3:2,0:0:0:0:
356,353,164302,1,0,0:0:0:0:
422,300,164475,2,0,P|435:263|437:239,1,56.2500021457673,10|0,3:2|0:0,0:0:0:0:
371,192,164820,2,0,P|358:155|356:131,1,56.2500021457673,10|0,3:2|0:0,0:0:0:0:
421,84,165164,6,0,P|370:53|305:67,1,112.500004291535,12|10,3:2|3:2,0:0:0:0:
258,117,165682,1,0,0:0:0:0:
183,78,165854,2,0,L|112:47,1,56.2500021457673,12|2,3:2|0:0,0:0:0:0:
53,89,166199,1,8,3:2:0:0:
53,89,166371,1,2,0:0:0:0:
110,150,166544,6,0,B|120:187|106:221|106:221|116:264,2,112.500004291535,10|10|8,3:1|3:2|3:2,0:0:0:0:
160,355,167578,1,12,3:2:0:0:
241,313,167751,2,0,P|295:310|356:339,1,112.500004291535,2|2,0:1|0:0,0:0:0:0:
422,371,168268,2,0,P|445:337|459:301,1,56.2500021457673,12|0,3:2|0:0,0:0:0:0:
405,251,168613,2,0,P|352:223|276:216,1,112.500004291535,10|8,3:1|3:2,0:0:0:0:
219,238,169130,6,0,P|165:241|104:212,1,112.500004291535,2|0,3:1|0:0,0:0:0:0:
66,147,169647,2,0,L|66:82,1,56.2500021457673,10|0,3:1|0:0,0:0:0:0:
18,20,169992,1,10,3:2:0:0:
66,90,170164,2,0,L|135:74,1,56.2500021457673,2|8,0:1|3:2,0:0:0:0:
198,110,170509,1,4,0:0:0:0:
274,76,170682,6,0,L|346:95,1,63.7500012159348,2|0,1:1|0:0,0:0:0:0:
413,62,171027,1,0,1:0:0:0:
421,144,171199,2,0,L|407:215,1,63.7500012159348,2|0,1:2|0:0,0:0:0:0:
406,215,171458,1,0,0:0:0:0:
401,223,171544,2,0,P|338:207|269:231,1,127.50000243187,6|0,1:3|3:0,0:0:0:0:
208,293,172061,6,0,P|137:286|59:221,1,150,4|0,3:2|1:0,0:0:0:0:
137,171,172578,1,2,0:0:0:0:
137,171,172751,2,0,P|152:136|154:90,1,75,2|2,3:2|3:2,0:0:0:0:
95,25,173095,1,0,1:0:0:0:
95,25,173268,1,2,0:0:0:0:
155,100,173440,6,0,P|224:135|307:110,1,150,4|0,3:2|1:0,0:0:0:0:
372,77,173958,2,0,P|439:81|495:139,1,150,2|2,3:2|3:0,0:0:0:0:
476,231,174475,2,0,P|466:271|450:309,1,75,0|2,1:0|0:0,0:0:0:0:
381,365,174820,6,0,L|232:335,1,150,2|0,3:1|1:0,0:0:0:0:
163,271,175337,1,0,0:0:0:0:
100,335,175509,2,0,P|75:295|73:246,1,75,4|0,3:2|3:0,0:0:0:0:
117,192,175854,1,0,1:0:0:0:
176,114,176027,6,0,P|232:63|305:53,1,150,2|0,0:1|3:0,0:0:0:0:
390,76,176544,1,4,1:2:0:0:
445,147,176716,2,0,P|447:183|445:228,1,75,2|0,3:2|3:0,0:0:0:0:
415,306,177061,1,2,1:0:0:0:
336,261,177233,2,0,P|298:260|261:263,1,75,0|0,1:0|0:0,0:0:0:0:
183,309,177578,6,0,B|170:260|170:260|189:209|189:209|183:155,2,150,4|0|2,3:2|1:0|3:2,0:0:0:0:
81,92,178613,1,0,1:0:0:0:
81,92,178785,6,0,B|127:105|170:75|170:75|239:97,1,150,4|0,3:2|3:0,0:0:0:0:
298,141,179302,2,0,L|389:122,1,75,2|0,1:0|3:0,0:0:0:0:
438,65,179647,2,0,P|449:97|452:142,1,75,2|0,0:0|3:0,0:0:0:0:
449,148,179906,1,0,3:0:0:0:
445,158,179992,2,0,P|433:193|430:230,1,75,4|0,1:2|0:0,0:0:0:0:
488,313,180337,6,0,P|420:277|317:285,1,150,2|4,0:1|1:2,0:0:0:0:
273,329,180854,1,2,0:0:0:0:
244,241,181027,1,10,0:0:0:0:
184,308,181199,2,0,P|159:337|113:376,1,75,0|10,1:0|0:0,0:0:0:0:
41,349,181544,1,0,1:0:0:0:
9,268,181716,5,4,3:2:0:0:
67,197,181889,2,0,L|50:138,4,37.5,0|0|0|0|0,1:0|1:0|1:0|1:0|1:0,0:0:0:0:
118,271,182406,2,0,P|144:240|152:184,1,75,2|2,0:1|0:0,0:0:0:0:
121,114,182751,1,2,0:1:0:0:
212,148,182923,6,0,L|367:115,1,150,4|2,0:0|0:0,0:0:0:0:
445,91,183440,2,0,L|428:181,1,75,0|0,1:0|0:0,0:0:0:0:
372,233,183785,2,0,L|275:204,1,75,2|2,3:2|3:2,0:0:0:0:
221,255,184130,1,0,1:0:0:0:
136,302,184302,6,0,P|75:268|34:177,1,150,4|2,0:0|3:2,0:0:0:0:
100,134,184820,2,0,L|198:166,1,75,2|0,1:2|0:0,0:0:0:0:
217,80,185164,2,0,L|318:56,1,75,2|2,3:2|3:2,0:0:0:0:
367,109,185509,2,0,P|347:142|339:189,1,75,0|2,1:0|0:1,0:0:0:0:
371,269,185854,5,4,0:1:0:0:
371,269,186027,1,0,0:0:0:0:
438,210,186199,1,2,1:2:0:0:
454,316,186371,2,0,B|393:361|393:361|305:339,1,150,4|2,0:1|3:2,0:0:0:0:
247,292,186889,1,0,1:0:0:0:
168,349,187061,6,0,P|152:285|140:198,1,150,4|0,0:1|3:0,0:0:0:0:
170,117,187578,1,2,1:2:0:0:
76,144,187751,2,0,P|56:227|48:318,1,150,4|2,0:1|3:2,0:0:0:0:
91,372,188268,1,0,1:0:0:0:
247,292,188613,6,0,L|339:314,1,75,2|2,3:1|0:0,0:0:0:0:
396,356,188958,1,2,1:2:0:0:
438,268,189130,2,0,P|450:234|461:168,1,75,4|0,3:2|0:0,0:0:0:0:
379,139,189475,2,0,L|297:160,1,75,4|0,3:2|1:0,0:0:0:0:
230,109,189820,1,0,0:0:0:0:
188,196,189992,6,0,P|206:231|216:280,1,75,2|2,3:1|3:2,0:0:0:0:
161,338,190337,1,10,1:2:0:0:
251,372,190509,2,0,L|398:326,1,150,4|2,0:0|3:2,0:0:0:0:
478,361,191027,1,0,1:0:0:0:
478,361,191199,1,2,3:2:0:0:
489,264,191371,6,0,L|503:165,1,75,4|2,0:0|0:0,0:0:0:0:
465,105,191716,1,0,1:0:0:0:
392,158,191889,2,0,L|380:115,2,37.5,2|0|2,3:0|3:0|3:2,0:0:0:0:
356,240,192233,1,2,0:0:0:0:
293,174,192406,1,2,1:2:0:0:
226,244,192578,6,0,B|191:175|191:175|223:97,1,150,6|2,0:0|0:0,0:0:0:0:
267,23,193095,1,0,1:0:0:0:
172,48,193268,2,0,L|91:70,1,75,2|0,0:1|1:0,0:0:0:0:
42,137,193613,2,0,P|33:149|14:185,3,37.5,0|0|0|0,1:0|1:0|1:0|1:0,0:0:0:0:
21,214,193958,6,0,P|47:267|129:329,1,150,6|2,0:0|3:2,0:0:0:0:
201,292,194475,1,4,1:0:0:0:
201,292,194647,1,2,0:0:0:0:
276,341,194820,2,0,L|356:317,1,75,2|2,3:2|3:2,0:0:0:0:
427,360,195164,1,0,1:0:0:0:
467,279,195337,6,0,B|494:232|494:232|486:181|445:146,1,150,2|2,3:2|3:2,0:0:0:0:
382,88,195854,2,0,L|357:180,1,75,0|0,1:0|0:0,0:0:0:0:
296,222,196199,2,0,L|274:120,1,75,2|0,3:2|3:0,0:0:0:0:
228,74,196544,2,0,P|195:50|152:34,1,75,2|0,1:0|0:0,0:0:0:0:
80,89,196889,6,0,B|41:191|41:191|100:171,1,150,4|0,3:2|1:0,0:0:0:0:
168,149,197406,2,0,P|222:199|227:271,1,150,2|2,0:1|3:2,0:0:0:0:
190,358,197923,1,0,1:0:0:0:
279,346,198095,6,0,L|362:328,1,75,2|0,0:1|0:0,0:0:0:0:
329,242,198440,2,0,L|418:257,1,75,2|0,3:2|1:0,0:0:0:0:
474,321,198785,2,0,B|499:283|499:283|470:153,1,150,4|0,3:2|3:0,0:0:0:0:
425,106,199302,2,0,P|395:125|353:139,1,75,0|2,1:0|0:0,0:0:0:0:
274,87,199647,6,0,P|201:65|114:94,1,150,2|0,0:1|1:0,0:0:0:0:
99,167,200164,2,0,P|117:200|132:265,1,75,4|0,3:2|0:0,0:0:0:0:
158,321,200509,2,0,P|195:344|254:364,1,75,2|0,3:2|1:0,0:0:0:0:
306,304,200854,6,0,P|345:247|445:236,1,150,2|0,0:1|3:0,0:0:0:0:
402,317,201371,1,0,1:0:0:0:
493,282,201544,2,0,B|510:235|510:235|498:187|498:187|518:159|510:115,1,150,4|2,0:0|3:2,0:0:0:0:
451,72,202061,2,0,P|427:97|391:120,1,75,0|2,1:0|3:2,0:0:0:0:
308,70,202406,6,0,P|237:34|140:33,1,150,2|0,0:1|1:0,0:0:0:0:
93,78,202923,2,0,P|54:58|24:15,1,75,4|0,0:0|3:0,0:0:0:0:
14,123,203268,2,0,P|17:155|33:210,1,75,2|0,3:2|1:0,0:0:0:0:
94,268,203613,6,0,P|154:214|252:210,1,150,4|2,0:0|3:2,0:0:0:0:
302,240,204130,1,0,1:0:0:0:
343,151,204302,2,0,L|381:54,1,75,4|2,0:0|1:0,0:0:0:0:
435,20,204647,2,0,P|450:37|462:69,3,37.5,0|0|0|0,1:0|1:0|1:0|1:0,0:0:0:0:
467,86,204992,6,0,P|439:147|410:233,1,150,6|2,0:0|3:2,0:0:0:0:
398,314,205509,2,0,P|371:335|310:357,1,75,0|2,1:0|0:0,0:0:0:0:
254,309,205854,2,0,P|220:292|184:281,1,75,2|2,3:1|3:2,0:0:0:0:
101,318,206199,1,0,1:0:0:0:
33,247,206371,6,0,P|7:180|48:102,1,150,4|2,3:2|3:2,0:0:0:0:
115,67,206889,2,0,L|213:100,1,75,0|2,1:0|0:0,0:0:0:0:
248,155,207233,2,0,P|279:135|348:118,1,75,2|0,3:2|3:0,0:0:0:0:
399,152,207578,1,0,1:0:0:0:
450,77,207751,1,2,0:0:0:0:
488,166,207923,6,0,P|479:216|470:258,1,75,4|2,0:0|0:0,0:0:0:0:
442,324,208268,1,4,1:2:0:0:
361,268,208440,2,0,P|292:225|208:244,1,150,2|4,0:1|3:2,0:0:0:0:
151,283,208958,1,0,1:0:0:0:
73,212,209130,6,0,P|47:146|31:48,1,150,2|12,3:1|1:2,0:0:0:0:
91,0,209647,1,8,0:0:0:0:
164,70,209820,2,0,L|253:43,1,75,4|0,3:2|0:0,0:0:0:0:
345,148,210164,2,0,L|273:129,1,75,6|0,1:2|0:0,0:0:0:0:
166,200,210509,1,2,0:1:0:0:
345,148,210682,5,6,3:2:0:0:
345,148,211027,1,2,0:0:0:0:
398,228,211199,2,0,P|421:273|423:329,1,75,2|0,3:2|1:0,0:0:0:0:
345,348,211544,2,0,L|240:319,1,75,2|4,0:0|3:2,0:0:0:0:
180,361,211889,6,0,B|12:312,1,150,2|2,3:1|1:2,0:0:0:0:
0,235,212406,1,2,0:0:0:0:
75,186,212578,2,0,P|91:155|99:101,1,75,2|0,0:1|1:0,0:0:0:0:
83,19,212923,2,0,B|137:10|177:51|177:51|223:43,1,150,4|0,3:2|0:0,0:0:0:0:
315,13,213440,6,0,P|354:31|395:75,1,75,4|0,3:2|0:0,0:0:0:0:
428,135,213785,2,0,L|407:229,1,75,4|0,1:2|0:0,0:0:0:0:
396,303,214130,2,0,P|363:273|320:251,1,75,4|0,1:2|3:0,0:0:0:0:
260,317,214475,2,0,L|187:297,1,75,4|0,0:0|1:0,0:0:0:0:
112,235,214820,6,0,L|199:214,1,75,4|0,0:0|3:0,0:0:0:0:
272,197,215164,1,4,1:2:0:0:
337,258,215337,2,0,P|361:195|356:175,2,75,2|4|2,0:1|3:2|1:1,0:0:0:0:
260,317,215854,1,2,1:2:0:0:
180,357,216027,6,0,B|127:382|83:372|83:372|112:348,1,127.50000243187,4|0,0:0|0:0,0:0:0:0:
118,272,216544,2,0,L|101:122,1,127.50000243187,2|2,0:1|1:2,0:0:0:0:
152,78,217061,2,0,P|193:69|232:55,1,63.7500012159348,2|0,0:0|0:0,0:0:0:0:
288,24,217406,6,0,L|277:151,1,127.50000243187,4|2,0:0|1:1,0:0:0:0:
271,234,217923,1,2,0:0:0:0:
271,234,218095,1,0,0:0:0:0:
327,294,218268,2,0,P|357:313|413:325,1,63.7500012159348,0|2,1:0|0:0,0:0:0:0:
464,284,218613,1,2,0:0:0:0:
464,284,218785,1,0,0:0:0:0:
446,196,218958,6,0,B|401:177|376:153|376:153|304:140,1,127.50000243187,2|2,3:1|0:0,0:0:0:0:
259,91,219475,2,0,L|259:45,2,31.8750006079674,2|0|2,3:2|3:0|1:2,0:0:0:0:
259,175,219820,2,0,P|247:205|227:238,1,63.7500012159348,2|0,0:1|3:0,0:0:0:0:
159,288,220164,6,0,P|110:244|23:233,1,127.50000243187,4|2,1:2|3:2,0:0:0:0:
36,324,220682,2,0,L|181:281,1,127.50000243187,2|0,1:1|1:0,0:0:0:0:
231,232,221199,2,0,L|238:191,2,31.8750006079674,8|0|2,1:0|1:0|1:2,0:0:0:0:
243,321,221544,1,0,1:0:0:0:
327,266,221716,6,0,L|420:295,1,75,6|0,0:0|0:0,0:0:0:0:
450,375,222061,2,0,P|492:321|467:216,1,150,4|2,1:2|0:0,0:0:0:0:
402,192,222578,1,0,3:0:0:0:
487,243,222751,2,0,P|500:211|502:158,1,75,4|0,1:2|3:0,0:0:0:0:
427,110,223095,6,0,L|280:140,1,150,2|0,0:1|1:0,0:0:0:0:
203,201,223613,2,0,P|187:169|184:128,1,75,4|0,0:0|3:0,0:0:0:0:
310,221,223958,2,0,P|326:253|328:293,1,75,2|0,0:1|1:0,0:0:0:0:
253,364,224302,1,0,3:0:0:0:
165,309,224475,6,0,P|116:254|91:173,1,150,4|4,0:0|1:2,0:0:0:0:
113,94,224992,1,0,0:0:0:0:
195,146,225164,2,0,P|232:129|266:107,1,75,4|0,3:2|1:0,0:0:0:0:
329,41,225509,5,4,1:2:0:0:
329,41,225682,1,2,1:1:0:0:
367,130,225854,1,0,3:0:0:0:
319,215,226027,1,0,1:0:0:0:
319,215,226113,1,0,1:0:0:0:
319,215,226199,2,0,L|304:261,3,37.5,0|0|0|0,1:0|1:0|1:0|1:0,0:0:0:0:
283,289,226544,6,0,P|249:266|209:227,1,75,2|2,1:0|0:0,0:0:0:0:
157,174,226889,1,4,0:0:0:0:
225,104,227061,2,0,B|273:125|273:125|320:114|320:114|368:129,1,150,2|2,0:1|0:0,0:0:0:0:
447,42,227578,2,0,B|465:97|471:147|471:147|452:196|452:196|452:227|468:268,1,225,6|0,1:2|3:0,0:0:0:0:
420,337,228268,6,0,P|356:296|266:281,1,150,4|4,1:2|3:2,0:0:0:0:
211,333,228785,2,0,P|143:366|46:376,1,150,2|0,0:1|0:0,0:0:0:0:
20,301,229302,2,0,P|4:262|0:223,1,75,4|0,3:2|3:0,0:0:0:0:
54,157,229647,2,0,L|152:186,1,75,2|0,1:0|0:0,0:0:0:0:
212,224,229992,6,0,L|382:179,1,150,4|10,0:0|1:0,0:0:0:0:
448,151,230509,2,0,L|440:227,1,75,4|0,0:2|3:0,0:0:0:0:
408,309,230854,2,0,P|380:334|341:352,1,75,4|0,3:2|1:0,0:0:0:0:
260,324,231199,1,4,0:0:0:0:
169,360,231371,6,0,P|123:294|139:199,1,150,2|4,0:1|1:2,0:0:0:0:
190,164,231889,2,0,L|370:204,1,150,2|4,3:1|1:2,0:0:0:0:
415,152,232406,2,0,L|434:259,1,75,0|0,1:0|3:0,0:0:0:0:
406,350,232751,6,0,P|350:304|261:325,1,150,4|2,3:2|1:0,0:0:0:0:
192,353,233268,1,0,0:0:0:0:
209,264,233440,1,4,3:2:0:0:
122,291,233613,2,0,P|113:250|111:216,1,75,2|0,3:1|1:0,0:0:0:0:
45,174,233958,6,0,L|196:190,1,150,2|4,0:1|0:0,0:0:0:0:
266,135,234475,1,0,1:0:0:0:
290,222,234647,2,0,P|345:177|344:86,1,150,2|2,0:0|3:2,0:0:0:0:
299,28,235164,1,0,1:0:0:0:
211,70,235337,6,0,L|48:49,1,150,4|0,3:2|3:0,0:0:0:0:
29,132,235854,2,0,P|18:184|7:228,1,75,0|4,1:0|0:0,0:0:0:0:
58,283,236199,2,0,P|86:251|102:214,2,75,2|2|0,0:1|3:2|1:0,0:0:0:0:
0,336,236716,6,0,P|58:317|152:312,1,150,4|2,3:2|0:1,0:0:0:0:
231,342,237233,1,0,1:0:0:0:
256,255,237406,2,0,L|270:179,1,75,6|10,3:2|0:0,0:0:0:0:
332,106,237751,2,0,L|356:201,1,75,2|0,1:0|3:0,0:0:0:0:
394,274,238095,1,4,3:2:0:0:
394,274,238182,1,0,3:0:0:0:
394,274,238268,6,0,P|444:219|444:140,2,150,2|2|0,0:1|1:2|3:0,0:0:0:0:
332,207,239130,1,4,3:2:0:0:
256,255,239302,2,0,P|233:218|223:174,1,75,0|2,1:0|0:0,0:0:0:0:
263,106,239647,6,0,P|333:126|407:92,1,150,2|0,0:1|1:0,0:0:0:0:
328,32,240164,2,0,P|255:11|169:55,1,150,2|4,0:1|3:2,0:0:0:0:
130,106,240682,2,0,P|84:84|54:35,1,75,0|2,1:0|3:0,0:0:0:0:
56,156,241027,6,0,L|39:314,1,150,2|2,3:1|1:2,0:0:0:0:
100,372,241544,1,4,0:2:0:0:
163,308,241716,2,0,L|171:232,2,75,2|4|0,3:2|3:2|1:0,0:0:0:0:
100,372,242233,1,4,0:0:0:0:
163,308,242406,6,0,P|205:324|245:361,2,75,2|4|2,3:1|0:0|1:0,0:0:0:0:
101,241,242923,2,0,P|134:222|183:215,1,75,4|0,3:2|3:0,0:0:0:0:
250,254,243268,2,0,L|402:222,1,150,6|0,0:0|3:0,0:0:0:0:
477,263,243785,6,0,L|497:159,1,75,6|0,0:0|0:0,0:0:0:0:
459,104,244130,1,0,1:0:0:0:
403,24,244302,2,0,P|326:32|291:101,1,150,4|4,3:2|3:2,0:0:0:0:
319,176,244820,1,0,1:0:0:0:
369,96,244992,6,0,P|338:29|253:24,1,150,4|4,3:2|3:2,0:0:0:0:
182,61,245509,1,0,1:0:0:0:
138,148,245682,2,0,B|210:172|226:116|302:156,1,150,4|2,0:0|3:2,0:0:0:0:
369,96,246199,1,0,1:0:0:0:
399,188,246371,6,0,P|350:246|268:245,1,150,2|0,0:1|1:0,0:0:0:0:
203,201,246889,1,0,1:0:0:0:
129,253,247061,2,0,P|90:243|47:222,1,75,0|0,1:0|1:0,0:0:0:0:
17,148,247406,1,0,1:0:0:0:
99,112,247578,2,0,L|199:74,1,75,4|0,1:2|1:0,0:0:0:0:
256,45,247923,5,2,1:0:0:0:
256,45,249302,6,0,P|224:52|195:64,1,56.2500021457673,4|2,3:2|0:0,0:0:0:0:
129,103,249647,1,8,0:0:0:0:
70,164,249820,2,0,P|48:110|65:48,2,112.500004291535,2|2|4,0:1|0:0|0:0,0:0:0:0:
128,225,250682,5,8,0:0:0:0:
194,173,250854,2,0,P|221:178|249:180,1,56.2500021457673,2|8,0:0|0:0,0:0:0:0:
322,137,251199,2,0,P|378:121|438:145,2,112.500004291535,2|2|4,0:1|0:0|3:2,0:0:0:0:
271,204,252061,5,8,3:2:0:0:
217,268,252233,2,0,P|187:259|156:238,1,56.2500021457673,2|8,0:0|0:0,0:0:0:0:
95,199,252578,2,0,P|68:254|62:316,2,112.500004291535,2|2|4,0:1|0:0|0:0,0:0:0:0:
141,127,253440,6,0,L|212:146,1,56.2500021457673,8|2,0:0|0:0,0:0:0:0:
269,100,253785,1,8,0:0:0:0:
303,177,253958,2,0,L|369:160,2,56.2500021457673,2|10|2,0:1|0:0|0:0,0:0:0:0:
234,226,254475,2,0,P|240:262|249:292,1,56.2500021457673,4|2,0:0|0:0,0:0:0:0:
313,356,254820,6,0,P|345:346|376:339,1,56.2500021457673,12|2,3:2|0:0,0:0:0:0:
451,345,255164,1,8,0:0:0:0:
478,264,255337,2,0,B|486:216|486:216|480:186|488:138,2,112.500004291535,2|2|4,0:1|0:0|0:0,0:0:0:0:
401,228,256199,5,8,3:2:0:0:
325,266,256371,2,0,P|290:263|246:251,1,56.2500021457673,2|8,0:0|0:0,0:0:0:0:
208,199,256716,2,0,P|148:203|81:240,2,112.500004291535,2|2|4,0:1|0:0|3:2,0:0:0:0:
265,137,257578,5,8,3:2:0:0:
333,195,257751,2,0,P|358:161|363:132,1,56.2500021457673,2|8,0:0|0:0,0:0:0:0:
316,73,258095,2,0,P|257:58|199:85,2,112.500004291535,2|2|2,0:1|0:0|0:0,0:0:0:0:
374,135,258958,6,0,P|411:126|443:116,1,56.2500021457673,12|2,0:0|0:0,0:0:0:0:
508,94,259302,1,8,0:0:0:0:
493,177,259475,2,0,L|478:253,1,56.2500021457673,2|8,0:0|0:0,0:0:0:0:
413,281,259820,2,0,L|358:267,1,56.2500021457673,2|12,0:0|0:0,0:0:0:0:
256,247,260164,5,6,0:0:0:0:
