osu file format v14

[General]
AudioFilename: Hoshi.mp3
AudioLeadIn: 1500
PreviewTime: 127018
Countdown: 0
SampleSet: Soft
StackLeniency: 0.7
Mode: 0
LetterboxInBreaks: 0
WidescreenStoryboard: 0

[Editor]
DistanceSpacing: 1.3
BeatDivisor: 4
GridSize: 32
TimelineZoom: 1.5

[Metadata]
Title:Hoshi Ori Yume Mirai
TitleUnicode:星織ユメミライ
Artist:Ceui
ArtistUnicode:Ceui
Creator:-Nanaka-
Version:Skysign
Source:星織ユメミライ
Tags:tone work's Opening eroge Visual Novel Narcissu Kanau Mamayu fuyuyu- Silky
BeatmapID:611363
BeatmapSetID:268509

[Difficulty]
HPDrainRate:7
CircleSize:4
OverallDifficulty:8.5
ApproachRate:9.2
SliderMultiplier:1.8
SliderTickRate:1

[Events]
//Background and Video events
0,0,"BG.jpg",0,0
//Break Periods
2,152951,160457
//Storyboard Layer 0 (Background)
//Storyboard Layer 1 (Fail)
//Storyboard Layer 2 (Pass)
//Storyboard Layer 3 (Foreground)
//Storyboard Sound Samples

[TimingPoints]
1027,344.827586206897,4,2,1,50,1,0
1027,-117.647058823529,4,2,1,50,0,0
5682,-117.647058823529,4,2,1,30,0,0
5854,-117.647058823529,4,2,1,50,0,0
6544,-111.111111111111,4,2,1,40,0,0
7061,-142.857142857143,4,2,1,30,0,0
7578,-125,4,2,1,40,0,0
8095,-166.666666666667,4,2,1,30,0,0
8613,-117.647058823529,4,2,1,40,0,0
8958,-117.647058823529,4,2,1,50,0,0
10682,-117.647058823529,4,2,1,30,0,0
10854,-117.647058823529,4,2,1,50,0,0
11371,-100,4,2,1,50,0,0
11544,-83.3333333333333,4,2,1,50,0,0
11716,-100,4,2,1,60,0,0
12061,-100,4,2,1,50,0,0
12406,-100,4,2,1,60,0,0
17233,-100,4,2,1,50,0,0
17406,-100,4,2,1,60,0,0
17578,-100,4,2,1,60,0,0
20164,-100,4,2,1,40,0,0
20682,-100,4,2,1,40,0,0
21027,-100,4,2,1,60,0,0
21716,-100,4,2,1,50,0,0
21889,-100,4,2,1,30,0,0
22061,-133.333333333333,4,2,1,30,0,0
22233,-133.333333333333,4,2,1,40,0,0
22406,-200,4,2,1,30,0,0
22578,-200,4,2,1,20,0,0
22751,-200,4,2,1,20,0,0
23095,-133.333333333333,4,2,1,50,0,0
32751,-133.333333333333,4,2,2,25,0,0
33268,-133.333333333333,4,2,1,25,0,0
33613,-133.333333333333,4,2,1,30,0,0
33871,-133.333333333333,4,2,1,40,0,0
34130,-100,4,2,1,50,0,0
34302,-100,4,2,1,60,0,0
44992,-100,4,2,1,40,0,0
45078,-100,4,2,1,60,0,0
45164,-133.333333333333,4,2,1,50,0,0
50164,-133.333333333333,4,2,1,50,0,0
50509,-133.333333333333,4,2,1,60,0,0
50682,-125,4,2,1,60,0,0
51889,-111.111111111111,4,2,1,60,0,0
53440,-100,4,2,1,70,0,0
54647,-100,4,2,1,50,0,0
54820,-100,4,2,1,70,0,0
57578,-200,4,2,1,80,0,0
58268,-100,4,2,1,50,0,0
58785,-90.9090909090909,4,2,1,80,0,1
69130,-90.9090909090909,4,2,1,80,0,0
69302,-200,4,2,1,80,0,0
69820,-90.9090909090909,4,2,1,80,0,1
72406,-76.9230769230769,4,2,1,80,0,1
72751,-83.3333333333333,4,2,1,80,0,1
73268,-76.9230769230769,4,2,1,80,0,1
73613,-83.3333333333333,4,2,1,80,0,1
73958,-83.3333333333333,4,2,1,90,0,1
74992,-66.6666666666667,4,2,1,90,0,1
75509,-100,4,2,1,80,0,1
77406,-142.857142857143,4,2,1,80,0,1
77751,-100,4,2,1,80,0,1
78268,-83.3333333333333,4,2,1,80,0,1
79475,-83.3333333333333,4,2,1,60,0,1
79647,-83.3333333333333,4,2,1,80,0,1
79820,-83.3333333333333,4,2,1,60,0,1
80509,-83.3333333333333,4,2,1,80,0,1
80854,-83.3333333333333,4,2,1,80,0,0
81027,-100,4,2,1,70,0,0
83785,-100,4,2,1,60,0,0
89992,-90.9090909090909,4,2,1,60,0,0
90682,-100,4,2,1,50,0,0
91199,-100,4,2,1,40,0,0
91544,-100,4,2,1,30,0,0
92061,-100,4,2,1,60,0,0
97578,-100,4,2,1,30,0,0
97751,-100,4,2,1,60,0,0
102578,-100,4,2,1,50,0,0
103440,-100,4,2,1,60,0,0
114130,-133.333333333333,4,2,1,50,0,0
119130,-133.333333333333,4,2,1,50,0,0
119475,-133.333333333333,4,2,1,50,0,0
119647,-125,4,2,1,50,0,0
120854,-111.111111111111,4,2,1,50,0,0
122406,-100,4,2,1,60,0,0
123613,-100,4,2,1,70,0,0
126716,-100,4,2,1,50,0,0
127233,-100,4,2,1,60,0,0
127751,-90.9090909090909,4,2,1,80,0,1
138095,-83.3333333333333,4,2,1,80,0,0
138785,-90.9090909090909,4,2,1,80,0,1
141371,-76.9230769230769,4,2,1,80,0,1
141716,-83.3333333333333,4,2,1,80,0,1
142233,-76.9230769230769,4,2,1,80,0,1
142923,-83.3333333333333,4,2,1,90,0,1
143958,-66.6666666666667,4,2,1,90,0,1
144475,-100,4,2,1,80,0,1
146371,-125,4,2,1,80,0,1
146716,-83.3333333333333,4,2,1,80,0,1
148613,-100,4,2,1,60,0,1
149475,-133.333333333333,4,2,1,50,0,0
150078,-133.333333333333,4,2,1,30,0,0
161027,-133.333333333333,4,2,1,30,0,0
170682,-117.647058823529,4,2,1,55,0,0
171544,-100,4,2,1,45,0,0
171716,-117.647058823529,4,2,1,55,0,0
172061,-100,4,2,1,60,0,0
180337,-100,4,2,1,70,0,0
181716,-100,4,2,1,70,0,0
181889,-100,4,2,1,50,0,0
182061,-100,4,2,1,60,0,0
182233,-100,4,2,1,70,0,0
182406,-83.3333333333333,4,2,1,70,0,0
182923,-100,4,2,1,70,0,0
183613,-100,4,2,1,60,0,0
185854,-100,4,2,1,60,0,0
186027,-100,4,2,1,60,0,0
186630,-100,4,2,1,60,0,0
187320,-100,4,2,1,60,0,0
187751,-100,4,2,1,40,0,0
187923,-100,4,2,1,60,0,0
191371,-100,4,2,1,70,0,0
193440,-100,4,2,1,60,0,0
193958,-83.3333333333333,4,2,1,80,0,1
204302,-83.3333333333333,4,2,1,80,0,0
204992,-83.3333333333333,4,2,1,80,0,1
207578,-76.9230769230769,4,2,1,80,0,1
209130,-76.9230769230769,4,2,1,90,0,1
209820,-71.4285714285714,4,2,1,100,0,1
210078,-83.3333333333333,4,2,1,5,0,1
210164,-66.6666666666667,4,2,1,90,0,1
210423,-83.3333333333333,4,2,1,5,0,1
210509,-83.3333333333333,4,2,1,80,0,1
210682,-83.3333333333333,4,2,1,100,0,1
211027,-83.3333333333333,4,2,1,80,0,1
215682,-100,4,2,1,80,0,1
216027,-125,4,2,1,70,0,0
217061,-125,4,2,1,50,0,0
217233,-125,4,2,1,70,0,0
217751,-125,4,2,1,50,0,0
217923,-125,4,2,1,70,0,0
218958,-100,4,2,1,70,0,0
221716,-83.3333333333333,4,2,1,80,0,1
225164,-83.3333333333333,4,2,1,90,0,1
226027,-83.3333333333333,4,2,1,60,0,1
226544,-83.3333333333333,4,2,1,80,0,1
227233,-100,4,2,1,60,0,0
236716,-100,4,2,1,50,0,0
237061,-90.9090909090909,4,2,1,60,0,0
237406,-83.3333333333333,4,2,1,70,0,0
237578,-100,4,2,1,60,0,0
244647,-100,4,2,1,40,0,0
244992,-100,4,2,1,60,0,0
245337,-100,4,2,1,40,0,0
245682,-100,4,2,1,60,0,0
248958,-166.666666666667,4,2,1,20,0,0
260337,-166.666666666667,4,2,1,10,0,0
260682,-166.666666666667,4,2,1,5,0,0

[Colours]
Combo1 : 211,207,194
Combo2 : 255,0,0
Combo3 : 0,64,128
Combo4 : 255,128,0
Combo5 : 0,255,255

[HitObjects]
112,64,1027,6,0,L|193:79,1,76.5000014591217,4|2,3:2|0:0,0:0:0:0:
306,36,1371,1,8,0:0:0:0:
257,175,1544,1,2,0:1:0:0:
373,107,1716,2,0,P|395:155|393:208,1,76.5000014591217,8|2,0:0|0:0,0:0:0:0:
340,267,2062,2,0,L|251:248,1,76.5000014591217,8|4,0:0|0:0,0:0:0:0:
82,334,2407,6,0,L|163:317,1,76.5000014591217,8|2,0:0|0:0,0:0:0:0:
265,251,2752,1,8,0:0:0:0:
106,224,2923,2,0,P|97:187|90:128,1,76.5000014591217,2|8,0:1|0:0,0:0:0:0:
185,35,3269,2,0,P|197:78|201:115,1,76.5000014591217,2|8,0:0|0:0,0:0:0:0:
184,239,3613,1,4,3:2:0:0:
287,160,3786,6,0,P|323:147|361:143,1,76.5000014591217,8|2,3:2|0:0,0:0:0:0:
476,194,4130,1,8,0:0:0:0:
442,76,4302,1,2,0:1:0:0:
392,237,4475,2,0,P|399:280|422:331,1,76.5000014591217,8|2,0:0|0:0,0:0:0:0:
476,194,4820,1,8,0:0:0:0:
411,311,4993,1,4,0:0:0:0:
268,250,5164,6,0,P|238:237|192:194,1,76.5000014591217,8|2,0:0|0:0,0:0:0:0:
298,135,5509,1,8,0:0:0:0:
338,285,5682,1,2,0:1:0:0:
387,164,5854,2,0,P|401:126|408:72,1,76.5000014591217,8|2,0:0|0:0,0:0:0:0:
480,192,6199,2,0,P|495:229|502:296,1,76.5000014591217,8|2,0:0|0:0,0:0:0:0:
391,356,6544,6,0,P|340:302|251:304,1,161.999995056153,4|8,3:2|0:0,0:0:0:0:
153,367,7061,2,0,P|141:325|136:278,1,62.9999980773926,2|8,0:0|0:0,0:0:0:0:
188,178,7406,1,0,0:0:0:0:
28,254,7578,2,0,P|66:242|108:220,1,72,12|0,0:0|0:0,0:0:0:0:
115,108,7923,1,8,0:0:0:0:
215,265,8095,6,0,P|266:227|283:175,1,107.999996704102,4|0,0:0|0:0,0:0:0:0:
222,112,8613,2,0,P|195:149|190:209,1,76.5000014591217,12|0,0:0|0:0,0:0:0:0:
333,265,8958,2,0,P|382:251|415:220,1,76.5000014591217,10|0,0:0|3:0,0:0:0:0:
459,78,9302,6,0,P|419:34|322:30,1,153.000002918243,4|10,3:2|0:1,0:0:0:0:
222,112,9820,2,0,P|202:75|194:11,1,76.5000014591217,2|8,0:0|0:0,0:0:0:0:
113,122,10164,2,0,P|100:167|97:217,1,76.5000014591217,2|8,0:0|0:0,0:0:0:0:
114,317,10509,1,2,0:1:0:0:
227,252,10682,6,0,P|263:264|312:299,1,76.5000014591217,10|0,0:3|0:0,0:0:0:0:
295,284,10940,1,0,3:0:0:0:
295,284,11027,1,2,1:2:0:0:
406,363,11199,1,2,3:1:0:0:
427,209,11371,6,0,L|436:129,1,45
318,90,11544,2,0,L|326:149,1,53.9999983520508,4|0,1:2|0:0,0:0:0:0:
295,284,11716,1,0,1:0:0:0:
250,275,11802,1,0,1:0:0:0:
205,265,11889,1,0,1:0:0:0:
160,256,11975,1,0,1:0:0:0:
116,244,12061,6,0,P|90:199|66:75,1,180,4|0,0:1|1:0,0:0:0:0:
8,242,12578,1,2,0:0:0:0:
162,115,12751,2,0,L|268:136,1,90,0|0,3:0|3:0,0:0:0:0:
386,68,13095,2,0,P|409:105|419:149,1,90,2|0,1:2|0:0,0:0:0:0:
344,319,13440,6,0,L|327:130,1,180,2|0,3:2|1:0,0:0:0:0:
125,30,13958,2,0,L|137:233,1,180,2|0,0:0|3:0,0:0:0:0:
101,347,14475,2,0,P|140:312|188:298,1,90,2|0,1:2|0:0,0:0:0:0:
344,319,14820,6,0,L|359:218,1,90,2|0,3:2|0:0,0:0:0:0:
254,92,15164,1,0,1:0:0:0:
414,35,15337,1,0,0:0:0:0:
414,35,15423,1,0,0:0:0:0:
414,35,15509,1,2,0:0:0:0:
357,230,15682,5,0,3:0:0:0:
317,18,15854,1,0,1:0:0:0:
459,149,16027,1,0,0:0:0:0:
240,203,16199,2,0,P|191:187|143:161,1,90,2|0,3:2|0:0,0:0:0:0:
0,285,16544,6,0,P|48:273|92:253,1,90,4|0,1:1|3:0,0:0:0:0:
240,203,16889,1,0,3:0:0:0:
76,132,17061,1,0,1:2:0:0:
173,298,17233,1,12,1:1:0:0:
149,77,17406,1,0,3:0:0:0:
149,77,17492,1,0,0:0:0:0:
149,77,17578,6,0,L|159:171,1,90,2|2,3:2|0:0,0:0:0:0:
283,18,17923,1,0,1:0:0:0:
240,239,18095,1,4,3:2:0:0:
214,268,18440,1,2,3:2:0:0:
149,77,18613,1,0,1:0:0:0:
33,213,18785,6,0,L|230:166,1,180,4|0,3:2|3:0,0:0:0:0:
332,260,19302,1,0,1:0:0:0:
476,176,19475,2,0,L|455:289,1,90,2|0,0:0|3:0,0:0:0:0:
286,128,19820,1,0,3:0:0:0:
405,48,19992,1,2,1:2:0:0:
332,260,20164,6,0,P|253:307|195:281,1,135,4|0,0:1|0:0,0:0:0:0:
188,280,20509,1,4,1:3:0:0:
364,358,20682,1,8,0:3:0:0:
256,161,20854,1,2,0:1:0:0:
148,358,21027,5,0,1:0:0:0:
168,367,21113,1,0,1:0:0:0:
190,369,21199,1,0,1:0:0:0:
212,368,21285,1,0,1:0:0:0:
234,359,21371,2,0,P|266:324|278:271,1,90,0|0,1:0|1:0,0:0:0:0:
324,244,21630,1,0,1:0:0:0:
324,244,21716,6,0,P|276:260|228:256,1,90,4|2,0:1|0:0,0:0:0:0:
144,192,22061,6,0,P|177:180|216:180,1,67.5000025749208,2|2,0:0|0:0,0:0:0:0:
292,112,22406,6,0,P|264:108|232:108,1,45,2|4,0:0|0:0,0:0:0:0:
158,79,22751,5,4,0:0:0:0:
115,157,22923,1,2,0:0:0:0:
28,127,23095,6,0,P|47:196|62:272,1,135.000005149842,4|8,0:0|0:0,0:0:0:0:
51,356,23613,1,0,0:0:0:0:
137,311,23785,2,0,P|172:324|219:334,1,67.5000025749208
284,273,24130,1,8,0:0:0:0:
362,362,24302,6,0,P|374:317|383:214,1,135.000005149842
314,114,24820,1,8,0:0:0:0:
208,167,24992,2,0,P|211:200|218:233,1,67.5000025749208
156,308,25337,2,0,P|122:303|76:285,1,67.5000025749208,0|8,0:0|0:0,0:0:0:0:
35,215,25682,1,0,3:0:0:0:
123,120,25854,6,0,P|184:78|257:85,1,135.000005149842,4|8,3:2|0:0,0:0:0:0:
331,23,26371,1,0,0:0:0:0:
356,126,26544,2,0,L|342:212,1,67.5000025749208
463,160,26889,1,8,0:0:0:0:
379,277,27061,6,0,P|326:231|251:218,1,135.000005149842
144,253,27578,2,0,P|179:270|204:298,1,67.5000025749208,8|0,0:0|0:0,0:0:0:0:
67,303,27923,2,0,P|55:272|54:217,1,67.5000025749208
99,141,28268,1,8,0:0:0:0:
64,40,28440,1,0,0:0:0:0:
183,69,28613,6,0,L|314:106,1,135.000005149842,4|8,3:2|0:0,0:0:0:0:
331,87,29302,2,0,B|308:143|311:189|311:189|346:167,1,135.000005149842,2|8,0:1|0:0,0:0:0:0:
366,165,29992,6,0,P|395:182|445:191,1,67.5000025749208
481,276,30337,2,0,P|443:287|412:316,1,67.5000025749208,8|0,0:0|0:0,0:0:0:0:
322,361,30681,2,0,L|303:267,1,67.5000025749208
245,171,31027,1,8,0:0:0:0:
324,266,31199,1,0,3:0:0:0:
178,242,31371,6,0,P|156:203|176:107,2,135.000005149842,4|8|0,3:2|0:0|0:0,0:0:0:0:
44,178,32233,1,0,0:0:0:0:
91,280,32406,2,0,L|77:361,1,67.5000025749208,8|0,0:0|0:0,0:0:0:0:
44,178,32751,5,8,3:0:0:0:
149,103,32923,1,0,3:0:0:0:
158,109,33009,1,0,3:0:0:0:
168,116,33095,1,0,1:0:0:0:
69,72,33268,2,0,P|124:23|197:37,1,135.000005149842,10|4,0:3|1:2,0:3:0:0:
309,111,33785,1,0,1:0:0:0:
339,129,33871,1,0,1:0:0:0:
374,134,33958,1,0,1:0:0:0:
407,122,34044,1,0,1:0:0:0:
431,98,34130,6,0,P|455:66|461:-1,1,90,4|2,0:1|0:0,0:0:0:0:
489,160,34475,2,0,L|469:284,1,90,0|2,1:0|0:0,0:0:0:0:
364,48,34820,1,2,3:2:0:0:
337,235,34992,2,0,P|300:272|228:280,1,90,0|0,3:0|1:0,0:0:0:0:
100,229,35337,5,2,3:2:0:0:
258,187,35509,1,0,0:0:0:0:
192,352,35682,1,2,3:2:0:0:
92,214,35854,2,0,P|80:168|74:93,1,90,0|2,1:0|0:0,0:0:0:0:
12,282,36199,5,2,3:2:0:0:
12,282,36371,1,2,3:2:0:0:
172,160,36544,2,0,L|260:187,1,90,0|2,1:0|3:2,0:0:0:0:
406,316,36889,6,0,P|425:216|439:95,1,180,2|8,3:2|1:0,0:0:0:0:
341,22,37406,1,2,0:0:0:0:
347,204,37578,1,0,3:0:0:0:
229,72,37751,1,2,3:2:0:0:
207,254,37923,1,0,1:0:0:0:
435,138,38095,1,4,3:2:0:0:
435,138,38440,2,0,L|428:223,1,45,0|0,3:0|0:0,0:0:0:0:
356,293,38613,6,0,L|344:182,1,90,4|0,1:2|0:0,0:0:0:0:
430,343,38958,2,0,P|393:368|349:379,1,90,4|8,3:2|0:0,0:0:0:0:
127,292,39302,2,0,P|163:266|206:254,1,90,2|0,1:2|0:0,0:0:0:0:
110,378,39647,6,0,P|50:326|78:222,1,180,4|0,0:0|1:0,0:0:0:0:
130,161,40164,1,0,0:0:0:0:
207,254,40337,2,0,P|243:280|312:303,1,90,2|0,3:2|3:0,0:0:0:0:
424,259,40682,1,0,1:0:0:0:
296,114,40854,1,0,3:0:0:0:
296,114,40940,1,0,0:0:0:0:
296,114,41027,6,0,L|288:206,1,90,2|0,0:0|3:0,0:0:0:0:
354,29,41371,1,0,1:0:0:0:
200,88,41544,1,0,0:0:0:0:
288,204,41716,1,2,3:2:0:0:
358,14,41889,1,2,3:2:0:0:
358,14,41975,1,0,0:0:0:0:
358,14,42061,1,0,1:0:0:0:
342,273,42233,6,0,P|238:273|210:181,1,180,4|2,0:0|0:1,0:0:0:0:
319,114,42751,1,2,1:2:0:0:
342,273,42923,1,2,0:0:0:0:
171,332,43095,1,2,3:1:0:0:
288,204,43268,1,2,3:2:0:0:
265,384,43440,1,0,1:0:0:0:
97,286,43613,1,2,0:0:0:0:
97,286,43699,1,0,0:0:0:0:
97,286,43785,6,0,L|112:182,1,90,4|0,3:2|1:0,0:0:0:0:
132,25,44130,1,0,1:0:0:0:
29,152,44302,1,4,3:2:0:0:
211,100,44475,1,0,1:0:0:0:
96,285,44647,2,0,L|139:301,1,45,2|0,3:1|3:0,0:0:0:0:
255,355,44820,1,0,1:0:0:0:
299,347,44906,1,0,3:0:0:0:
342,338,44992,1,4,0:3:0:0:
386,329,45078,1,0,3:0:0:0:
418,320,45164,6,0,P|441:247|452:163,1,135.000005149842,4|0,3:2|0:0,0:0:0:0:
180,169,45854,1,8,0:0:0:0:
154,260,46027,1,2,0:0:0:0:
130,351,46199,1,0,3:0:0:0:
258,203,46371,6,0,B|272:162|272:162|243:124|253:66,1,135.000005149842,2|0,0:1|0:0,0:0:0:0:
344,105,46889,2,0,L|417:129,1,67.5000025749208,0|2,3:0|0:0,0:0:0:0:
465,188,47147,1,0,0:0:0:0:
465,188,47233,2,0,P|454:227|448:277,1,67.5000025749208,8|2,0:0|0:0,0:0:0:0:
355,204,47578,1,0,3:0:0:0:
391,346,47751,1,0,3:0:0:0:
275,279,47923,6,0,B|230:260|230:260|194:272|194:272|140:251,1,135.000005149842,4|8,0:0|0:0,0:0:0:0:
60,316,48440,2,0,P|49:286|45:242,1,67.5000025749208,2|8,0:0|0:0,0:0:0:0:
97,147,48785,1,2,0:0:0:0:
60,316,48958,1,0,3:2:0:0:
193,191,49130,6,0,P|205:124|213:46,1,135.000005149842,4|8,3:2|0:0,0:0:0:0:
56,118,49647,1,2,3:2:0:0:
143,254,49820,2,0,P|172:269|224:277,1,67.5000025749208,12|0,3:2|0:0,0:0:0:0:
121,161,50164,2,0,P|74:194|61:281,1,135.000005149842,4|0,3:1|0:0,0:0:0:0:
204,195,50682,6,0,P|222:167|230:107,1,72,2|0,3:2|0:0,0:0:0:0:
160,46,51027,1,0,3:2:0:0:
231,129,51199,2,0,L|316:112,1,72,2|8,0:0|0:0,0:0:0:0:
401,183,51544,1,2,0:0:0:0:
439,63,51716,1,0,0:0:0:0:
509,168,51889,6,0,P|494:244|464:329,1,161.999995056153,2|10,3:2|0:0,0:0:0:0:
324,236,52406,2,0,L|232:259,1,80.9999975280763,0|2,3:0|0:0,0:0:0:0:
115,162,52751,1,8,0:0:0:0:
167,332,52923,1,2,0:0:0:0:
221,164,53095,1,8,3:2:0:0:
76,275,53268,1,2,0:0:0:0:
172,97,53440,6,0,B|219:74|219:74|279:107|279:107|314:106|350:85,1,180,4|8,0:0|0:0,0:0:0:0:
457,30,53958,1,2,0:0:0:0:
404,169,54130,2,0,P|385:214|376:264,1,90,8|2,0:0|0:0,0:0:0:0:
221,164,54475,1,10,0:0:0:0:
261,353,54647,6,0,P|292:266|297:175,1,180,4|0,0:0|0:0,0:0:0:0:
88,221,55164,2,0,L|191:249,1,90,10|0,0:1|0:0,0:0:0:0:
86,115,55509,2,0,L|-10:148,1,90,12|0,0:0|0:0,0:0:0:0:
188,152,55854,2,0,P|206:112|216:49,1,90,10|0,0:1|0:0,0:0:0:0:
88,221,56199,5,4,1:2:0:0:
298,179,56371,1,0,3:0:0:0:
86,115,56544,1,2,3:1:0:0:
215,310,56716,5,4,1:2:0:0:
427,257,56889,1,0,3:0:0:0:
285,68,57061,1,4,0:0:0:0:
341,354,57233,5,2,1:1:0:0:
341,354,57578,5,8,3:2:0:0:
427,257,57751,1,0,1:0:0:0:
210,185,57923,1,0,1:0:0:0:
414,94,58095,1,2,3:1:0:0:
168,275,58268,5,0,1:0:0:0:
142,250,58354,1,0,1:0:0:0:
125,218,58440,1,0,1:0:0:0:
118,183,58526,1,0,1:0:0:0:
123,147,58612,1,0,1:0:0:0:
138,115,58699,1,0,1:0:0:0:
163,86,58785,6,0,B|210:50|191:-12|191:-12|161:-1|133:27,1,148.50000453186,6|0,0:0|0:0,0:0:0:0:
163,86,59130,2,0,P|202:111|266:121,1,99.0000030212403,2|0,0:0|1:0,0:0:0:0:
427,64,59475,1,2,0:0:0:0:
294,227,59647,1,2,3:2:0:0:
465,156,59820,1,2,3:2:0:0:
325,36,59992,1,0,1:0:0:0:
395,246,60164,6,0,P|393:297|375:350,1,99.0000030212403,2|0,3:2|0:0,0:0:0:0:
254,382,60509,1,2,3:2:0:0:
274,158,60682,2,0,P|230:135|182:121,1,99.0000030212403,0|0,1:0|0:0,0:0:0:0:
35,207,61027,1,2,3:2:0:0:
94,48,61199,1,0,3:0:0:0:
115,274,61371,2,0,P|130:226|136:167,1,99.0000030212403,0|0,1:0|0:0,0:0:0:0:
50,352,61716,5,2,3:1:0:0:
211,254,61889,1,0,0:0:0:0:
211,254,61975,1,0,0:0:0:0:
211,254,62061,1,0,1:0:0:0:
42,146,62233,2,0,P|99:161|167:196,1,99.0000030212403,2|0,0:1|0:0,0:0:0:0:
276,88,62578,1,2,3:2:0:0:
301,291,62751,1,0,1:0:0:0:
467,158,62923,6,0,P|451:209|448:271,1,99.0000030212403,2|0,3:1|0:0,0:0:0:0:
288,188,63268,1,2,3:2:0:0:
398,58,63440,1,0,1:0:0:0:
353,315,63613,2,0,B|301:275|237:302|237:302|205:264|165:258,1,198.000006042481,4|0,0:0|3:0,0:0:0:0:
73,138,64130,1,0,1:0:0:0:
108,361,64302,1,2,0:0:0:0:
260,213,64475,6,0,P|278:111|289:8,1,198.000006042481,2|0,0:1|1:0,0:0:0:0:
176,260,64992,2,0,B|211:309|266:312|266:312|349:287,1,148.50000453186,4|0,3:2|0:0,0:0:0:0:
331,275,65337,1,2,3:2:0:0:
186,167,65509,1,0,1:0:0:0:
241,384,65682,1,2,0:1:0:0:
384,199,65854,6,0,P|417:261|420:328,1,99.0000030212403,4|0,3:2|3:0,0:0:0:0:
470,124,66199,1,0,1:0:0:0:
329,39,66371,2,0,L|226:63,1,99.0000030212403,4|0,0:0|0:0,0:0:0:0:
52,149,66716,2,0,L|166:172,1,99.0000030212403,2|0,3:2|1:0,0:0:0:0:
120,20,67061,1,2,3:2:0:0:
230,165,67233,6,0,B|280:202|275:262|275:262|309:227,1,148.50000453186,2|0,3:1|0:0,0:0:0:0:
331,213,67578,1,0,1:0:0:0:
188,247,67751,2,0,L|130:264,1,49.5000015106202,4|0,0:0|0:0,0:0:0:0:
70,288,67923,2,0,L|197:315,1,99.0000030212403,0|2,3:0|3:2,0:0:0:0:
34,189,68268,1,0,1:0:0:0:
246,318,68440,5,2,3:1:0:0:
257,298,68785,1,4,0:0:0:0:
451,189,68958,1,0,1:0:0:0:
337,374,69130,1,2,3:1:0:0:
461,168,69302,5,2,3:0:0:0:
465,146,69388,1,0,0:0:0:0:
466,123,69474,1,0,1:0:0:0:
461,101,69560,1,0,1:0:0:0:
453,80,69646,1,0,1:0:0:0:
440,62,69733,1,0,1:0:0:0:
421,44,69820,6,0,P|374:97|292:96,1,148.50000453186,6|0,0:0|0:0,0:0:0:0:
169,74,70164,2,0,P|190:125|194:196,1,99.0000030212403,2|0,3:2|1:0,0:0:0:0:
163,331,70509,1,2,0:0:0:0:
278,254,70682,1,2,3:2:0:0:
93,205,70854,1,2,3:2:0:0:
257,342,71027,1,0,1:0:0:0:
169,74,71199,6,0,B|245:62|291:124|291:124|335:113|370:83,1,198.000006042481,4|2,3:2|3:2,0:0:0:0:
195,168,71716,1,0,1:0:0:0:
412,34,71889,1,2,0:0:0:0:
412,34,71975,1,0,0:0:0:0:
412,34,72061,2,0,P|434:95|430:142,1,99.0000030212403,2|0,3:2|3:0,0:0:0:0:
336,318,72406,6,0,B|285:265|226:271|226:271|261:345,1,175.499991966248,2|0,1:1|0:0,0:0:0:0:
309,206,72751,2,0,P|321:148|323:89,1,107.999996704102,4|2,0:0|0:0,0:0:0:0:
452,271,73095,1,8,1:0:0:0:
222,143,73268,2,0,B|183:86|115:84|115:84|163:40,1,175.499991966248,2|0,0:1|0:0,0:0:0:0:
124,192,73613,2,0,L|147:314,1,107.999996704102,4|0,3:2|1:0,0:0:0:0:
18,183,73958,6,0,P|55:109|191:111,1,215.999993408203,4|2,0:0|1:1,0:0:0:0:
144,298,74475,1,8,1:0:0:0:
312,155,74647,2,0,L|331:295,1,107.999996704102,4|0,3:2|0:0,0:0:0:0:
483,33,74992,2,0,L|466:175,1,135.000005149842,2|0,1:1|0:0,0:0:0:0:
398,336,75337,1,2,0:0:0:0:
398,336,75423,1,0,0:0:0:0:
398,336,75509,6,0,P|325:287|213:298,1,180,4|2,0:0|0:0,0:0:0:0:
86,350,76027,2,0,L|64:244,1,90,2|0,0:1|1:0,0:0:0:0:
108,35,76371,1,2,0:0:0:0:
59,236,76544,1,4,0:2:0:0:
4,134,76716,6,0,P|96:130|160:186,1,180,2|8,0:1|1:0,0:0:0:0:
235,288,77233,1,2,0:0:0:0:
320,158,77406,2,0,P|336:128|344:86,1,62.9999980773926,2|0,0:1|1:0,0:0:0:0:
285,16,77751,2,0,B|238:54|173:67|173:67|140:51|121:15,1,180,4|0,0:2|0:0,0:0:0:0:
56,144,78268,6,0,B|56:200|0:236|0:236|40:284,1,161.999995056153,4|0,3:2|0:0,0:0:0:0:
105,324,78613,2,0,B|133:296|133:296|201:384|277:348,1,161.999995056153,4|0,3:2|0:0,0:0:0:0:
316,316,78958,2,0,B|336:288|336:288|312:252|312:252|360:196|312:132,1,161.999995056153,4|0,3:2|0:0,0:0:0:0:
245,98,79302,1,2,1:0:0:0:
224,266,79475,1,0,1:0:0:0:
109,132,79647,6,0,L|45:146,1,53.9999983520508,2|0,3:0|3:0,0:0:0:0:
8,256,79820,2,0,L|76:240,1,53.9999983520508,0|0,1:0|1:3,0:0:0:0:
180,216,79992,1,0,1:0:0:0:
196,212,80078,1,0,1:0:0:0:
212,208,80164,1,0,1:0:0:0:
228,204,80251,1,0,1:0:0:0:
244,200,80337,1,2,1:0:0:0:
348,112,80509,6,0,B|392:144|368:216|368:216|404:236|404:236|448:192,1,215.999993408203,2|0,0:1|0:0,0:0:0:0:
472,124,80940,1,0,0:0:0:0:
472,124,81027,2,0,P|456:82|400:40,1,90,6|0,3:2|0:0,0:0:0:0:
213,146,81371,6,0,L|300:172,1,90,6|2,1:2|0:1,0:0:0:0:
139,46,81716,1,0,3:0:0:0:
113,207,81889,1,0,3:0:0:0:
34,33,82061,2,0,P|53:82|63:119,1,90,4|0,1:2|3:0,0:0:0:0:
42,285,82406,5,4,0:0:0:0:
200,182,82578,2,0,P|163:194|80:214,1,90,2|0,3:1|1:0,0:0:0:0:
261,287,82923,1,0,0:0:0:0:
261,287,83009,1,0,0:0:0:0:
261,287,83095,2,0,P|304:304|357:321,1,90,4|0,3:2|3:0,0:0:0:0:
200,182,83440,1,2,1:1:0:0:
164,360,83613,1,0,3:0:0:0:
331,195,83785,6,0,P|345:156|360:82,1,90,4|0,3:2|0:0,0:0:0:0:
250,3,84130,1,2,1:2:0:0:
191,200,84302,1,4,0:0:0:0:
356,109,84475,2,0,P|404:87|459:79,1,90,4|4,3:2|3:2,0:0:0:0:
487,243,84820,1,0,1:0:0:0:
440,80,84992,1,4,0:0:0:0:
388,280,85164,6,0,P|347:302|304:310,1,90,2|0,3:1|3:3,0:0:0:0:
132,376,85509,1,4,1:2:0:0:
182,186,85682,2,0,P|197:219|205:308,1,90,2|0,0:1|3:0,0:0:0:0:
323,181,86027,1,4,1:2:0:0:
172,23,86199,1,0,1:0:0:0:
122,243,86371,1,0,3:0:0:0:
122,243,86458,1,0,0:0:0:0:
122,243,86544,6,0,L|226:278|226:278,1,90,4|2,3:2|0:0,0:0:0:0:
369,202,86889,1,2,1:2:0:0:
314,360,87061,2,0,P|301:306|294:240,1,90,2|0,3:2|0:0,0:0:0:0:
301,111,87406,1,2,3:2:0:0:
207,271,87578,1,0,1:0:0:0:
102,166,87751,6,0,L|293:196,1,180,2|0,3:2|3:0,0:0:0:0:
244,27,88268,1,0,1:0:0:0:
387,169,88440,2,0,P|381:217|372:271,1,90,2|0,0:0|3:0,0:0:0:0:
315,98,88785,1,2,3:2:0:0:
491,185,88958,1,0,1:0:0:0:
365,333,89130,6,2,B|327:327|308:295|308:295|258:311|258:311|224:286|174:274,1,180,2|2,0:1|1:2,0:0:0:0:
52,348,89647,1,8,1:2:0:0:
129,208,89820,5,2,1:0:0:0:
129,208,89906,1,0,0:0:0:0:
129,208,89992,1,0,1:0:0:0:
129,208,90078,1,0,1:0:0:0:
129,208,90164,2,0,L|142:129,1,49.5000015106202,4|0,1:2|0:0,0:0:0:0:
225,45,90337,2,0,L|232:101,1,49.5000015106202,0|0,1:0|0:0,0:0:0:0:
272,230,90509,2,0,L|197:193,1,49.5000015106202,0|0,1:0|1:0,0:0:0:0:
54,121,90682,5,2,3:1:0:0:
225,45,90854,1,4,1:2:0:0:
129,208,91027,1,8,0:0:0:0:
112,17,91199,1,4,3:2:0:0:
232,168,91371,1,0,1:2:0:0:
379,67,91544,1,4,3:2:0:0:
379,67,91630,1,0,3:0:0:0:
379,67,91716,1,8,1:2:0:0:
324,272,91889,1,8,3:0:0:0:
476,158,92061,5,4,3:2:0:0:
486,140,92406,2,0,L|472:233,1,90,0|0,1:0|0:0,0:0:0:0:
411,336,92751,1,2,0:0:0:0:
342,185,92923,1,2,3:2:0:0:
414,46,93095,1,0,1:0:0:0:
324,272,93268,6,0,P|253:219|143:214,1,180,2|2,3:2|3:2,0:0:0:0:
204,343,93785,1,0,1:0:0:0:
324,272,93958,2,0,P|338:219|342:163,1,90,2|0,0:0|3:0,0:0:0:0:
295,50,94302,1,2,3:2:0:0:
428,130,94475,1,0,1:0:0:0:
295,50,94647,1,2,0:0:0:0:
324,272,94820,6,0,B|266:337|200:318|200:318|212:252,1,180,2|0,3:2|1:0,0:0:0:0:
268,137,95337,1,0,0:0:0:0:
116,211,95509,2,0,L|98:113,1,90,2|0,0:0|3:0,0:0:0:0:
39,282,95854,1,0,1:0:0:0:
170,367,96027,6,0,B|310:342|310:342|278:318,1,180,2|0,3:2|3:0,0:0:0:0:
116,211,96544,1,0,1:0:0:0:
268,137,96716,1,2,3:2:0:0:
280,320,96889,1,0,3:0:0:0:
194,178,97061,1,2,1:2:0:0:
403,304,97233,2,0,P|418:259|422:181,1,90,8|2,1:0|3:0,0:0:0:0:
458,55,97578,6,0,P|413:115|309:125,1,180,4|0,0:1|1:0,0:0:0:0:
297,113,98268,1,2,3:2:0:0:
424,217,98440,1,0,3:0:0:0:
356,29,98613,1,0,1:0:0:0:
424,217,98785,1,0,3:0:0:0:
215,148,98958,6,0,P|258:124|333:109,1,90,2|0,0:0|3:0,0:0:0:0:
216,262,99302,2,0,P|174:245|115:196,1,90,0|0,1:0|3:0,0:0:0:0:
222,54,99647,1,2,0:0:0:0:
361,164,99820,1,0,3:0:0:0:
216,262,99992,1,0,1:0:0:0:
361,164,100164,1,0,3:0:0:0:
203,360,100337,6,0,P|143:320|148:204,1,180,2|0,0:0|1:0,0:0:0:0:
18,321,100854,1,0,0:0:0:0:
147,189,101027,2,0,P|189:212|240:226,1,90,2|0,0:0|3:0,0:0:0:0:
361,164,101371,1,0,1:0:0:0:
297,337,101544,1,4,3:2:0:0:
430,231,101716,6,0,P|447:192|451:128,1,90,0|0,3:0|1:0,0:0:0:0:
303,32,102061,1,0,1:0:0:0:
229,224,102233,1,4,3:2:0:0:
83,80,102406,1,0,1:0:0:0:
108,239,102578,1,4,3:2:0:0:
120,219,102664,1,0,3:0:0:0:
132,199,102751,1,0,1:0:0:0:
63,326,102923,1,2,0:0:0:0:
261,117,103095,6,0,P|319:190|314:285,1,180,4|0,0:1|1:0,0:0:0:0:
204,359,103613,1,2,0:0:0:0:
318,273,103785,2,0,P|354:218|369:169,1,90,0|2,3:0|3:2,0:0:0:0:
493,343,104130,1,0,1:0:0:0:
460,166,104302,6,0,P|392:100|299:114,1,180,2|2,3:2|3:2,0:0:0:0:
167,195,104820,2,0,P|207:147|219:107,1,90,0|2,1:0|0:0,0:0:0:0:
175,22,105164,1,0,3:0:0:0:
55,171,105337,2,0,L|79:271,1,90,2|0,3:2|1:0,0:0:0:0:
112,106,105682,1,2,3:2:0:0:
283,49,105854,6,0,L|380:71,1,90,2|0,0:0|0:0,0:0:0:0:
216,121,106199,1,0,1:0:0:0:
327,237,106371,2,0,P|369:154|368:60,1,180,2|2,0:0|3:2,0:0:0:0:
248,337,106889,1,0,1:0:0:0:
216,121,107061,5,2,3:1:0:0:
202,104,107406,1,2,3:2:0:0:
39,176,107578,1,0,1:0:0:0:
125,50,107751,1,2,0:1:0:0:
108,253,107923,1,0,3:0:0:0:
28,59,108095,1,0,1:0:0:0:
108,253,108268,6,0,P|143:284|199:305,1,90,4|0,1:2|0:0,0:0:0:0:
356,363,108613,2,0,P|378:325|391:281,1,90,4|0,3:2|0:0,0:0:0:0:
348,110,108958,1,0,1:0:0:0:
422,19,109130,1,0,0:0:0:0:
338,218,109302,2,0,P|299:240|232:250,1,90,2|0,0:0|3:0,0:0:0:0:
135,103,109647,2,0,P|178:118|226:163,1,90,0|0,1:0|0:0,0:0:0:0:
330,306,109992,6,0,P|255:346|170:284,1,180,2|0,3:2|1:0,0:0:0:0:
350,217,110509,2,0,P|395:246|425:304,1,90,2|0,0:0|3:0,0:0:0:0:
256,346,110854,1,2,3:2:0:0:
323,115,111027,1,0,1:0:0:0:
122,217,111199,6,0,P|45:182|34:68,1,180,4|0,0:0|0:0,0:0:0:0:
0,262,111716,1,0,1:0:0:0:
122,115,111889,2,0,P|166:128|212:162,1,90,2|0,0:0|3:0,0:0:0:0:
348,273,112233,2,0,P|359:222|388:176,1,90,2|0,3:2|1:0,0:0:0:0:
448,113,112578,1,2,0:0:0:0:
203,153,112751,5,4,3:2:0:0:
301,28,112923,1,0,1:0:0:0:
269,240,113095,1,0,1:0:0:0:
145,67,113268,1,2,3:1:0:0:
145,67,113354,1,0,3:0:0:0:
145,67,113440,1,0,3:0:0:0:
98,294,113613,2,0,P|184:264|275:238,1,180,4|0,3:2|0:0,0:0:0:0:
423,349,114130,6,0,L|444:200,1,135.000005149842,4|0,3:2|0:0,0:0:0:0:
229,55,114820,1,8,0:0:0:0:
251,148,114992,1,2,0:0:0:0:
270,240,115164,1,0,3:0:0:0:
370,110,115337,6,0,L|349:261,1,135.000005149842,2|2,3:1|0:0,0:0:0:0:
277,331,115854,2,0,P|243:315|188:301,1,67.5000025749208,0|0,3:0|0:0,0:0:0:0:
137,321,116113,1,0,0:0:0:0:
137,321,116199,2,0,P|147:275|149:233,1,67.5000025749208,8|2,0:0|0:0,0:0:0:0:
144,99,116544,1,0,3:0:0:0:
216,207,116716,1,2,0:0:0:0:
81,216,116889,6,0,P|153:208|226:207,1,135.000005149842,4|2,3:2|0:0,0:0:0:0:
309,281,117406,1,2,0:0:0:0:
408,142,117578,2,0,L|399:217,1,67.5000025749208,8|2,0:0|3:2,0:0:0:0:
381,333,117923,1,8,0:0:0:0:
325,196,118095,6,0,P|314:138|310:58,1,135.000005149842,4|8,0:0|0:0,0:0:0:0:
406,106,118613,1,2,0:0:0:0:
235,140,118785,2,0,P|198:130|165:114,1,67.5000025749208,12|0,0:0|3:0,0:0:0:0:
59,240,119130,2,0,P|121:207|193:204,1,135.000005149842,4|0,3:1|0:0,0:0:0:0:
284,267,119647,5,2,3:2:0:0:
319,148,119820,2,0,P|331:110|340:70,1,72,0|0,0:0|3:0,0:0:0:0:
398,206,120164,2,0,P|410:245|417:291,1,72,2|8,0:0|0:0,0:0:0:0:
284,267,120509,1,0,0:0:0:0:
319,148,120682,1,2,0:0:0:0:
348,344,120854,6,0,P|275:300|180:304,1,161.999995056153,2|2,3:2|0:0,0:0:0:0:
68,326,121371,2,0,P|99:290|119:232,1,80.9999975280763,0|2,3:0|0:0,0:0:0:0:
94,107,121716,1,8,0:0:0:0:
113,260,121889,1,2,0:0:0:0:
228,166,122061,1,0,3:0:0:0:
94,107,122233,1,2,0:0:0:0:
284,244,122406,6,0,P|305:206|317:137,1,90,12|0,0:0|0:0,0:0:0:0:
200,298,122751,2,0,P|234:332|295:342,1,90,10|2,0:0|0:0,0:0:0:0:
391,288,123095,1,12,0:0:0:0:
405,160,123268,2,0,L|416:53,1,90,2|10,0:0|0:0,0:0:0:0:
183,118,123613,6,0,L|201:307,1,180,4|0,0:0|0:0,0:0:0:0:
112,212,124130,2,0,P|75:186|15:174,1,90,10|0,0:0|0:0,0:0:0:0:
183,118,124475,2,0,P|219:95|277:76,1,90,10|0,0:0|0:0,0:0:0:0:
333,181,124820,2,0,L|312:283,1,90,2|8,0:1|0:0,0:0:0:0:
112,212,125164,5,4,1:2:0:0:
313,146,125337,1,0,3:0:0:0:
194,310,125509,1,2,3:1:0:0:
188,89,125682,5,4,1:2:0:0:
315,269,125854,1,0,3:0:0:0:
88,192,126027,1,4,3:2:0:0:
408,106,126199,5,2,1:1:0:0:
408,106,126716,6,0,L|402:165,1,45,2|0,0:1|0:0,0:0:0:0:
308,225,126889,2,0,L|315:269,1,45,2|0,0:0|0:0,0:0:0:0:
366,377,127061,1,2,0:0:0:0:
449,245,127233,1,4,3:2:0:0:
202,332,127406,5,2,0:0:0:0:
185,300,127492,1,0,0:0:0:0:
178,264,127578,1,2,0:0:0:0:
189,230,127664,1,0,0:0:0:0:
214,194,127751,6,0,P|169:237|82:262,1,148.50000453186,6|0,0:0|0:0,0:0:0:0:
263,270,128095,2,0,L|363:297,1,99.0000030212403,2|0,0:0|1:0,0:0:0:0:
115,149,128440,1,2,0:0:0:0:
138,342,128613,1,2,3:2:0:0:
113,131,128785,2,0,L|102:29,1,99.0000030212403,2|0,3:2|1:0,0:0:0:0:
286,73,129130,6,0,L|262:273,1,198.000006042481,2|2,3:2|3:2,0:0:0:0:
433,158,129647,1,0,1:0:0:0:
380,344,129820,1,0,0:0:0:0:
380,344,129906,1,0,0:0:0:0:
380,344,129992,2,0,L|369:238,1,99.0000030212403,2|0,3:2|3:0,0:0:0:0:
286,73,130337,2,0,P|239:122|141:153,1,148.50000453186,0|0,1:0|0:0,0:0:0:0:
132,144,130682,5,2,3:1:0:0:
172,26,130854,1,0,0:0:0:0:
89,258,131027,1,0,1:0:0:0:
337,160,131199,2,0,L|312:324,1,148.50000453186,2|0,0:1|0:0,0:0:0:0:
307,343,131544,1,2,3:2:0:0:
452,236,131716,1,0,1:0:0:0:
228,122,131889,6,0,L|123:145,1,99.0000030212403,2|0,3:1|0:0,0:0:0:0:
311,35,132233,1,2,3:2:0:0:
247,212,132406,1,0,1:0:0:0:
70,63,132578,2,0,P|149:47|230:129,1,198.000006042481,4|0,0:0|3:0,0:0:0:0:
95,266,133095,1,0,1:0:0:0:
228,122,133268,1,2,0:0:0:0:
238,375,133440,6,0,B|271:300|271:300|254:214,1,148.50000453186,2|0,0:1|0:0,0:0:0:0:
246,195,133785,1,0,1:0:0:0:
351,369,133958,2,0,P|376:307|369:249,1,99.0000030212403,4|0,3:2|0:0,0:0:0:0:
191,290,134302,2,0,L|76:261,1,99.0000030212403,2|0,3:2|1:0,0:0:0:0:
327,180,134647,1,2,0:1:0:0:
155,22,134820,6,0,L|170:140,1,99.0000030212403,4|2,3:2|3:2,0:0:0:0:
191,290,135164,1,0,1:0:0:0:
347,83,135337,2,0,L|324:200,1,99.0000030212403,4|0,0:0|0:0,0:0:0:0:
288,362,135682,1,2,3:2:0:0:
288,362,135768,1,0,0:0:0:0:
288,362,135854,1,0,1:0:0:0:
417,217,136027,1,4,0:0:0:0:
191,290,136199,6,0,B|137:285|107:241|107:241|42:291,1,148.50000453186,2|0,3:1|0:0,0:0:0:0:
49,297,136544,1,0,1:0:0:0:
189,199,136716,1,4,0:0:0:0:
198,173,136802,1,0,3:0:0:0:
208,148,136889,1,0,3:0:0:0:
116,31,137061,1,2,3:2:0:0:
49,297,137233,1,0,1:0:0:0:
321,176,137406,5,2,3:1:0:0:
330,158,137751,1,4,3:2:0:0:
361,309,137923,1,0,1:0:0:0:
453,85,138095,1,2,3:1:0:0:
270,259,138268,5,2,3:0:0:0:
242,255,138354,1,0,0:0:0:0:
214,251,138440,1,0,1:0:0:0:
186,247,138527,1,0,1:0:0:0:
158,243,138613,1,0,1:0:0:0:
130,239,138699,1,0,1:0:0:0:
102,235,138785,6,0,B|66:271|72:330|72:330|13:277,1,148.50000453186,6|0,0:0|0:0,0:0:0:0:
27,178,139130,2,0,P|77:145|139:136,1,99.0000030212403,2|0,3:2|1:0,0:0:0:0:
256,174,139475,1,2,0:0:0:0:
336,33,139647,1,2,3:2:0:0:
375,244,139820,1,2,3:2:0:0:
209,67,139992,1,0,1:0:0:0:
444,127,140164,6,0,P|360:166|238:171,1,198.000006042481,4|2,3:2|3:2,0:0:0:0:
89,72,140682,1,0,1:0:0:0:
130,284,140854,1,2,0:0:0:0:
130,284,140940,1,0,0:0:0:0:
130,284,141027,2,0,P|150:236|157:180,1,99.0000030212403,2|0,3:2|3:0,0:0:0:0:
95,38,141371,6,0,L|278:90,1,175.499991966248,2|0,1:1|0:0,0:0:0:0:
157,190,141716,2,0,L|47:213,1,107.999996704102,4|2,3:2|0:0,0:0:0:0:
264,86,142061,1,0,1:0:0:0:
351,329,142233,2,0,P|290:268|195:258,1,175.499991966248,2|0,0:1|0:0,0:0:0:0:
304,228,142578,2,0,P|331:171|345:108,1,116.999994644165,4|0,3:2|1:0,0:0:0:0:
405,258,142923,6,0,P|349:320|216:289,1,215.999993408203,4|2,3:2|1:0,0:0:0:0:
116,119,143440,1,0,1:0:0:0:
228,302,143613,2,0,P|259:229|263:171,1,107.999996704102,4|0,3:2|0:0,0:0:0:0:
65,58,143958,2,0,L|92:215,1,135.000005149842,2|0,1:0|0:0,0:0:0:0:
129,380,144302,1,2,0:0:0:0:
129,380,144389,1,0,0:0:0:0:
129,380,144475,6,0,L|146:277,1,90,4|0,0:0|0:0,0:0:0:0:
2,322,144820,1,0,0:0:0:0:
88,191,144992,2,0,P|136:206|187:216,1,90,2|0,0:0|1:0,0:0:0:0:
26,92,145337,1,2,0:1:0:0:
88,191,145509,1,0,0:0:0:0:
179,63,145682,6,0,P|272:57|358:54,1,180,4|0,0:0|1:0,0:0:0:0:
482,84,146199,1,2,0:0:0:0:
400,197,146371,2,0,P|377:226|359:285,1,72,2|0,0:1|1:0,0:0:0:0:
273,359,146716,2,0,P|176:362|102:249,1,215.999993408203,4|0,0:0|0:0,0:0:0:0:
168,56,147233,5,4,3:2:0:0:
227,242,147406,1,0,0:0:0:0:
62,140,147578,5,4,3:2:0:0:
168,312,147751,1,0,0:0:0:0:
323,103,147923,5,4,3:2:0:0:
274,364,148095,1,8,0:0:0:0:
82,253,148268,5,4,1:2:0:0:
341,179,148440,1,8,1:0:0:0:
171,339,148613,5,4,1:2:0:0:
168,312,148699,1,0,1:0:0:0:
165,285,148785,1,0,1:0:0:0:
162,258,148871,1,0,1:0:0:0:
159,231,148957,1,0,1:0:0:0:
156,204,149044,1,0,1:0:0:0:
153,177,149130,1,0,1:0:0:0:
53,276,149302,1,2,1:0:0:0:
263,185,149475,2,0,B|261:189|292:141|288:86|288:86|257:105,1,135.000005149842,2|0,0:1|0:0,0:0:0:0:
159,231,149992,5,4,0:0:0:0:
256,192,150078,12,4,152751,0:0:0:0:
68,60,161027,5,8,3:2:0:0:
80,52,161371,2,0,L|161:72,1,67.5000025749208,10|0,3:2|0:0,0:0:0:0:
240,142,161716,2,0,L|159:170,1,67.5000025749208,10|0,3:2|0:0,0:0:0:0:
49,220,162061,1,10,3:2:0:0:
88,132,162233,1,0,0:0:0:0:
138,257,162406,6,0,P|187:301|277:318,1,135.000005149842,10|10,3:2|3:2,0:0:0:0:
376,273,162923,1,4,0:0:0:0:
282,196,163095,2,0,P|295:148|300:107,1,67.5000025749208,10|0,3:2|0:0,0:0:0:0:
279,34,163440,1,10,3:2:0:0:
208,110,163613,1,4,3:2:0:0:
370,78,163785,6,0,P|384:113|389:164,2,67.5000025749208,10|2|8,3:1|0:0|3:2,0:0:0:0:
459,40,164302,1,0,0:0:0:0:
489,132,164475,2,0,P|472:169|462:210,1,67.5000025749208,10|0,3:2|0:0,0:0:0:0:
413,283,164820,2,0,P|382:264|323:244,1,67.5000025749208,10|0,3:2|0:0,0:0:0:0:
233,306,165164,5,12,3:2:0:0:
255,184,165337,1,2,0:0:0:0:
133,230,165509,2,0,P|115:266|105:307,1,67.5000025749208,10|0,3:2|0:0,0:0:0:0:
71,146,165854,1,12,3:2:0:0:
162,79,166027,2,0,L|243:101,1,67.5000025749208,2|8,0:0|3:2,0:0:0:0:
331,35,166371,1,2,0:0:0:0:
339,183,166544,6,0,B|324:229|324:229|291:250|291:250|275:301,2,135.000005149842,10|10|8,3:1|3:2|3:2,0:0:0:0:
408,347,167578,1,12,3:2:0:0:
474,253,167751,2,0,L|459:170,1,67.5000025749208,2|12,0:1|3:2,0:0:0:0:
439,90,168095,1,2,0:0:0:0:
351,39,168268,2,0,P|316:55|265:63,1,67.5000025749208,12|0,3:2|0:0,0:0:0:0:
133,44,168613,2,0,P|181:95|192:177,1,135.000005149842,10|8,3:1|3:2,0:0:0:0:
28,118,169130,1,2,3:1:0:0:
107,286,169302,6,0,L|237:253,1,135.000005149842,12|10,3:2|3:1,0:0:0:0:
237,253,169820,1,0,0:0:0:0:
330,155,169992,1,10,3:2:0:0:
350,294,170164,2,0,L|326:384,1,67.5000025749208,2|8,0:1|3:2,0:0:0:0:
330,155,170509,1,4,0:0:0:0:
173,54,170682,6,0,L|190:161,1,76.5000014591217,2|0,1:1|0:0,0:0:0:0:
191,168,170940,1,0,0:0:0:0:
191,168,171027,1,0,1:0:0:0:
65,312,171199,2,0,L|80:226,1,76.5000014591217,2|0,1:2|0:0,0:0:0:0:
103,203,171458,1,0,1:0:0:0:
116,234,171544,6,0,P|153:260|216:268,1,90,6|8,1:3|0:0,0:0:0:0:
290,95,171889,2,0,L|301:35,1,38.2500007295609,0|0,3:0|0:0,0:0:0:0:
291,125,172061,6,0,L|308:220,1,90,4|0,3:2|0:0,0:0:0:0:
321,296,172320,1,0,0:0:0:0:
321,296,172406,1,0,1:0:0:0:
376,90,172578,1,2,0:0:0:0:
199,167,172751,2,0,P|154:157|114:138,1,90,2|2,3:2|3:2,0:0:0:0:
33,37,173095,1,0,1:0:0:0:
76,220,173268,1,2,0:0:0:0:
193,72,173440,6,0,P|236:37|281:16,1,90,4|0,3:2|0:0,0:0:0:0:
124,19,173785,1,0,1:0:0:0:
298,106,173958,2,0,L|394:84,1,90,2|0,3:2|0:0,0:0:0:0:
243,209,174302,1,2,3:0:0:0:
354,304,174475,2,0,P|372:259|377:217,1,90,0|2,1:0|0:0,0:0:0:0:
212,119,174820,6,0,L|7:161,1,180,2|0,3:1|1:0,0:0:0:0:
119,37,175337,1,0,0:0:0:0:
91,225,175509,2,0,P|98:275|114:325,1,90,4|0,3:2|3:0,0:0:0:0:
212,119,175854,1,0,1:0:0:0:
186,379,176027,6,0,P|204:281|215:184,1,180,2|0,0:1|3:0,0:0:0:0:
119,37,176544,1,4,1:2:0:0:
311,95,176716,2,0,P|320:142|327:219,1,90,2|0,3:2|3:0,0:0:0:0:
449,62,177061,1,2,1:0:0:0:
388,302,177233,2,0,P|334:262|263:251,1,135,0|0,1:0|0:0,0:0:0:0:
205,297,177578,6,0,P|286:263|325:156,1,180,4|0,3:2|1:0,0:0:0:0:
287,57,178095,1,0,0:0:0:0:
175,106,178268,2,0,P|141:88|94:38,1,90,2|0,3:2|3:0,0:0:0:0:
40,167,178613,1,0,1:0:0:0:
205,297,178785,6,0,B|260:266|260:266|306:288|306:288|345:281|375:250,1,180,4|0,3:2|3:0,0:0:0:0:
126,191,179302,2,0,L|36:166,1,90,2|0,1:0|3:0,0:0:0:0:
103,52,179647,1,2,0:0:0:0:
53,288,179820,1,0,3:0:0:0:
53,288,179906,1,0,3:0:0:0:
53,288,179992,1,4,1:2:0:0:
219,196,180164,1,0,0:0:0:0:
161,378,180337,6,0,B|135:268|135:268|182:290,1,135,2|0,0:1|0:0,0:0:0:0:
266,328,180682,2,0,L|369:291,1,90,4|2,1:2|0:0,0:0:0:0:
217,89,181027,5,10,0:0:0:0:
266,328,181199,1,0,1:0:0:0:
122,189,181371,5,10,0:0:0:0:
341,113,181544,1,0,1:0:0:0:
90,301,181716,5,4,3:2:0:0:
53,276,181802,1,0,3:0:0:0:
30,237,181889,1,0,1:0:0:0:
22,192,181975,1,0,1:0:0:0:
32,148,182061,1,0,1:0:0:0:
58,110,182147,1,0,1:0:0:0:
95,84,182233,1,0,1:0:0:0:
140,78,182319,1,0,1:0:0:0:
182,97,182406,6,0,P|211:85|246:41,1,53.9999983520508,2|0,0:1|0:0,0:0:0:0:
261,176,182578,2,0,L|242:244,1,53.9999983520508,2|0,0:0|0:0,0:0:0:0:
140,314,182751,2,0,L|122:241,1,53.9999983520508,2|0,0:1|0:0,0:0:0:0:
182,97,182923,6,0,P|239:63|321:69,1,135,4|0,0:0|0:0,0:0:0:0:
379,156,183268,2,0,L|350:271,1,90,2|0,0:0|1:0,0:0:0:0:
475,65,183613,1,0,0:0:0:0:
475,65,183699,1,0,0:0:0:0:
475,65,183785,2,0,L|495:187,1,90,2|2,3:2|3:2,0:0:0:0:
431,324,184130,1,0,1:0:0:0:
281,198,184302,6,0,B|235:155|172:151|172:151|164:194|223:215,1,180,4|2,0:0|3:2,0:0:0:0:
334,330,184820,2,0,L|363:219,1,90,2|0,1:2|0:0,0:0:0:0:
252,87,185164,1,2,3:2:0:0:
184,286,185337,1,2,3:2:0:0:
73,125,185509,1,0,1:0:0:0:
260,189,185682,2,0,L|332:162,1,45,2|0,0:1|0:0,0:0:0:0:
455,120,185854,6,0,P|442:161|436:244,1,90,4|0,0:1|0:0,0:0:0:0:
252,87,186199,1,2,1:2:0:0:
299,341,186371,2,0,P|249:297|170:288,1,135,4|0,0:1|0:0,2:0:0:0:
95,321,186716,2,0,P|111:277|117:231,1,90,2|0,3:2|1:0,0:0:0:0:
9,84,187061,6,0,P|11:147|21:228,1,135,4|0,0:1|0:0,0:0:0:0:
25,257,187406,1,0,3:0:0:0:
107,36,187578,1,2,1:2:0:0:
229,240,187751,2,0,P|181:230|140:198,1,90,4|0,0:1|0:0,0:0:0:0:
245,335,188095,2,0,P|293:325|332:305,1,90,2|0,3:2|1:0,0:0:0:0:
216,150,188440,1,2,0:0:0:0:
447,239,188613,5,2,3:1:0:0:
216,319,188785,1,2,0:0:0:0:
406,154,188958,1,2,1:2:0:0:
142,249,189130,5,4,3:2:0:0:
142,249,189475,1,4,3:2:0:0:
32,353,189647,1,0,1:0:0:0:
87,176,189820,1,0,0:0:0:0:
87,176,189906,1,0,0:0:0:0:
87,176,189992,6,0,P|100:130|109:88,1,90,2|2,3:1|3:2,0:0:0:0:
0,257,190337,1,10,1:2:0:0:
215,183,190509,2,0,P|229:235|237:313,1,90,4|0,0:0|0:0,0:0:0:0:
184,53,190854,1,2,3:2:0:0:
358,112,191027,2,0,L|448:81,1,90,0|2,1:0|3:2,0:0:0:0:
284,21,191371,5,4,0:0:0:0:
235,271,191544,1,2,0:0:0:0:
235,271,191630,1,0,0:0:0:0:
235,271,191716,1,0,1:0:0:0:
443,82,191889,5,2,3:0:0:0:
443,82,191975,1,0,3:0:0:0:
443,82,192061,1,2,3:2:0:0:
384,357,192233,5,2,0:0:0:0:
384,357,192320,1,0,0:0:0:0:
384,357,192406,1,2,1:2:0:0:
141,259,192578,6,0,P|195:188|298:203,1,180,6|2,0:0|0:0,0:0:0:0:
151,89,193095,1,0,1:0:0:0:
235,272,193268,1,2,0:1:0:0:
372,42,193440,5,0,1:0:0:0:
365,85,193526,1,0,1:0:0:0:
327,107,193612,1,0,1:0:0:0:
287,91,193698,1,0,1:0:0:0:
274,50,193784,1,0,1:0:0:0:
298,13,193871,1,0,1:0:0:0:
341,9,193958,6,0,P|409:36|474:138,1,161.999995056153,6|0,0:0|0:0,0:0:0:0:
445,217,194302,2,0,L|424:302,1,53.9999983520508,2|0,3:2|3:0,0:0:0:0:
331,380,194475,2,0,L|312:268,1,107.999996704102,4|2,1:0|0:0,0:0:0:0:
253,120,194820,1,2,3:2:0:0:
170,240,194992,1,2,3:2:0:0:
132,58,195164,1,0,1:0:0:0:
59,262,195337,6,0,P|130:335|261:318,1,215.999993408203,2|2,3:2|3:2,0:0:0:0:
447,90,195854,2,0,P|396:51|335:36,1,107.999996704102,0|0,1:0|0:0,0:0:0:0:
245,177,196199,1,2,3:2:0:0:
355,38,196371,1,0,3:0:0:0:
304,299,196544,2,0,L|162:254,1,107.999996704102,2|0,1:0|0:0,0:0:0:0:
8,129,196889,5,4,3:2:0:0:
201,266,197061,1,0,0:0:0:0:
128,60,197233,1,0,1:0:0:0:
74,326,197406,1,2,0:1:0:0:
61,360,197751,5,2,3:2:0:0:
304,299,197923,1,0,1:0:0:0:
22,202,198095,1,2,0:1:0:0:
3,180,198440,5,2,3:2:0:0:
160,377,198613,1,0,1:0:0:0:
264,64,198785,2,0,P|362:44|408:168,1,215.999993408203,4|0,3:2|3:0,0:0:0:0:
274,323,199302,1,0,1:0:0:0:
329,124,199475,1,2,0:0:0:0:
460,274,199647,6,0,P|414:252|322:221,1,107.999996704102,2|0,0:1|0:0,0:0:0:0:
144,293,199992,1,0,1:0:0:0:
244,124,200164,2,0,B|270:78|269:12|269:12|237:17|214:45,1,161.999995056153,4|0,3:2|0:0,0:0:0:0:
198,49,200509,1,2,3:2:0:0:
434,135,200682,1,0,1:0:0:0:
166,178,200854,1,2,0:1:0:0:
289,365,201027,6,0,P|305:303|311:238,1,107.999996704102,4|0,3:2|3:0,0:0:0:0:
99,333,201371,1,0,1:0:0:0:
263,186,201544,2,0,B|311:156|311:156|362:179|362:179|410:153,1,161.999995056153,4|0,0:0|0:0,0:0:0:0:
434,135,201889,1,2,3:2:0:0:
245,36,202061,1,0,1:0:0:0:
310,259,202233,1,2,3:2:0:0:
139,102,202406,6,0,B|110:132|110:132|138:253,1,161.999995056153,2|0,0:1|0:0,0:0:0:0:
150,286,202751,1,0,1:0:0:0:
226,114,202923,1,4,0:0:0:0:
226,114,203009,1,0,3:0:0:0:
226,114,203095,1,0,3:0:0:0:
249,362,203268,1,2,3:2:0:0:
34,252,203440,1,0,1:0:0:0:
158,55,203613,6,0,B|213:4|276:34|276:34|308:99,1,161.999995056153,4|0,0:0|0:0,0:0:0:0:
300,169,203958,2,0,P|343:126|394:112,1,107.999996704102,2|0,3:2|1:0,0:0:0:0:
443,317,204302,5,4,0:0:0:0:
431,280,204389,1,0,0:0:0:0:
413,246,204475,2,0,P|401:218|377:190,1,53.9999983520508,2|0,1:0|3:0,0:0:0:0:
295,100,204647,2,0,P|262:76|237:69,1,53.9999983520508,0|0,1:0|1:0,0:0:0:0:
128,21,204820,1,0,1:0:0:0:
92,9,204906,1,0,1:0:0:0:
54,14,204992,6,0,P|17:49|51:143,1,161.999995056153,6|0,0:0|0:0,0:0:0:0:
123,227,205337,2,0,P|152:182|159:122,1,107.999996704102,2|0,3:2|1:0,0:0:0:0:
50,346,205682,1,2,0:0:0:0:
228,243,205854,1,2,3:1:0:0:
50,143,206027,1,2,3:2:0:0:
182,366,206199,1,0,1:0:0:0:
454,187,206371,6,0,P|427:284|327:285,1,215.999993408203,4|2,3:2|3:2,0:0:0:0:
298,56,206889,1,0,1:0:0:0:
376,218,207061,1,2,0:0:0:0:
376,218,207147,1,0,0:0:0:0:
376,218,207233,2,0,P|304:178|246:166,1,107.999996704102,2|0,3:2|3:0,0:0:0:0:
68,266,207578,1,2,1:0:0:0:
280,171,207751,1,2,0:0:0:0:
119,64,207923,5,4,0:0:0:0:
194,281,208095,1,2,0:0:0:0:
363,115,208268,1,4,1:2:0:0:
86,171,208440,5,2,0:1:0:0:
306,29,208613,1,0,3:0:0:0:
283,265,208785,2,0,L|262:430,1,116.999994644165,4|0,3:2|1:0,0:0:0:0:
206,61,209130,5,2,3:1:0:0:
459,145,209302,1,0,0:0:0:0:
177,233,209475,1,12,1:2:0:0:
425,338,209647,1,8,0:0:0:0:
176,30,209820,6,0,P|95:86|88:174,1,188.999994232178,4|0,3:2|0:0,0:0:0:0:
177,233,210164,2,0,B|203:225|224:209|224:209|293:268|334:248|369:207,1,202.500007724762,2|0,1:0|0:0,0:0:0:0:
433,68,210509,1,4,0:0:0:0:
342,347,210682,5,6,3:2:0:0:
342,347,211027,1,2,0:0:0:0:
455,301,211199,1,2,3:2:0:0:
356,220,211371,2,0,P|306:232|244:281,1,107.999996704102,0|2,1:0|0:0,0:0:0:0:
129,359,211716,1,4,3:2:0:0:
72,188,211889,6,0,B|48:122|56:60|56:60|128:104,1,161.999995056153,2|0,3:1|0:0,0:0:0:0:
122,95,212233,1,2,1:2:0:0:
307,33,212406,1,2,0:0:0:0:
220,266,212578,2,0,P|242:212|247:154,1,107.999996704102,2|0,0:1|1:0,0:0:0:0:
114,308,212923,2,0,P|177:367|309:344,1,215.999993408203,4|0,3:2|0:0,0:0:0:0:
447,208,213440,5,4,3:2:0:0:
405,377,213613,1,0,0:0:0:0:
452,187,213785,2,0,P|464:139|476:72,1,107.999996704102,4|0,1:2|0:0,0:0:0:0:
254,149,214130,2,0,L|275:262,1,107.999996704102,4|0,1:2|3:0,0:0:0:0:
159,53,214475,1,4,0:0:0:0:
119,274,214647,1,0,1:0:0:0:
32,131,214820,6,0,P|75:153|141:166,1,107.999996704102,4|0,0:0|3:0,0:0:0:0:
253,54,215164,1,4,1:2:0:0:
202,291,215337,1,2,0:1:0:0:
347,211,215509,1,4,3:2:0:0:
280,358,215682,2,0,P|290:326|296:288,1,45,2|0,1:1|0:0,0:0:0:0:
256,209,215854,2,0,P|246:181|241:153,1,45,2|0,1:2|0:0,0:0:0:0:
253,54,216027,6,0,P|199:89|114:105,1,144,4|0,0:0|0:0,0:0:0:0:
34,167,216544,2,0,P|71:179|107:201,1,72,2|0,0:1|0:0,0:0:0:0:
30,276,216889,1,2,1:2:0:0:
128,342,217061,2,0,P|167:332|201:314,1,72,2|0,0:0|0:0,0:0:0:0:
347,376,217406,6,0,L|367:206,1,144,4|2,0:0|1:1,0:0:0:0:
247,119,217923,2,0,L|255:191,1,72,2|0,0:0|0:0,0:0:0:0:
329,69,218268,1,0,1:0:0:0:
431,94,218440,1,2,0:0:0:0:
255,191,218613,2,0,P|209:184|160:165,1,72,2|0,0:0|0:0,0:0:0:0:
27,269,218958,6,0,L|118:244,1,90,2|0,3:1|1:0,0:0:0:0:
255,191,219302,1,2,0:0:0:0:
179,304,219475,1,2,3:2:0:0:
179,304,219561,1,0,3:0:0:0:
179,304,219647,1,2,1:2:0:0:
339,384,219820,2,0,P|356:338|362:291,1,90,2|0,0:1|3:0,0:0:0:0:
227,69,220164,6,0,P|241:109|256:187,1,90,4|0,1:2|3:0,0:0:0:0:
179,304,220509,1,2,3:2:0:0:
332,221,220682,2,0,P|348:176|354:120,1,90,2|0,1:1|3:0,0:0:0:0:
346,102,220940,1,0,3:0:0:0:
346,102,221027,1,0,1:0:0:0:
162,240,221199,5,8,1:0:0:0:
167,261,221285,1,0,1:0:0:0:
173,282,221371,1,2,1:2:0:0:
179,304,221458,1,0,1:0:0:0:
185,325,221544,1,0,1:0:0:0:
190,347,221630,1,0,1:0:0:0:
198,370,221716,6,0,L|214:236,1,107.999996704102,6|0,0:0|0:0,0:0:0:0:
223,42,222061,2,0,B|170:82|111:77|111:77|116:91|140:111,1,161.999995056153,4|0,1:2|0:0,0:0:0:0:
211,150,222406,2,0,P|262:177|339:178,1,107.999996704102,2|0,0:0|3:0,0:0:0:0:
477,113,222751,1,4,1:2:0:0:
366,33,222923,1,0,3:0:0:0:
413,231,223095,6,0,P|405:289|388:354,1,107.999996704102,2|0,0:1|3:0,0:0:0:0:
211,263,223440,1,0,1:0:0:0:
296,76,223613,2,0,L|315:201,1,107.999996704102,4|0,0:0|3:0,0:0:0:0:
156,132,223958,1,2,0:1:0:0:
156,132,224044,1,0,0:0:0:0:
156,132,224130,2,0,P|110:102|36:91,1,107.999996704102,0|0,1:0|3:0,0:0:0:0:
184,9,224475,5,4,0:0:0:0:
241,230,224647,1,0,0:0:0:0:
389,74,224820,1,4,1:2:0:0:
427,317,224992,1,0,0:0:0:0:
213,103,225164,5,4,3:2:0:0:
179,349,225337,1,0,1:0:0:0:
352,170,225509,1,4,1:2:0:0:
107,215,225682,1,2,1:1:0:0:
331,323,225854,1,0,3:0:0:0:
213,103,226027,5,0,1:0:0:0:
186,68,226113,1,0,1:0:0:0:
143,69,226199,1,0,1:0:0:0:
116,103,226285,1,0,1:0:0:0:
127,145,226371,1,0,1:0:0:0:
166,163,226458,1,0,1:0:0:0:
205,144,226544,5,2,1:0:0:0:
44,23,226716,1,2,0:0:0:0:
71,299,226889,1,4,0:0:0:0:
166,104,227061,1,2,0:1:0:0:
174,92,227147,1,0,0:0:0:0:
182,80,227233,6,0,P|225:61|282:54,1,90,6|2,3:2|0:0,0:0:0:0:
429,15,227578,1,6,1:2:0:0:
457,196,227751,2,0,P|416:174|348:158,1,90,2|0,0:1|3:3,0:0:0:0:
235,240,228095,1,0,3:0:0:0:
358,372,228268,2,0,P|374:331|381:283,1,90,4|0,1:2|0:0,0:0:0:0:
277,120,228613,5,4,3:2:0:0:
146,213,228785,2,0,P|149:265|179:322,1,90,2|0,0:1|1:0,0:0:0:0:
53,123,229130,1,0,0:0:0:0:
185,25,229302,2,0,L|296:51,1,90,4|0,3:2|3:0,0:0:0:0:
410,129,229647,2,0,P|431:80|434:4,1,90,2|0,1:0|0:0,0:0:0:0:
501,176,229992,6,0,P|434:232|349:214,1,180,4|10,0:0|1:0,0:0:0:0:
273,46,230509,1,4,0:2:0:0:
146,126,230682,1,0,3:0:0:0:
244,251,230854,2,0,L|261:148,1,90,4|0,3:2|1:0,0:0:0:0:
174,22,231199,1,4,0:0:0:0:
349,112,231371,6,0,P|401:94|444:69,1,90,2|0,0:1|0:0,0:0:0:0:
480,258,231716,1,4,1:2:0:0:
431,77,231889,1,2,3:1:0:0:
324,325,232061,1,0,3:0:0:0:
456,164,232233,1,6,1:2:0:0:
418,376,232406,1,0,1:0:0:0:
244,251,232578,1,0,3:0:0:0:
244,251,232664,1,0,0:0:0:0:
244,251,232751,6,0,P|257:204|260:149,1,90,4|0,3:2|0:0,0:0:0:0:
157,34,233095,1,2,1:2:0:0:
87,191,233268,1,0,0:0:0:0:
17,81,233440,2,0,L|134:114,1,90,4|4,3:2|3:2,0:0:0:0:
263,46,233785,1,0,1:0:0:0:
189,195,233958,6,0,P|196:241|220:313,1,90,2|0,0:1|3:0,0:0:0:0:
448,231,234302,2,0,P|405:208|328:201,1,90,4|0,0:0|1:0,0:0:0:0:
208,283,234647,1,2,0:1:0:0:
265,130,234820,1,0,3:0:0:0:
304,342,234992,1,2,3:2:0:0:
265,130,235164,1,0,1:0:0:0:
94,279,235337,6,0,P|32:238|38:122,1,180,4|0,3:2|3:0,0:0:0:0:
150,6,235854,2,0,P|125:43|114:87,1,90,0|4,1:0|0:0,0:0:0:0:
196,225,236199,1,2,0:0:0:0:
259,49,236371,1,2,3:2:0:0:
368,204,236544,1,0,1:2:0:0:
376,100,236716,6,0,L|281:134,1,90,4|0,3:2|0:0,0:0:0:0:
102,194,237061,6,0,L|198:226,1,99.0000030212403,2|0,0:1|1:0,0:0:0:0:
416,324,237406,6,0,L|304:368,1,107.999996704102,6|10,3:2|0:0,0:0:0:0:
201,231,237751,5,2,1:0:0:0:
201,231,237837,1,0,1:0:0:0:
201,231,237923,2,0,L|216:157,1,45,0|0,3:0|0:0,0:0:0:0:
283,86,238095,2,0,L|292:133,1,45,4|0,3:2|3:0,0:0:0:0:
372,216,238268,6,0,L|411:91,1,90,2|4,0:1|0:0,0:0:0:0:
440,16,238613,1,2,1:2:0:0:
492,112,238785,1,0,0:0:0:0:
344,48,238958,1,0,3:0:0:0:
492,112,239130,1,4,3:2:0:0:
344,48,239302,2,0,P|300:32|224:24,1,90,0|2,1:0|0:0,0:0:0:0:
36,92,239647,6,0,P|96:120|192:124,1,135,2|0,0:1|0:0,0:0:0:0:
200,112,239992,1,0,1:0:0:0:
288,192,240164,2,0,L|316:140,1,45,2|0,0:1|0:0,0:0:0:0:
344,84,240337,1,0,3:0:0:0:
396,244,240509,1,4,3:2:0:0:
464,132,240682,2,0,L|356:88,1,90,2|2,1:0|3:0,0:0:0:0:
152,52,241027,6,0,B|108:84|132:156|132:156|96:176|96:176|44:140,1,180,4|2,3:2|1:2,0:0:0:0:
24,56,241544,1,4,0:2:0:0:
200,112,241716,2,0,P|241:124|288:131,1,90,2|4,3:2|3:2,0:0:0:0:
396,196,242061,2,0,P|441:207|489:214,1,90,0|4,1:0|0:0,0:0:0:0:
308,296,242406,5,2,3:1:0:0:
368,104,242578,1,4,0:0:0:0:
440,352,242751,1,2,1:0:0:0:
308,296,242923,2,0,P|256:280|184:276,1,90,2|0,3:0|3:0,0:0:0:0:
68,356,243268,2,0,L|52:268,1,90,6|0,0:0|1:0,0:0:0:0:
104,28,243613,1,0,3:0:0:0:
104,28,243699,1,0,0:0:0:0:
104,28,243785,6,0,L|120:140,1,90,6|0,0:0|0:0,0:0:0:0:
140,256,244130,1,0,1:0:0:0:
260,116,244302,1,4,3:2:0:0:
268,104,244647,5,4,3:2:0:0:
232,312,244820,1,0,1:0:0:0:
100,136,244992,1,4,3:2:0:0:
88,124,245337,5,4,3:2:0:0:
40,280,245509,1,0,1:0:0:0:
220,176,245682,1,4,0:0:0:0:
128,360,245854,1,0,3:0:0:0:
80,164,246027,1,2,3:2:0:0:
80,164,246113,1,0,3:0:0:0:
80,164,246199,1,0,1:0:0:0:
232,312,246371,6,0,P|285:345|399:355,1,135,2|0,0:1|0:0,0:0:0:0:
437,384,246716,2,0,L|449:330,1,45,0|0,1:0|0:0,0:0:0:0:
385,269,246889,2,0,L|374:225,1,45,0|0,1:0|0:0,0:0:0:0:
445,164,247061,2,0,L|455:110,1,45,0|0,1:0|0:0,0:0:0:0:
400,28,247233,5,0,1:0:0:0:
400,28,247320,1,0,1:0:0:0:
400,28,247406,1,0,1:0:0:0:
292,100,247578,2,0,P|248:100|192:84,1,90,4|0,1:2|1:0,0:0:0:0:
124,48,247837,1,0,1:0:0:0:
124,48,247923,5,2,1:0:0:0:
124,48,248958,5,0,3:0:0:0:
124,48,249130,1,0,3:0:0:0:
197,116,249302,6,0,P|222:130|258:136,1,53.9999983520508,4|2,3:2|0:0,0:0:0:0:
327,84,249647,2,0,P|349:75|378:67,1,53.9999983520508,8|2,0:0|0:1,0:0:0:0:
464,109,249992,1,8,0:0:0:0:
485,18,250164,1,2,0:0:0:0:
464,109,250337,2,0,P|452:142|446:163,1,53.9999983520508,8|4,0:0|0:0,0:0:0:0:
426,262,250682,6,0,P|394:248|369:243,1,53.9999983520508,8|2,0:0|0:0,0:0:0:0:
295,299,251027,1,8,0:0:0:0:
276,202,251199,2,0,L|264:143,1,53.9999983520508,2|8,0:1|0:0,0:0:0:0:
187,213,251544,2,0,L|179:278,1,53.9999983520508,2|8,0:0|0:0,0:0:0:0:
218,356,251889,1,4,3:2:0:0:
98,334,252061,6,0,P|91:307|88:268,1,53.9999983520508,8|2,3:2|0:0,0:0:0:0:
36,196,252406,1,8,0:0:0:0:
76,107,252578,2,0,P|103:121|141:127,1,53.9999983520508,2|8,0:1|0:0,0:0:0:0:
201,72,252923,1,2,0:0:0:0:
230,161,253095,1,8,0:0:0:0:
301,100,253268,1,4,0:0:0:0:
319,193,253440,6,0,P|312:215|304:260,1,53.9999983520508,8|2,0:0|0:0,0:0:0:0:
325,336,253785,1,8,0:0:0:0:
407,281,253958,1,2,0:1:0:0:
325,336,254130,2,0,L|252:321,1,53.9999983520508,10|2,0:0|0:0,0:0:0:0:
183,364,254475,1,4,0:0:0:0:
183,364,254647,1,2,0:0:0:0:
132,260,254820,6,0,P|121:233|114:191,1,53.9999983520508,12|2,3:2|0:0,0:0:0:0:
159,127,255164,2,0,L|227:146,1,53.9999983520508,8|2,0:0|0:1,0:0:0:0:
289,200,255509,2,0,L|359:179,1,53.9999983520508,8|2,0:0|0:0,0:0:0:0:
415,121,255854,1,8,0:0:0:0:
443,214,256027,1,4,0:0:0:0:
377,293,256199,6,0,L|320:279,1,53.9999983520508,8|2,3:2|0:0,0:0:0:0:
245,325,256544,2,0,P|214:341|188:352,1,53.9999983520508,8|2,0:0|0:1,0:0:0:0:
123,283,256889,2,0,P|108:252|95:211,1,53.9999983520508,8|2,0:0|0:0,0:0:0:0:
135,137,257233,1,8,0:0:0:0:
135,137,257406,1,4,3:2:0:0:
222,196,257578,6,0,P|237:225|250:262,1,53.9999983520508,8|2,3:2|0:0,0:0:0:0:
296,325,257923,2,0,L|356:306,1,53.9999983520508,8|2,0:0|0:1,0:0:0:0:
482,269,258268,1,8,0:0:0:0:
427,353,258440,1,2,0:0:0:0:
402,240,258613,2,0,P|398:212|398:184,1,53.9999983520508,2|2,0:1|0:0,0:0:0:0:
470,126,258958,6,0,P|414:94|350:102,1,107.999996704102,12|8,0:0|0:0,0:0:0:0:
295,162,259475,1,2,0:0:0:0:
379,246,259647,1,8,0:0:0:0:
223,270,259820,1,2,0:0:0:0:
315,360,259992,1,12,0:0:0:0:
207,188,260164,6,0,B|159:176|159:176|140:182|119:184|119:184|87:168|27:176,1,161.999995056153,6|0,0:0|0:0,0:0:0:0:
