osu file format v14

[General]
AudioFilename: Hoshi.mp3
AudioLeadIn: 1500
PreviewTime: 127018
Countdown: 0
SampleSet: Soft
StackLeniency: 0.7
Mode: 0
LetterboxInBreaks: 0
WidescreenStoryboard: 0

[Editor]
DistanceSpacing: 1
BeatDivisor: 2
GridSize: 32
TimelineZoom: 1.2

[Metadata]
Title:Hoshi Ori Yume Mirai
TitleUnicode:星織ユメミライ
Artist:Ceui
ArtistUnicode:Ceui
Creator:-Nanaka-
Version:Easy
Source:星織ユメミライ
Tags:tone work's Opening eroge Visual Novel Narcissu Kanau Mamayu fuyuyu- Silky
BeatmapID:1079188
BeatmapSetID:268509

[Difficulty]
HPDrainRate:2
CircleSize:3
OverallDifficulty:2
ApproachRate:3
SliderMultiplier:0.9
SliderTickRate:1

[Events]
//Background and Video events
0,0,"BG6.jpg",0,0
//Break Periods
2,152951,159587
//Storyboard Layer 0 (Background)
//Storyboard Layer 1 (Fail)
//Storyboard Layer 2 (Pass)
//Storyboard Layer 3 (Foreground)
//Storyboard Sound Samples

[TimingPoints]
1027,344.827586206897,4,2,1,50,1,0
5682,-100,4,2,1,30,0,0
5854,-100,4,2,1,50,0,0
6544,-100,4,2,1,40,0,0
7061,-100,4,2,1,30,0,0
7578,-100,4,2,1,40,0,0
8095,-100,4,2,1,30,0,0
8613,-100,4,2,1,40,0,0
8958,-100,4,2,1,50,0,0
12061,-100,4,2,1,50,0,0
12406,-100,4,2,1,60,0,0
16544,-100,4,2,1,30,0,0
16716,-100,4,2,1,60,0,0
17233,-100,4,2,1,30,0,0
17578,-100,4,2,1,60,0,0
20164,-100,4,2,1,40,0,0
20251,-100,4,2,1,60,0,0
21716,-100,4,2,1,30,0,0
23095,-100,4,2,1,50,0,0
27061,-100,4,2,1,40,0,0
27923,-100,4,2,1,50,0,0
32751,-100,4,2,1,25,0,0
33268,-100,4,2,1,25,0,0
33613,-100,4,2,1,30,0,0
34130,-100,4,2,1,50,0,0
34302,-100,4,2,1,60,0,0
45164,-100,4,2,1,50,0,0
50164,-100,4,2,1,30,0,0
50509,-100,4,2,1,60,0,0
53440,-100,4,2,1,70,0,0
56199,-100,4,2,1,70,0,0
57578,-100,4,2,1,80,0,0
58268,-100,4,2,1,60,0,0
58785,-100,4,2,1,80,0,1
69130,-100,4,2,1,80,0,0
69820,-100,4,2,1,80,0,1
80854,-100,4,2,1,80,0,0
83785,-100,4,2,1,60,0,0
90682,-100,4,2,1,50,0,0
91199,-100,4,2,1,40,0,0
91544,-100,4,2,1,30,0,0
92061,-100,4,2,1,60,0,0
97578,-100,4,2,1,40,0,0
97923,-100,4,2,1,60,0,0
102578,-100,4,2,1,50,0,0
103095,-100,4,2,1,50,0,0
103440,-100,4,2,1,60,0,0
114130,-100,4,2,1,50,0,0
119130,-100,4,2,1,30,0,0
119475,-100,4,2,1,50,0,0
122406,-100,4,2,1,60,0,0
123613,-100,4,2,1,70,0,0
125164,-100,4,2,1,70,0,0
126716,-100,4,2,1,50,0,0
127233,-100,4,2,1,70,0,0
127751,-100,4,2,1,80,0,1
138095,-100,4,2,1,80,0,0
138785,-100,4,2,1,80,0,1
148613,-100,4,2,1,60,0,1
149475,-100,4,2,1,50,0,0
150078,-100,4,2,1,30,0,0
161027,-100,4,2,1,30,0,0
170682,-100,4,2,1,55,0,0
171544,-100,4,2,1,45,0,0
172061,-100,4,2,1,60,0,0
180337,-100,4,2,1,70,0,0
181716,-100,4,2,1,70,0,0
182061,-100,4,2,1,60,0,0
182233,-100,4,2,1,70,0,0
183613,-100,4,2,1,60,0,0
185854,-100,4,2,1,60,0,0
186371,-100,4,2,1,40,0,0
186630,-100,4,2,1,60,0,0
187061,-100,4,2,1,40,0,0
187320,-100,4,2,1,60,0,0
187751,-100,4,2,1,40,0,0
187923,-100,4,2,1,60,0,0
191371,-100,4,2,1,70,0,0
193440,-100,4,2,1,60,0,0
193958,-100,4,2,1,80,0,1
204302,-100,4,2,1,80,0,0
204992,-100,4,2,1,80,0,1
216027,-100,4,2,1,70,0,0
217061,-100,4,2,1,50,0,0
217233,-100,4,2,1,70,0,0
217751,-100,4,2,1,50,0,0
217923,-100,4,2,1,70,0,0
218958,-100,4,2,1,70,0,0
221716,-100,4,2,1,80,0,1
226027,-100,4,2,1,60,0,1
226544,-100,4,2,1,80,0,1
227233,-100,4,2,1,60,0,0
236716,-100,4,2,1,50,0,0
237061,-100,4,2,1,60,0,0
237406,-100,4,2,1,70,0,0
237578,-100,4,2,1,60,0,0
244647,-100,4,2,1,40,0,0
244992,-100,4,2,1,60,0,0
245337,-100,4,2,1,40,0,0
245682,-100,4,2,1,60,0,0
248958,-100,4,2,1,30,0,0

[Colours]
Combo1 : 211,207,194
Combo2 : 255,0,0
Combo3 : 0,64,128
Combo4 : 255,128,0
Combo5 : 0,255,255

[HitObjects]
361,186,1027,6,0,P|403:124|402:48,2,135,4|2|8,3:2|0:1|0:0,0:0:0:0:
281,143,2406,2,0,P|230:96|159:78,2,135,8|2|8,0:0|0:1|0:0,0:0:0:0:
282,233,3785,6,0,P|269:285|192:333,2,135,8|2|8,3:2|0:1|0:0,0:0:0:0:
192,240,5164,2,0,P|145:258|78:272,1,90,8|8,0:0|0:0,0:0:0:0:
36,211,5854,2,0,P|49:168|55:118,1,90,8|8,0:0|0:0,0:0:0:0:
116,58,6544,6,0,P|177:86|265:102,1,135,4|2,3:2|0:0,0:0:0:0:
373,66,7578,2,0,P|387:135|395:213,1,135,12|4,0:0|0:0,0:0:0:0:
354,328,8613,2,0,L|253:300,1,90,12|10,0:0|0:0,0:0:0:0:
188,261,9302,6,0,P|163:195|178:123,2,135,4|2|8,3:2|0:0|0:0,0:0:0:0:
197,350,10682,2,0,P|123:326|94:260,2,135,10|2|0,0:3|3:1|1:0,0:0:0:0:
269,296,12061,6,0,B|288:238|288:238|272:183|272:183|288:148|292:114,1,180,4|0,0:1|3:0,0:0:0:0:
246,45,13095,1,2,1:2:0:0:
162,78,13440,2,0,P|95:76|41:138,2,135,2|2|2,3:2|0:0|1:2,0:0:0:0:
231,135,14820,6,0,P|280:133|317:108,1,90,2|0,3:2|1:0,0:0:0:0:
379,50,15509,2,0,P|458:88|480:172,1,180,2|2,0:0|3:2,0:0:0:0:
464,260,16544,1,4,1:1:0:0:
392,314,16889,2,0,P|343:300|289:290,1,90,0|12,3:0|1:1,0:0:0:0:
222,328,17578,6,0,P|214:280|201:180,1,135,2|4,3:2|3:2,0:0:0:0:
211,104,18440,1,2,3:2:0:0:
296,131,18785,2,0,P|311:101|324:39,2,90,4|2|2,3:2|3:2|0:0,0:0:0:0:
290,221,19820,2,0,P|332:216|378:158,1,90,2|4,3:2|0:1,0:0:0:0:
256,192,20337,12,4,21716,0:1:0:0:
206,332,23095,5,4,0:0:0:0:
120,354,23440,2,0,P|103:304|92:212,1,135
143,149,24302,2,0,P|229:140|322:202,1,180
382,236,25337,6,0,B|420:183|426:81,2,135,0|4|0,0:0|3:2|0:0,0:0:0:0:
313,295,26716,1,0,0:0:0:0:
244,236,27061,2,0,P|185:207|92:199,1,135,0|8,0:0|0:0,0:0:0:0:
33,231,27923,2,0,P|10:188|-2:134,1,90,0|8,0:0|0:0,0:0:0:0:
19,60,28613,6,0,P|102:100|200:106,1,180,12|2,3:2|0:1,0:0:0:0:
265,60,29647,1,0,0:0:0:0:
348,25,29992,2,0,P|392:37|458:85,1,90,0|8,0:0|0:0,0:0:0:0:
476,137,30682,6,0,P|517:213|502:328,2,180,0|4|0,0:0|3:2|0:0,0:0:0:0:
431,59,32406,1,8,0:0:0:0:
348,96,32751,2,0,L|188:62,1,135,8|10,3:0|0:3,0:0:0:0:
127,53,33613,1,4,1:2:0:0:
151,185,34130,6,0,P|163:224|182:304,1,90,4|0,0:1|1:0,0:0:0:0:
139,354,34820,2,0,B|109:337|91:306|91:306|3:298,2,135,2|2|0,3:2|3:2|1:0,0:0:0:0:
228,345,36199,2,0,P|257:296|263:231,1,90,2|0,3:2|1:0,0:0:0:0:
235,178,36889,5,2,3:2:0:0:
246,89,37233,2,0,P|296:121|385:140,1,135,8|2,1:0|3:2,0:0:0:0:
448,96,38095,1,4,3:2:0:0:
440,231,38613,2,0,P|464:273|453:352,2,90,4|4|2,1:2|3:2|1:2,0:0:0:0:
380,294,39647,6,0,L|274:277,1,90,4|0,0:0|1:0,0:0:0:0:
205,307,40337,2,0,L|109:326,1,90,2|0,3:2|1:0,0:0:0:0:
52,260,41027,2,0,P|81:174|49:79,1,180,2|2,0:0|3:2,0:0:0:0:
174,20,42233,6,0,P|235:42|304:53,1,135,4|2,0:0|1:2,0:0:0:0:
392,38,43095,2,0,P|414:88|429:136,1,90,2|0,3:1|1:0,0:0:0:0:
400,208,43785,2,0,L|226:171,1,135,4|4,3:2|3:2,0:0:0:0:
179,165,44647,1,2,3:1:0:0:
74,79,45164,5,4,3:2:0:0:
93,258,45854,2,0,P|156:295|231:303,2,135,8|2|2,0:0|0:1|3:2,0:0:0:0:
82,168,47233,2,0,L|72:57,1,90,8|2,0:0|3:2,0:0:0:0:
148,27,47923,6,0,P|210:50|291:61,1,135,4|2,0:0|0:0,0:0:0:0:
361,27,48785,1,2,0:0:0:0:
351,116,49130,2,0,L|338:229,2,90,4|8|12,3:2|0:0|3:2,0:0:0:0:
434,81,50164,1,4,3:1:0:0:
424,215,50682,6,0,L|409:332,1,90,2|8,3:2|0:0,0:0:0:0:
333,346,51371,2,0,P|269:367|173:378,2,135,8|2|2,0:0|3:2|3:2,0:0:0:0:
279,273,52751,2,0,L|173:256,1,90,8|10,0:0|3:2,0:0:0:0:
120,315,53440,6,0,P|103:266|116:199,1,90,4|8,0:0|0:0,0:0:0:0:
143,146,54130,2,0,P|90:185|-6:191,2,135,8|4|10,0:0|0:0|0:1,0:0:0:0:
192,70,55509,1,12,0:0:0:0:
260,128,55854,1,10,0:1:0:0:
337,82,56199,6,0,P|401:101|471:161,2,135,4|4|2,1:2|1:2|1:1,0:0:0:0:
260,128,57578,2,0,L|285:335,1,180,8|0,3:2|1:0,0:0:0:0:
397,376,58785,6,0,L|415:223,1,135,6|0,0:0|1:0,0:0:0:0:
379,158,59647,2,0,P|438:196|523:218,2,135,2|2|0,3:2|3:2|1:0,0:0:0:0:
307,102,61027,2,0,P|264:114|194:148,1,90,2|0,3:2|1:0,0:0:0:0:
158,195,61716,6,0,P|86:172|36:107,1,135,2|2,3:1|0:1,0:0:0:0:
63,41,62578,1,2,3:2:0:0:
153,43,62923,2,0,P|196:29|261:18,1,90,2|2,3:1|3:2,0:0:0:0:
329,17,63613,2,0,P|392:32|453:69,1,135,4|0,0:0|1:0,0:0:0:0:
463,157,64475,6,0,L|434:329,2,135,2|4|0,0:1|3:2|1:0,0:0:0:0:
380,120,65854,2,0,L|352:285,2,135,4|4|0,3:2|0:0|1:0,0:0:0:0:
308,64,67233,6,0,L|186:96,1,90,2|0,3:1|1:0,0:0:0:0:
146,138,67923,2,0,P|93:97|58:29,2,135,2|2|0,3:2|3:1|1:0,0:0:0:0:
227,175,69302,1,2,3:0:0:0:
131,272,69820,6,0,P|186:309|275:306,1,135,6|0,0:0|1:0,0:0:0:0:
329,264,70682,2,0,P|395:269|449:309,2,135,2|4|0,3:2|3:2|1:0,0:0:0:0:
248,223,72061,2,0,P|234:178|229:111,1,90,2|2,3:2|1:1,0:0:0:0:
278,60,72751,6,0,L|139:100,1,135,4|2,0:0|0:1,0:0:0:0:
61,72,73613,1,4,3:2:0:0:
82,159,73958,2,0,L|113:266,1,90,4|2,0:0|1:1,0:0:0:0:
22,275,74647,2,0,L|57:390,1,90,4|2,3:2|1:1,0:0:0:0:
173,310,75509,6,0,P|215:285|317:258,1,135,4|2,0:0|0:1,0:0:0:0:
386,271,76371,1,2,0:0:0:0:
425,190,76716,2,0,P|438:145|448:88,2,90,2|8|2,0:1|1:0|0:1,0:0:0:0:
339,172,77751,1,4,0:2:0:0:
243,76,78268,6,0,L|139:104,1,90,4|4,3:2|3:2,0:0:0:0:
67,115,78958,2,0,P|93:156|109:213,1,90,4|2,3:2|1:0,0:0:0:0:
89,283,79647,2,0,L|233:243,1,135,2|0,3:0|1:0,0:0:0:0:
301,283,80509,2,0,P|317:214|327:131,1,135,2|6,0:1|3:2,0:0:0:0:
256,192,81371,12,6,83785,1:2:0:0:
120,284,85164,6,0,L|240:310,1,90,2|4,3:1|1:2,0:0:0:0:
261,230,85854,2,0,L|363:253,1,90,2|0,3:2|1:0,0:0:0:0:
420,304,86544,6,0,P|436:258|447:168,1,135,4|2,3:2|3:2,0:0:0:0:
394,99,87406,2,0,P|374:58|366:5,2,90,2|2|2,3:2|3:2|3:2,0:0:0:0:
325,157,88440,2,0,L|201:128,1,90,2|2,0:0|3:2,0:0:0:0:
151,109,89130,6,0,P|165:172|181:258,1,135,2|8,0:1|1:2,0:0:0:0:
229,315,89992,2,0,L|352:348,1,90,0|0,1:0|1:0,0:0:0:0:
402,313,90682,2,0,P|418:268|427:191,1,90,2|8,3:1|0:0,0:0:0:0:
376,151,91371,2,0,L|272:171,1,90,0|8,1:2|1:2,0:0:0:0:
209,123,92061,5,4,3:2:0:0:
193,211,92406,2,0,P|166:274|61:288,1,180,0|0,1:0|1:0,0:0:0:0:
45,201,93440,2,0,P|58:151|64:108,1,90,2|0,0:0|1:0,0:0:0:0:
136,58,94130,2,0,P|177:77|232:89,1,90,2|0,3:2|1:0,0:0:0:0:
307,64,94820,6,0,P|352:41|406:26,1,90,2|0,3:2|1:0,0:0:0:0:
435,106,95509,2,0,L|403:242,2,135,2|2|0,0:0|3:2|1:0,0:0:0:0:
505,163,96889,2,0,L|477:289,1,90,2|8,3:2|1:0,0:0:0:0:
428,321,97578,6,0,P|382:339|333:344,1,90,4|0,0:1|1:0,0:0:0:0:
268,292,98268,2,0,L|248:192,1,90,2|2,3:2|1:2,0:0:0:0:
219,118,98958,2,0,B|183:136|166:166|166:166|121:184|121:184|69:247,1,180,2|2,0:0|0:0,0:0:0:0:
41,309,99992,1,0,1:0:0:0:
107,370,100337,6,0,L|199:346,1,90,2|0,0:0|1:0,0:0:0:0:
269,297,101027,2,0,L|389:330,1,90,2|0,0:0|1:0,0:0:0:0:
435,363,101716,2,0,L|455:274,1,90,2|0,3:2|1:0,0:0:0:0:
409,196,102406,2,0,L|394:88,1,90,0|0,1:0|1:0,0:0:0:0:
374,19,103095,5,4,0:1:0:0:
304,76,103440,2,0,P|228:38|114:37,1,180,0|0,1:0|1:0,0:0:0:0:
72,98,104475,2,0,P|87:141|103:203,1,90,2|0,0:0|1:0,0:0:0:0:
96,273,105164,2,0,P|130:290|203:311,1,90,2|0,3:2|1:0,0:0:0:0:
262,271,105854,6,0,P|330:238|428:233,1,135,2|2,0:0|0:0,0:0:0:0:
470,266,106716,1,2,3:2:0:0:
507,183,107061,2,0,P|517:119|508:26,1,135,2|0,3:1|1:0,0:0:0:0:
429,15,107923,2,0,L|322:39,1,90,0|4,3:0|1:2,0:0:0:0:
257,68,108613,6,0,P|280:114|289:166,1,90,4|0,3:2|1:0,0:0:0:0:
223,214,109302,2,0,P|203:258|194:315,1,90,2|0,0:0|1:0,0:0:0:0:
252,367,109992,2,0,L|432:322,1,180,2|2,3:2|3:2,0:0:0:0:
497,208,111199,6,0,P|505:138|512:69,1,135,4|0,0:0|1:0,0:0:0:0:
452,5,112061,2,0,P|406:32|349:47,1,90,2|0,3:2|1:0,0:0:0:0:
280,42,112751,2,0,L|122:14,1,135,4|2,3:2|3:1,0:0:0:0:
58,32,113613,1,4,3:2:0:0:
33,164,114130,5,4,3:2:0:0:
155,295,114820,2,0,P|192:243|205:157,2,135,8|2|2,0:0|3:1|3:2,0:0:0:0:
231,342,116199,2,0,L|359:310,1,90,8|2,0:0|3:2,0:0:0:0:
386,261,116889,6,0,P|412:203|423:117,1,135,4|2,3:2|0:0,0:0:0:0:
405,44,117751,1,2,3:2:0:0:
344,111,118096,2,0,P|309:142|257:163,2,90,4|8|12,0:0|0:0|0:0,0:0:0:0:
316,25,119130,1,4,3:1:0:0:
188,70,119647,6,0,P|142:57|98:34,1,90,2|2,3:2|3:2,0:0:0:0:
75,123,120337,2,0,P|96:182|114:285,2,135,8|2|2,0:0|3:2|3:2,0:0:0:0:
3,178,121716,2,0,P|17:223|30:298,1,90,8|2,0:0|3:2,0:0:0:0:
44,353,122406,6,0,P|93:370|141:377,1,90,12|10,0:0|0:0,0:0:0:0:
209,320,123095,2,0,P|232:252|243:158,2,135,12|4|10,0:0|0:0|0:0,0:0:0:0:
126,284,124474,1,10,0:0:0:0:
93,200,124819,1,2,0:1:0:0:
147,128,125164,6,0,P|204:83|283:80,2,135,4|4|2,1:2|1:2|1:1,0:0:0:0:
254,210,126716,2,0,L|400:177,1,135,2|4,0:1|0:0,0:0:0:0:
469,285,127751,6,0,L|319:320,1,135,6|0,0:0|1:0,0:0:0:0:
255,352,128613,2,0,P|199:313|118:304,2,135,2|2|0,3:2|3:2|1:0,0:0:0:0:
276,264,129992,2,0,P|284:219|289:157,1,90,2|0,3:2|1:0,0:0:0:0:
333,97,130682,6,0,P|279:127|183:138,1,135,2|2,3:1|0:1,0:0:0:0:
130,95,131544,1,2,3:2:0:0:
103,180,131889,2,0,P|89:227|83:294,1,90,2|2,3:1|3:2,0:0:0:0:
140,337,132579,2,0,L|283:308,1,135,4|0,0:0|1:0,0:0:0:0:
335,246,133441,6,0,P|357:182|367:76,2,135,2|4|0,0:1|3:2|1:0,0:0:0:0:
401,306,134820,2,0,P|430:246|447:171,2,135,4|4|0,3:2|0:0|1:0,0:0:0:0:
314,332,136199,6,0,L|200:309,1,90,2|0,3:1|1:0,0:0:0:0:
156,255,136889,2,0,P|140:190|99:106,2,135,2|2|0,3:2|3:1|1:0,0:0:0:0:
131,341,138268,1,2,3:0:0:0:
250,277,138785,6,0,P|279:214|305:118,1,135,6|0,0:0|1:0,0:0:0:0:
360,86,139647,2,0,P|390:146|408:244,2,135,2|4|0,3:2|3:2|1:0,0:0:0:0:
281,40,141027,2,0,L|163:68,1,90,2|2,3:2|1:1,0:0:0:0:
107,35,141716,6,0,P|79:97|77:194,1,135,4|2,3:2|0:1,0:0:0:0:
100,248,142578,1,4,3:2:0:0:
180,208,142923,2,0,L|308:236,1,90,4|2,3:2|1:0,0:0:0:0:
224,306,143613,2,0,L|120:337,1,90,4|2,3:2|1:0,0:0:0:0:
24,258,144475,6,0,P|57:190|51:106,1,135,4|2,0:0|0:0,0:0:0:0:
29,46,145337,1,2,0:1:0:0:
115,21,145682,2,0,P|167:33|217:56,1,90,4|0,0:0|1:0,0:0:0:0:
281,87,146371,2,0,P|328:68|376:35,1,90,2|4,0:1|0:0,0:0:0:0:
462,138,147233,6,0,P|444:179|432:222,1,90,4|4,3:2|3:2,0:0:0:0:
413,310,147922,1,4,3:2:0:0:
334,266,148268,1,4,1:2:0:0:
284,340,148613,2,0,P|221:333|131:303,1,135,4|0,1:2|1:0,0:0:0:0:
117,229,149475,2,0,P|133:172|147:88,1,135,2|4,0:1|0:0,0:0:0:0:
256,192,150164,12,4,152751,0:0:0:0:
256,192,161027,5,8,3:2:0:0:
302,115,161371,1,10,3:2:0:0:
228,62,161716,2,0,P|184:78|129:87,1,90,10|10,3:2|3:2,0:0:0:0:
56,56,162406,2,0,L|78:166,1,90,10|10,3:2|3:2,0:0:0:0:
158,173,163095,2,0,L|138:287,1,90,10|10,3:2|3:2,0:0:0:0:
150,351,163785,6,0,P|191:331|236:317,1,90,10|8,3:1|3:2,0:0:0:0:
323,318,164475,2,0,P|369:340|426:354,1,90,10|10,3:2|3:2,0:0:0:0:
483,304,165164,2,0,P|497:269|507:202,2,90,12|10|12,3:2|3:2|3:2,0:0:0:0:
402,263,166199,1,8,3:2:0:0:
435,179,166544,6,0,P|400:60|270:61,1,270,10|12,3:1|3:2,0:0:0:0:
199,113,167923,2,0,P|144:97|88:51,1,90,12|12,3:2|3:2,0:0:0:0:
52,143,168613,2,0,P|69:183|85:248,1,90,10|8,3:1|3:2,0:0:0:0:
74,317,169302,6,0,P|25:292|-40:281,2,90,12|10|10,3:2|3:1|3:2,0:0:0:0:
146,370,170337,1,10,3:2:0:0:
210,306,170682,2,0,P|236:234|244:160,1,135,2|2,3:1|1:2,0:0:0:0:
240,86,171544,1,6,1:3:0:0:
359,151,172061,6,0,P|373:95|383:29,1,90,4|0,3:2|1:0,0:0:0:0:
455,110,172751,2,0,P|466:157|473:215,1,90,2|0,3:2|1:0,0:0:0:0:
397,249,173440,2,0,P|339:216|241:214,2,135,4|2|0,3:2|3:2|1:0,0:0:0:0:
399,339,174820,6,0,P|357:360|291:369,1,90,2|0,3:1|1:0,0:0:0:0:
226,354,175509,2,0,P|190:296|199:201,2,135,4|2|4,3:2|0:1|1:2,0:0:0:0:
291,292,176889,2,0,P|305:237|308:162,1,90,2|0,3:2|1:0,0:0:0:0:
247,138,177578,6,0,P|178:198|77:207,1,180,4|2,3:2|3:2,0:0:0:0:
50,130,178613,2,0,P|119:70|220:61,1,180,0|2,1:0|1:0,0:0:0:0:
293,70,179647,1,2,0:0:0:0:
367,19,179992,1,4,1:2:0:0:
449,56,180337,6,0,P|468:97|486:167,1,90,2|4,0:1|1:2,0:0:0:0:
489,229,181027,2,0,P|481:275|460:335,1,90,10|2,0:0|1:2,0:0:0:0:
389,360,181716,2,0,P|319:306|206:305,1,180,4|2,3:2|0:1,0:0:0:0:
109,354,182923,6,0,L|81:183,1,135,4|0,0:0|1:0,0:0:0:0:
116,135,183785,2,0,P|63:178|-16:194,2,135,2|4|2,3:2|0:0|1:2,0:0:0:0:
180,72,185164,2,0,L|309:97,1,90,2|0,3:2|1:0,0:0:0:0:
350,51,185854,6,0,P|366:102|374:211,1,135,4|4,0:1|0:1,0:0:0:0:
353,270,186716,1,2,3:2:0:0:
300,343,187062,2,0,P|252:335|180:306,1,90,4|2,0:1|3:2,0:0:0:0:
132,362,187751,2,0,L|106:194,1,135,4|0,0:1|1:0,0:0:0:0:
142,144,188613,6,0,P|93:189|27:199,2,135,2|4|0,3:1|3:2|1:0,0:0:0:0:
201,76,189992,2,0,P|263:51|345:99,2,135,2|4|0,3:1|0:0|1:0,0:0:0:0:
224,162,191371,6,0,L|249:272,1,90,4|0,0:0|1:0,0:0:0:0:
234,339,192062,2,0,P|186:320|163:208,2,135,2|6|0,3:2|0:0|1:0,0:0:0:0:
315,302,193440,1,0,1:0:0:0:
235,192,193958,6,0,P|179:153|81:172,1,135,6|4,0:0|1:0,0:0:0:0:
42,94,194820,2,0,L|64:228,2,135,2|2|0,3:2|3:2|1:0,0:0:0:0:
110,35,196199,2,0,P|151:54|207:63,1,90,2|2,3:2|1:0,0:0:0:0:
282,40,196889,6,0,P|350:56|415:115,1,135,4|2,3:2|0:1,0:0:0:0:
436,177,197751,1,2,3:2:0:0:
443,266,198095,2,0,P|426:309|367:362,1,90,2|2,0:1|3:2,0:0:0:0:
312,313,198785,2,0,P|250:280|149:269,1,135,4|0,3:2|1:0,0:0:0:0:
114,213,199647,6,0,L|140:352,2,135,2|4|0,0:1|3:2|1:0,0:0:0:0:
26,190,201027,2,0,L|53:337,2,135,4|4|0,3:2|0:0|1:0,0:0:0:0:
85,122,202406,6,0,L|198:144,1,90,2|0,0:1|1:0,0:0:0:0:
260,116,203095,2,0,P|286:71|380:40,2,135,2|4|0,3:2|0:0|1:0,0:0:0:0:
235,202,204474,1,2,1:0:0:0:
251,336,204992,6,0,P|211:286|116:290,1,135,6|0,0:0|1:0,0:0:0:0:
70,226,205854,2,0,P|99:297|94:373,2,135,2|4|0,3:1|3:2|1:0,0:0:0:0:
27,146,207233,2,0,P|2:108|5:40,1,90,2|2,3:2|1:0,0:0:0:0:
87,84,207923,6,0,L|219:107,1,135,4|2,0:0|0:1,0:0:0:0:
293,54,208785,1,4,3:2:0:0:
321,139,209130,2,0,L|296:267,2,90,2|12|4,3:1|1:2|3:2,0:0:0:0:
408,119,210164,6,0,L|384:265,1,135,6|6,1:2|3:2,0:0:0:0:
320,314,211027,2,0,P|264:343|181:346,1,135,2|2,0:0|0:0,0:0:0:0:
127,286,211889,2,0,L|100:120,2,135,2|2|4,3:1|0:0|3:2,0:0:0:0:
226,193,213440,5,4,3:2:0:0:
288,128,213785,1,4,1:2:0:0:
369,166,214130,2,0,P|383:112|392:40,1,90,4|4,1:2|0:0,0:0:0:0:
309,34,214820,2,0,L|136:69,1,135,4|2,0:0|0:1,0:0:0:0:
90,35,215682,1,2,1:1:0:0:
47,114,216027,6,0,P|22:205|97:333,1,225,4|0,0:0|1:0,0:0:0:0:
149,204,217406,2,0,L|312:247,1,135,4|2,0:0|0:0,0:0:0:0:
362,202,218268,1,0,1:0:0:0:
406,280,218613,1,2,0:0:0:0:
465,212,218958,6,0,P|486:164|496:98,1,90,2|2,3:1|0:0,0:0:0:0:
414,85,219647,2,0,L|273:126,2,135,2|4|2,1:2|1:2|1:1,0:0:0:0:
352,17,221027,2,0,L|234:52,1,90,0|2,1:0|1:2,0:0:0:0:
190,91,221716,5,6,0:0:0:0:
117,37,222061,1,4,1:2:0:0:
86,121,222406,2,0,P|100:167|118:243,1,90,2|4,0:0|1:2,0:0:0:0:
129,295,223095,2,0,L|-25:251,2,135,2|4|0,0:1|0:0|1:0,0:0:0:0:
206,342,224475,6,0,P|220:302|225:240,1,90,4|4,0:0|1:2,0:0:0:0:
176,179,225164,2,0,P|162:133|157:54,1,90,4|4,3:2|1:2,0:0:0:0:
205,15,225854,2,0,L|421:60,1,180,0|2,3:0|1:0,0:0:0:0:
476,207,227233,6,0,P|409:222|332:260,1,135,6|2,3:2|0:1,0:0:0:0:
230,315,228268,2,0,P|166:301|97:271,1,135,4|2,1:2|0:1,0:0:0:0:
10,174,229302,1,4,3:2:0:0:
53,95,229647,1,2,1:0:0:0:
135,59,229992,6,0,L|252:82,1,90,4|10,0:0|1:0,0:0:0:0:
301,121,230682,2,0,L|394:104,1,90,2|0,3:2|1:0,0:0:0:0:
476,83,231371,2,0,B|455:187,1,90,2|4,0:1|1:2,0:0:0:0:
370,193,232061,2,0,L|391:304,1,90,2|0,3:2|1:0,0:0:0:0:
405,369,232751,5,4,3:2:0:0:
319,341,233095,2,0,P|250:320|154:313,1,135,2|2,1:0|3:1,0:0:0:0:
101,340,233958,2,0,P|87:300|75:237,1,90,2|4,0:1|0:0,0:0:0:0:
128,179,234647,2,0,P|142:137|149:81,1,90,2|2,0:0|3:2,0:0:0:0:
95,18,235337,6,0,L|243:54,1,135,4|0,3:2|1:0,0:0:0:0:
312,23,236199,2,0,P|366:60|352:145,1,135,2|4,0:1|3:2,0:0:0:0:
334,208,237061,1,2,0:1:0:0:
244,196,237406,2,0,L|131:174,1,90,6|2,3:2|1:0,0:0:0:0:
37,244,238268,6,0,B|7:135,2,90,2|2|0,0:1|1:2|3:0,0:0:0:0:
66,329,239302,1,0,1:0:0:0:
145,285,239647,2,0,P|194:331|274:347,2,135,2|2|0,0:1|0:1|1:0,0:0:0:0:
166,197,241027,6,0,P|183:158|194:105,1,90,2|2,3:1|1:2,0:0:0:0:
267,60,241716,2,0,L|372:89,1,90,2|0,3:2|1:0,0:0:0:0:
443,75,242406,2,0,P|481:93|498:180,1,135,2|4,3:1|3:2,0:0:0:0:
448,252,243268,1,6,0:0:0:0:
330,319,243785,6,0,L|187:289,1,135,6|4,0:0|3:2,0:0:0:0:
120,336,244647,2,0,L|31:317,2,90,4|4|4,3:2|3:2|3:2,0:0:0:0:
120,245,245682,2,0,P|106:195|103:129,1,90,4|2,0:0|3:2,0:0:0:0:
172,100,246371,2,0,P|252:134|381:153,1,180,2|0,0:1|1:0,0:0:0:0:
431,131,247406,2,0,L|394:290,1,135,0|2,1:0|1:0,0:0:0:0:
145,184,249303,6,0,P|103:122|104:46,2,135,4|2|8,3:2|0:1|0:0,0:0:0:0:
225,141,250682,2,0,P|276:94|347:76,2,135,8|2|8,0:0|0:1|0:0,0:0:0:0:
224,231,252061,6,0,P|237:283|314:331,2,135,8|2|8,3:2|0:1|0:0,0:0:0:0:
314,238,253440,2,0,L|428:270,1,90,8|8,0:0|0:0,0:0:0:0:
427,176,254130,2,0,L|336:152,1,90,10|4,0:0|0:0,0:0:0:0:
249,154,254820,6,0,L|225:15,2,135,12|2|8,3:2|0:1|0:0,0:0:0:0:
177,209,256199,2,0,L|148:63,2,135,8|2|8,3:2|0:1|0:0,0:0:0:0:
218,289,257578,6,0,P|177:253|73:239,2,135,8|2|2,3:2|0:1|0:1,0:0:0:0:
288,344,258958,2,0,L|392:317,1,90,12|8,0:0|0:0,0:0:0:0:
431,251,259647,2,0,P|450:192|457:104,1,135,8|6,0:0|0:0,0:0:0:0:
