osu file format v14

[General]
AudioFilename: audio.mp3
AudioLeadIn: 0
PreviewTime: 49695
Countdown: 0
SampleSet: Soft
StackLeniency: 0.4
Mode: 0
LetterboxInBreaks: 0
WidescreenStoryboard: 1

[Editor]
Bookmarks: 7467,12521,13173,15782,26217,36652,41869,44478,48391,49695,60130,67956,73173,75782,79695,90130,100565
DistanceSpacing: 0.7
BeatDivisor: 4
GridSize: 16
TimelineZoom: 1.450001

[Metadata]
Title:Have a live day
TitleUnicode:Have a live day
Artist:Ceui
ArtistUnicode:Ceui
Creator:WHchild
Version:Normal
Source:白恋サクラ*グラム
Tags:Shirokoi Sakura*Gram Eternal snow blooming season of love NanaWind Opening Short Version Japanese Eroge Visual Novel Videogame SONO MAKERS 小高光太郎 石倉誉之 永原さくら Sakura Nagahara Ishikura Takayuki Kotaro Odaka pop
BeatmapID:3576398
BeatmapSetID:1732413

[Difficulty]
HPDrainRate:4
CircleSize:3
OverallDifficulty:4
ApproachRate:5
SliderMultiplier:1
SliderTickRate:1

[Events]
//Background and Video events
0,0,"bg.jpg",0,0
//Break Periods
//Storyboard Layer 0 (Background)
//Storyboard Layer 1 (Fail)
//Storyboard Layer 2 (Pass)
//Storyboard Layer 3 (Foreground)
//Storyboard Layer 4 (Overlay)
//Storyboard Sound Samples

[TimingPoints]
2739,326.086956521739,4,2,1,30,1,0
2739,-111.111111111111,4,2,1,30,0,0
7467,-111.111111111111,4,2,1,65,0,0
13173,-111.111111111111,4,2,1,50,0,0
15782,-111.111111111111,4,2,1,35,0,0
25728,-111.111111111111,4,2,1,55,0,0
34043,-111.111111111111,4,2,1,70,0,0
36652,-111.111111111111,4,2,1,60,0,0
44478,-111.111111111111,4,2,1,70,0,0
47086,-111.111111111111,4,2,1,65,0,0
48391,-111.111111111111,4,2,1,55,0,0
49695,-100,4,2,1,80,0,1
60130,-100,4,2,1,85,0,1
67956,-100,4,2,1,75,0,1
73173,-100,4,2,1,85,0,1
75782,-105.263157894737,4,2,1,85,0,0
76108,-105.263157894737,4,2,1,50,0,0
79695,-111.111111111111,4,2,1,65,0,0
90130,-100,4,2,1,85,0,1
100565,-100,4,2,1,60,0,0

[Colours]
Combo1 : 143,87,153
Combo2 : 245,226,222
Combo3 : 85,62,91

[HitObjects]
205,42,2739,6,0,P|197:106|251:141,1,134.999995880127,2|2,0:2|0:2,0:0:0:0:
230,247,3554,2,0,L|185:272,2,44.999998626709,2|2|2,0:2|0:2|0:2,0:0:0:0:
282,258,4043,2,0,B|327:234|327:234|359:236|359:236|410:204,2,134.999995880127,2|2|2,0:2|0:2|0:2,0:0:0:0:
232,353,5347,6,0,P|167:374|102:324,1,134.999995880127,2|2,0:2|0:2,0:0:0:0:
27,276,6162,2,0,L|-9:322,2,44.999998626709,2|2|2,0:2|0:2|0:2,0:0:0:0:
19,222,6652,2,0,B|56:185|56:185|60:156|60:156|99:119,1,134.999995880127,2|2,0:2|0:2,0:0:0:0:
206,125,7467,2,0,L|244:89,1,44.999998626709,2|10,1:2|0:2,0:0:0:0:
346,92,7956,6,0,P|322:18|225:1,1,179.999994506836,6|2,0:2|0:3,0:0:0:0:
143,63,8934,1,2,0:2:0:0:
44,18,9260,2,0,L|28:118,1,89.9999972534181,8|2,0:2|0:2,0:0:0:0:
100,188,9912,2,0,L|116:288,1,89.9999972534181,2|4,0:2|0:3,0:0:0:0:
71,376,10565,6,0,P|111:362|163:375,1,89.9999972534181,10|0,0:2|1:2,0:0:0:0:
202,342,11054,2,0,L|275:265,1,89.9999972534181,8|2,0:2|1:2,0:0:0:0:
312,253,11543,1,10,0:2:0:0:
312,253,11706,6,0,P|295:188|323:128,1,134.999995880127,2|2,1:2|1:2,0:0:0:0:
401,200,12521,2,0,L|457:271,1,89.9999972534181,10|10,0:2|0:2,0:0:0:0:
390,356,13173,5,6,1:2:0:0:
390,356,14478,2,0,P|348:301|351:237,1,134.999995880127,2|8,0:0|0:3,0:0:0:0:
442,179,15293,1,4,0:3:0:0:
442,179,15456,2,0,L|425:127,1,44.999998626709,4|0,0:3|0:0,0:0:0:0:
442,84,15782,6,0,B|408:24|326:45|326:45|247:68|209:2,1,269.999991760254,2|2,0:2|0:2,0:0:0:0:
134,79,17086,2,0,B|136:120|136:120|107:177,1,89.9999972534181,2|2,0:2|0:2,0:0:0:0:
133,213,17575,2,0,B|131:254|131:254|160:311,1,89.9999972534181,2|2,0:2|0:2,0:0:0:0:
58,349,18228,6,0,B|147:326|147:326|193:343|193:343|275:327,1,224.999993133545,2|0,0:2|0:0,0:0:0:0:
375,367,19369,1,2,0:2:0:0:
376,259,19695,2,0,P|324:207|219:220,1,179.999994506836,2|2,0:2|0:2,0:0:0:0:
57,78,20999,6,0,B|140:33|140:33|306:116,1,269.999991760254,2|2,0:2|0:2,0:0:0:0:
375,37,22304,1,2,0:2:0:0:
399,142,22630,2,0,P|368:179|346:225,2,89.9999972534181,2|2|2,0:2|0:2|0:2,0:0:0:0:
475,66,23608,6,0,P|450:149|495:224,1,179.999994506836,2|0,0:2|0:0,0:0:0:0:
442,379,24749,1,2,0:2:0:0:
442,379,24912,2,0,P|379:356|299:338,1,134.999995880127,2|2,0:2|0:2,0:0:0:0:
211,368,25728,1,2,1:2:0:0:
211,368,25891,2,0,P|172:376|141:376,1,44.999998626709,8|0,0:2|0:0,0:0:0:0:
155,323,26217,6,0,P|192:237|271:238,1,179.999994506836,2|0,1:2|1:0,0:0:0:0:
349,165,27195,1,2,1:2:0:0:
289,78,27521,2,0,L|164:101,1,89.9999972534181,2|2,1:2|1:2,0:0:0:0:
164,53,28010,2,0,L|58:32,1,89.9999972534181,2|2,0:2|0:2,0:0:0:0:
42,138,28662,6,0,B|45:225|45:225|13:256|13:256|16:349,1,224.999993133545,2|0,0:2|1:2,0:0:0:0:
108,291,29804,1,2,1:2:0:0:
201,344,30130,2,0,L|303:316,1,89.9999972534181,2|2,1:2|1:2,0:0:0:0:
323,360,30619,2,0,L|425:388,1,89.9999972534181,2|2,0:2|0:2,0:0:0:0:
395,276,31271,6,0,P|348:227|285:206,1,134.999995880127,2|0,0:2|1:0,0:0:0:0:
176,216,32086,2,0,P|162:174|162:129,1,89.9999972534181,2|2,1:2|1:2,0:0:0:0:
216,35,32738,2,0,L|328:65,1,89.9999972534181,2|2,1:2|1:2,0:0:0:0:
332,103,33228,2,0,L|418:79,1,89.9999972534181,2|2,0:2|0:2,0:0:0:0:
481,173,33880,5,2,0:2:0:0:
481,173,34043,2,0,L|395:197,1,89.9999972534181,6|10,1:2|0:2,0:0:0:0:
372,246,34532,2,0,P|324:263|296:316,1,89.9999972534181,2|2,1:2|1:2,0:0:0:0:
255,317,35021,1,10,0:2:0:0:
255,317,35184,2,0,P|189:303|164:232,1,134.999995880127,6|8,1:2|0:0,0:0:0:0:
187,140,35999,2,0,L|83:106,1,89.9999972534181,8|8,0:0|0:0,0:0:0:0:
110,62,36488,5,2,0:2:0:0:
109,62,36652,2,0,P|141:41|209:37,1,89.9999972534181,6|2,1:2|0:2,0:0:0:0:
235,64,37141,2,0,P|279:58|317:35,1,89.9999972534181,2|2,1:2|0:2,0:0:0:0:
425,39,37793,2,0,L|401:193,1,134.999995880127,2|2,0:2|0:2,0:0:0:0:
418,224,38445,2,0,P|448:281|419:340,1,134.999995880127,2|0,1:2|1:0,0:0:0:0:
368,353,39097,1,0,1:0:0:0:
368,353,39260,6,0,L|262:320,1,89.9999972534181,6|2,1:2|0:2,0:0:0:0:
256,278,39749,2,0,P|256:231|219:190,1,89.9999972534181,2|2,1:2|0:2,0:0:0:0:
303,116,40402,2,0,B|356:124|356:124|384:113|384:113|434:119,1,134.999995880127,2|2,1:2|1:2,0:0:0:0:
446,66,41054,2,0,P|420:33|348:15,1,89.9999972534181,2|0,1:2|1:0,0:0:0:0:
324,30,41543,2,0,P|273:36|218:12,1,89.9999972534181,2|6,1:2|0:2,0:0:0:0:
110,199,42521,6,0,L|133:100,1,89.9999972534181,2|2,0:2|0:2,0:0:0:0:
44,46,43173,2,0,P|84:24|139:24,1,89.9999972534181,2|2,0:2|0:2,0:0:0:0:
177,42,43662,1,2,0:2:0:0:
277,3,43988,2,0,L|356:44,1,89.9999972534181,2|2,0:2|1:2,0:0:0:0:
408,30,44478,6,0,P|453:31|490:56,1,89.9999972534181,14|0,0:2|1:0,0:0:0:0:
482,108,44967,2,0,P|452:175|466:217,1,89.9999972534181,12|0,0:0|1:0,0:0:0:0:
488,230,45456,1,12,0:0:0:0:
406,300,45782,1,2,1:2:0:0:
406,300,45945,2,0,L|282:335,1,89.9999972534181,12|2,0:0|1:2,0:0:0:0:
274,354,46434,2,0,L|174:325,1,89.9999972534181,12|12,0:0|0:0,0:0:0:0:
117,246,47086,1,4,0:0:0:0:
218,209,47412,6,0,L|288:192,2,44.999998626709,8|8|8,0:0|0:0|0:0,0:0:0:0:
178,171,47902,2,0,L|108:154,2,44.999998626709,0|8|2,1:0|0:0|1:2,0:0:0:0:
355,121,49695,6,0,P|385:83|451:65,1,100,6|10,1:2|0:2,0:0:0:0:
481,99,50184,2,0,L|491:163,1,50,2|0,0:2|1:0,0:0:0:0:
494,208,50510,1,2,1:2:0:0:
437,313,50836,2,0,L|321:305,1,100,2|2,0:2|1:2,0:0:0:0:
284,290,51325,1,10,0:2:0:0:
284,290,51488,1,2,1:2:0:0:
197,373,51815,2,0,L|98:358,1,100,2|2,1:2|0:2,0:0:0:0:
76,302,52304,6,0,P|68:252|84:189,2,100,2|8|0,1:2|0:0|1:0,0:0:0:0:
183,248,53282,1,10,0:2:0:0:
183,248,53445,2,0,P|228:248|281:262,1,100,2|0,1:2|1:0,0:0:0:0:
336,238,53934,1,10,0:2:0:0:
437,302,54260,2,0,P|452:275|456:250,1,50,2|0,1:2|1:0,0:0:0:0:
444,197,54586,1,10,0:2:0:0:
501,94,54912,6,0,L|470:-1,1,100,6|8,0:2|0:0,0:0:0:0:
411,12,55402,1,2,0:2:0:0:
411,12,55565,2,0,P|359:47|300:59,1,100,2|10,1:2|0:2,0:0:0:0:
269,83,56054,1,2,1:2:0:0:
146,66,56380,2,0,P|125:91|119:119,1,50,2|8,1:2|0:0,0:0:0:0:
135,165,56706,2,0,B|135:201|135:201|146:229|146:229|146:267,1,100,2|2,1:2|1:2,0:0:0:0:
130,320,57195,1,10,0:2:0:0:
23,264,57521,6,0,P|5:217|13:168,1,100,2|10,1:2|0:2,0:0:0:0:
46,118,58010,1,2,0:2:0:0:
134,37,58336,2,0,P|160:41|185:59,1,50,2|8,1:2|0:0,0:0:0:0:
205,108,58662,2,0,L|215:229,1,100,6|2,1:2|1:2,0:0:0:0:
261,252,59152,1,10,0:2:0:0:
261,252,59315,2,0,L|247:371,1,100,6|0,1:2|1:0,0:0:0:0:
197,380,59804,1,8,1:2:0:0:
138,275,60130,5,6,1:2:0:0:
28,321,60456,1,10,0:2:0:0:
28,321,60619,2,0,L|55:205,1,100,2|2,1:2|1:2,0:0:0:0:
36,170,61108,1,8,0:0:0:0:
36,170,61271,2,0,P|92:133|128:138,1,100,2|2,1:2|0:2,0:0:0:0:
172,167,61760,1,10,0:2:0:0:
172,167,61923,1,2,1:2:0:0:
273,103,62249,2,0,L|373:90,1,100,2|2,1:2|1:2,0:0:0:0:
420,125,62738,6,0,P|431:76|456:33,2,100,14|8|8,0:2|0:0|0:0,0:0:0:0:
317,184,63717,1,10,0:2:0:0:
317,184,63880,2,0,P|334:230|336:280,1,100,2|0,1:2|0:0,0:0:0:0:
301,329,64369,1,10,0:2:0:0:
181,327,64695,2,0,P|146:336|99:356,2,75,10|2|2,0:2|0:2|1:2,0:0:0:0:
210,274,65347,6,0,P|237:233|281:211,1,100,14|8,0:2|0:0,0:0:0:0:
344,225,65836,1,2,1:2:0:0:
344,225,65999,1,10,0:2:0:0:
382,114,66325,1,10,0:2:0:0:
382,114,66488,2,0,L|274:93,1,100,2|0,1:2|0:0,0:0:0:0:
231,124,66978,1,8,0:0:0:0:
174,25,67304,1,8,0:0:0:0:
174,25,67467,2,0,P|153:10|130:1,2,50,2|14|2,1:2|0:2|0:2,0:0:0:0:
143,76,67956,6,0,L|131:178,1,100,6|10,1:2|0:2,0:0:0:0:
92,221,68445,2,0,L|108:322,1,100,2|2,0:2|1:2,0:0:0:0:
160,349,68934,1,10,0:2:0:0:
159,349,69097,2,0,P|229:324|300:346,1,150,2|8,1:2|0:0,0:0:0:0:
408,317,69912,1,0,1:0:0:0:
408,317,70075,2,0,L|460:305,2,50,2|10|2,1:2|0:2|0:2,0:0:0:0:
362,282,70565,6,0,P|330:244|325:195,1,100,6|10,1:2|0:2,0:0:0:0:
373,159,71054,2,0,P|387:113|383:56,1,100,2|2,0:2|1:2,0:0:0:0:
335,37,71543,1,10,0:2:0:0:
335,37,71706,2,0,L|186:54,1,150,2|8,1:2|0:0,0:0:0:0:
125,158,72521,2,0,L|111:220,2,50,0|4|10,1:0|0:3|0:2,0:0:0:0:
75,48,73173,5,6,1:2:0:0:
8,148,73499,1,10,0:2:0:0:
8,148,73662,2,0,L|29:264,1,100,10|10,0:2|0:2,0:0:0:0:
9,307,74152,1,10,0:2:0:0:
8,306,74315,2,0,P|62:356|135:351,1,150,10|8,0:2|0:0,0:0:0:0:
251,313,75130,1,8,0:0:0:0:
251,313,75293,2,0,L|313:344,2,50,10|10|10,0:2|0:2|0:2,0:0:0:0:
237,257,75782,1,14,0:2:0:0:
256,192,76108,12,8,79043,0:0:0:0:
278,238,79695,6,0,P|308:275|327:335,2,89.9999972534181,6|10|2,1:2|0:0|1:2,0:0:0:0:
174,228,80673,1,10,0:0:0:0:
174,228,80836,2,0,P|194:165|252:133,1,134.999995880127,2|10,0:0|0:0,0:0:0:0:
356,162,81652,2,0,P|390:132|403:77,1,89.9999972534181,2|10,0:2|0:2,0:0:0:0:
325,15,82304,6,0,P|280:8|236:16,2,89.9999972534181,2|10|2,1:2|0:2|1:2,0:0:0:0:
279,114,83282,1,10,0:2:0:0:
279,114,83445,2,0,L|147:142,1,134.999995880127,2|10,1:2|0:2,0:0:0:0:
77,59,84260,2,0,P|46:98|38:138,1,89.9999972534181,2|10,1:2|0:2,0:0:0:0:
88,231,84912,6,0,P|140:257|186:313,1,89.9999972534181,6|8,1:2|0:0,0:0:0:0:
171,336,85402,1,2,0:2:0:0:
171,336,85565,2,0,L|125:382,2,44.999998626709,2|2|10,1:2|1:2|0:2,0:0:0:0:
224,334,86054,2,0,P|286:317|340:319,1,89.9999972534181,2|2,1:2|1:2,0:0:0:0:
405,369,86706,2,0,P|427:303|397:235,1,134.999995880127,2|10,0:2|0:2,0:0:0:0:
318,182,87521,6,0,L|214:160,1,89.9999972534181,2|8,1:2|0:0,0:0:0:0:
166,76,88173,2,0,L|254:57,1,89.9999972534181,2|8,1:2|0:0,0:0:0:0:
301,84,88662,1,6,1:2:0:0:
398,38,88988,2,0,L|420:0,2,44.999998626709,10|10|6,0:2|0:2|1:2,0:0:0:0:
398,146,89641,2,0,P|422:191|431:258,1,89.9999972534181,8|8,0:0|0:0,0:0:0:0:
461,280,90130,6,0,P|427:320|338:341,1,100,14|10,0:2|0:2,0:0:0:0:
265,356,90782,2,0,P|221:331|172:329,1,100,10|10,0:2|0:2,0:0:0:0:
118,301,91271,2,0,B|108:253|115:196,1,100,2|0,1:2|0:0,0:0:0:0:
153,155,91760,1,10,0:2:0:0:
264,114,92086,2,0,P|305:85|328:41,1,100,10|10,0:2|0:2,0:0:0:0:
209,13,92738,6,0,L|104:37,1,100,14|10,0:2|0:2,0:0:0:0:
23,117,93391,2,0,L|51:214,1,100,10|10,0:2|0:2,0:0:0:0:
27,268,93880,2,0,P|14:319|52:366,1,100,2|0,1:2|0:0,0:0:0:0:
97,358,94369,1,10,0:2:0:0:
187,279,94695,2,0,L|159:182,1,100,10|10,0:2|0:2,0:0:0:0:
217,79,95347,6,0,P|263:59|312:64,1,100,14|8,0:2|0:0,0:0:0:0:
372,55,95836,1,2,1:2:0:0:
372,55,95999,2,0,L|388:-5,2,50,10|2|10,0:2|1:2|0:2,0:0:0:0:
414,96,96488,1,2,1:2:0:0:
371,207,96815,1,2,0:2:0:0:
470,273,97141,2,0,P|421:329|349:333,1,150,2|10,1:2|0:2,0:0:0:0:
260,252,97956,6,0,L|143:280,1,100,14|8,0:2|0:0,0:0:0:0:
67,348,98608,2,0,L|184:376,1,100,10|8,0:2|0:0,0:0:0:0:
220,349,99097,2,0,P|283:344|335:370,1,100,6|10,1:2|0:2,0:0:0:0:
425,307,99749,2,0,L|394:171,1,100,6|10,1:2|0:2,0:0:0:0:
430,156,100238,2,0,L|414:88,2,50,10|10|6,0:2|0:2|1:2,0:0:0:0:
256,192,100891,12,0,104478,0:0:0:0:
