osu file format v14

[General]
AudioFilename: audio.mp3
AudioLeadIn: 0
PreviewTime: 49592
Countdown: 0
SampleSet: Soft
StackLeniency: 0.4
Mode: 0
LetterboxInBreaks: 0
WidescreenStoryboard: 0

[Editor]
Bookmarks: 258288,260733,262201
DistanceSpacing: 1.2
BeatDivisor: 4
GridSize: 32
TimelineZoom: 1.4

[Metadata]
Title:Have a live day
TitleUnicode:Have a live day
Artist:Ceui
ArtistUnicode:Ceui
Creator:Shizuku-
Version:Insane
Source:白恋サクラ*グラム
Tags:Shirokoi Sakura * Gram 白グラ Shirogra eternal snow blooming season of love NanaWind Koutaro Kotaro Odaka 小高 光太郎 Takayuki Ishikura 石倉誉之 SONO MAKERS Nagahara 永原さくら op opening full ver version eroge vn visual novel video game japanese
BeatmapID:2319114
BeatmapSetID:1109772

[Difficulty]
HPDrainRate:6
CircleSize:3.8
OverallDifficulty:8
ApproachRate:9
SliderMultiplier:1.6
SliderTickRate:1

[Events]
//Background and Video events
0,0,"evsERI01a.jpg",0,0
//Break Periods
2,83705,91872
2,195879,205514
//Storyboard Layer 0 (Background)
//Storyboard Layer 1 (Fail)
//Storyboard Layer 2 (Pass)
//Storyboard Layer 3 (Foreground)
//Storyboard Layer 4 (Overlay)
//Storyboard Sound Samples

[TimingPoints]
2636,326.086956521739,4,2,1,50,1,0
2636,-166.666666666667,4,2,1,50,0,0
7853,-166.666666666667,4,2,1,60,0,0
8831,-166.666666666667,4,2,2,60,0,0
9157,-166.666666666667,4,2,1,60,0,0
10135,-166.666666666667,4,2,2,60,0,0
10462,-100,4,2,1,70,0,0
13070,-166.666666666667,4,2,1,70,0,0
14375,-166.666666666667,4,2,3,70,0,0
14864,-166.666666666667,4,2,1,70,0,0
15679,-166.666666666667,4,2,3,50,0,0
16657,-166.666666666667,4,2,1,50,0,0
16983,-166.666666666667,4,2,3,50,0,0
17472,-166.666666666667,4,2,1,50,0,0
18288,-166.666666666667,4,2,3,50,0,0
19266,-166.666666666667,4,2,1,50,0,0
19592,-166.666666666667,4,2,3,50,0,0
20244,-166.666666666667,4,2,1,50,0,0
20896,-166.666666666667,4,2,3,50,0,0
21875,-166.666666666667,4,2,1,50,0,0
22201,-166.666666666667,4,2,3,50,0,0
22853,-166.666666666667,4,2,1,50,0,0
23505,-166.666666666667,4,2,3,50,0,0
24646,-166.666666666667,4,2,1,50,0,0
24809,-166.666666666667,4,2,3,50,0,0
25135,-166.666666666667,4,2,1,50,0,0
26114,-111.111111111111,4,2,1,70,0,0
27092,-111.111111111111,4,2,3,70,0,0
27907,-111.111111111111,4,2,1,70,0,0
29701,-111.111111111111,4,2,3,70,0,0
30516,-111.111111111111,4,2,1,70,0,0
31331,-111.111111111111,4,2,3,70,0,0
31820,-111.111111111111,4,2,1,70,0,0
32635,-111.111111111111,4,2,3,70,0,0
33125,-111.111111111111,4,2,1,70,0,0
34429,-111.111111111111,4,2,3,70,0,0
34755,-111.111111111111,4,2,2,70,0,0
35081,-111.111111111111,4,2,1,70,0,0
36549,-125,4,2,1,70,0,0
37201,-125,4,2,2,70,0,0
37527,-125,4,2,1,70,0,0
37853,-125,4,2,2,70,0,0
38179,-125,4,2,1,70,0,0
38505,-125,4,2,2,70,0,0
38831,-125,4,2,1,70,0,0
39157,-125,4,2,2,70,0,0
39483,-125,4,2,1,70,0,0
39809,-125,4,2,2,70,0,0
40135,-125,4,2,1,70,0,0
40462,-125,4,2,2,70,0,0
40788,-125,4,2,1,70,0,0
41114,-125,4,2,2,70,0,0
41440,-125,4,2,1,70,0,0
41766,-125,4,2,1,60,0,0
42418,-166.666666666667,4,2,1,60,0,0
43070,-166.666666666667,4,2,3,60,0,0
43559,-166.666666666667,4,2,1,60,0,0
44375,-100,4,2,3,70,0,0
45516,-100,4,2,1,70,0,0
45679,-100,4,2,3,70,0,0
46168,-100,4,2,1,70,0,0
46983,-100,4,2,3,70,0,0
49592,-95.2380952380952,4,2,4,80,0,1
49918,-95.2380952380952,4,2,3,80,0,1
50081,-95.2380952380952,4,2,1,80,0,1
50244,-95.2380952380952,4,2,2,80,0,1
50407,-95.2380952380952,4,2,1,80,0,1
50570,-95.2380952380952,4,2,2,80,0,1
50733,-95.2380952380952,4,2,1,80,0,1
51059,-95.2380952380952,4,2,4,80,0,1
51222,-95.2380952380952,4,2,2,80,0,1
52038,-95.2380952380952,4,2,1,80,0,1
52201,-95.2380952380952,4,2,4,80,0,1
52527,-95.2380952380952,4,2,2,80,0,1
53016,-95.2380952380952,4,2,1,80,0,1
53179,-95.2380952380952,4,2,2,80,0,1
53342,-95.2380952380952,4,2,3,80,0,1
54157,-95.2380952380952,4,2,4,80,0,1
54483,-95.2380952380952,4,2,3,80,0,1
54809,-95.2380952380952,4,2,5,80,0,1
55135,-95.2380952380952,4,2,2,80,0,1
55625,-95.2380952380952,4,2,1,80,0,1
55788,-95.2380952380952,4,2,2,80,0,1
55951,-95.2380952380952,4,2,3,80,0,1
56440,-95.2380952380952,4,2,2,80,0,1
57092,-95.2380952380952,4,2,3,80,0,1
57418,-95.2380952380952,4,2,4,80,0,1
57744,-95.2380952380952,4,2,3,80,0,1
58070,-95.2380952380952,4,2,2,80,0,1
58233,-95.2380952380952,4,2,1,80,0,1
58396,-95.2380952380952,4,2,2,80,0,1
58559,-95.2380952380952,4,2,3,80,0,1
59049,-95.2380952380952,4,2,2,80,0,1
59212,-95.2380952380952,4,2,1,80,0,1
60027,-95.2380952380952,4,2,4,80,0,1
60353,-95.2380952380952,4,2,3,80,0,1
60516,-95.2380952380952,4,2,1,80,0,1
60679,-95.2380952380952,4,2,2,80,0,1
60842,-95.2380952380952,4,2,1,80,0,1
61005,-95.2380952380952,4,2,2,80,0,1
61168,-95.2380952380952,4,2,1,80,0,1
61331,-95.2380952380952,4,2,4,80,0,1
61657,-95.2380952380952,4,2,2,80,0,1
62472,-95.2380952380952,4,2,1,80,0,1
62635,-95.2380952380952,4,2,4,80,0,1
62961,-95.2380952380952,4,2,2,80,0,1
63451,-95.2380952380952,4,2,1,80,0,1
63614,-95.2380952380952,4,2,2,80,0,1
63777,-95.2380952380952,4,2,3,80,0,1
64103,-95.2380952380952,4,2,2,80,0,1
64266,-95.2380952380952,4,2,3,80,0,1
64592,-95.2380952380952,4,2,4,80,0,1
64837,-95.2380952380952,4,2,1,80,0,1
64918,-95.2380952380952,4,2,2,80,0,1
65081,-95.2380952380952,4,2,1,80,0,1
65244,-95.2380952380952,4,2,5,80,0,1
65570,-95.2380952380952,4,2,2,80,0,1
65896,-95.2380952380952,4,2,3,80,0,1
66059,-95.2380952380952,4,2,1,80,0,1
66222,-95.2380952380952,4,2,2,80,0,1
66385,-95.2380952380952,4,2,3,80,0,1
66875,-95.2380952380952,4,2,2,80,0,1
67364,-95.2380952380952,4,2,1,80,0,1
67527,-95.2380952380952,4,2,3,80,0,1
69157,-95.2380952380952,4,2,1,80,0,1
70462,-95.2380952380952,4,2,6,70,0,0
72581,-95.2380952380952,4,2,3,70,0,0
72744,-166.666666666667,4,2,3,70,0,0
73070,-100,4,2,3,70,0,0
73396,-100,4,2,1,70,0,0
75027,-100,4,2,3,70,0,0
75353,-100,4,2,1,70,0,0
75679,-100,4,2,3,70,0,0
76005,-100,4,2,1,70,0,0
76820,-100,4,2,3,70,0,0
77309,-100,4,2,1,70,0,0
77635,-100,4,2,3,70,0,0
77962,-100,4,2,1,70,0,0
78288,-100,4,2,3,70,0,0
78777,-100,4,2,1,70,0,0
79429,-100,4,2,3,70,0,0
79755,-100,4,2,1,70,0,0
80896,-100,4,2,3,70,0,0
81549,-100,4,2,1,70,0,0
82038,-100,4,2,3,70,0,0
82364,-100,4,2,1,70,0,0
83505,-100,4,2,7,60,0,0
92472,-100,4,2,3,60,0,0
92635,-125,4,2,3,60,0,0
93940,-111.111111111111,4,2,1,60,0,0
102255,-111.111111111111,4,2,3,60,0,0
102744,-111.111111111111,4,2,1,60,0,0
104375,-125,4,2,1,70,0,0
105027,-125,4,2,2,70,0,0
105190,-125,4,2,1,70,0,0
105679,-125,4,2,3,70,0,0
107309,-125,4,2,1,70,0,0
107635,-125,4,2,3,70,0,0
107799,-125,4,2,1,70,0,0
108451,-125,4,2,3,70,0,0
108940,-125,4,2,3,70,0,0
109429,-125,4,2,1,70,0,0
110244,-125,4,2,2,70,0,0
110733,-125,4,2,1,70,0,0
110896,-125,4,2,3,70,0,0
113179,-125,4,2,1,70,0,0
113668,-125,4,2,3,70,0,0
114157,-125,4,2,2,70,0,0
114809,-125,4,2,1,60,0,0
116766,-125,4,2,2,60,0,0
117418,-125,4,2,1,60,0,0
118559,-100,4,2,1,60,0,0
119375,-100,4,2,2,60,0,0
120027,-166.666666666667,4,2,2,60,0,0
120679,-166.666666666667,4,2,1,60,0,0
121331,-166.666666666667,4,2,3,60,0,0
121820,-166.666666666667,4,2,1,60,0,0
122635,-100,4,2,1,70,0,0
127853,-95.2380952380952,4,2,4,80,0,1
128179,-95.2380952380952,4,2,3,80,0,1
128342,-95.2380952380952,4,2,1,80,0,1
128505,-95.2380952380952,4,2,2,80,0,1
128668,-95.2380952380952,4,2,1,80,0,1
128831,-95.2380952380952,4,2,2,80,0,1
128994,-95.2380952380952,4,2,1,80,0,1
129320,-95.2380952380952,4,2,4,80,0,1
129483,-95.2380952380952,4,2,2,80,0,1
130299,-95.2380952380952,4,2,1,80,0,1
130462,-95.2380952380952,4,2,5,80,0,1
130788,-95.2380952380952,4,2,2,80,0,1
131277,-95.2380952380952,4,2,1,80,0,1
131440,-95.2380952380952,4,2,2,80,0,1
131603,-95.2380952380952,4,2,3,80,0,1
132418,-95.2380952380952,4,2,4,80,0,1
132744,-95.2380952380952,4,2,3,80,0,1
133070,-95.2380952380952,4,2,5,80,0,1
133396,-95.2380952380952,4,2,2,80,0,1
133885,-95.2380952380952,4,2,1,80,0,1
134049,-95.2380952380952,4,2,2,80,0,1
134212,-95.2380952380952,4,2,3,80,0,1
134701,-95.2380952380952,4,2,2,80,0,1
135353,-95.2380952380952,4,2,3,80,0,1
135516,-95.2380952380952,4,2,1,80,0,1
135679,-95.2380952380952,4,2,4,80,0,1
136005,-95.2380952380952,4,2,3,80,0,1
136331,-95.2380952380952,4,2,2,80,0,1
136494,-95.2380952380952,4,2,1,80,0,1
136657,-95.2380952380952,4,2,2,80,0,1
136820,-95.2380952380952,4,2,3,80,0,1
137309,-95.2380952380952,4,2,2,80,0,1
137472,-95.2380952380952,4,2,1,80,0,1
138288,-95.2380952380952,4,2,4,80,0,1
138614,-95.2380952380952,4,2,3,80,0,1
138777,-95.2380952380952,4,2,1,80,0,1
138940,-95.2380952380952,4,2,2,80,0,1
139103,-95.2380952380952,4,2,1,80,0,1
139266,-95.2380952380952,4,2,2,80,0,1
139429,-95.2380952380952,4,2,1,80,0,1
139755,-95.2380952380952,4,2,4,80,0,1
139918,-95.2380952380952,4,2,2,80,0,1
140733,-95.2380952380952,4,2,1,80,0,1
140896,-95.2380952380952,4,2,4,80,0,1
141222,-95.2380952380952,4,2,2,80,0,1
141712,-95.2380952380952,4,2,1,80,0,1
141875,-95.2380952380952,4,2,2,80,0,1
142038,-95.2380952380952,4,2,3,80,0,1
142853,-95.2380952380952,4,2,4,80,0,1
143097,-95.2380952380952,4,2,1,80,0,1
143179,-95.2380952380952,4,2,2,80,0,1
143342,-95.2380952380952,4,2,1,80,0,1
143505,-95.2380952380952,4,2,5,80,0,1
143831,-95.2380952380952,4,2,2,80,0,1
144157,-95.2380952380952,4,2,3,80,0,1
144320,-95.2380952380952,4,2,1,80,0,1
144483,-95.2380952380952,4,2,2,80,0,1
144646,-95.2380952380952,4,2,3,80,0,1
145135,-95.2380952380952,4,2,2,80,0,1
145625,-95.2380952380952,4,2,1,80,0,1
145788,-95.2380952380952,4,2,3,80,0,1
147418,-95.2380952380952,4,2,1,80,0,1
151331,-125,4,2,1,60,0,0
153288,-125,4,2,2,60,0,0
153940,-125,4,2,1,60,0,0
155896,-125,4,2,2,60,0,0
156549,-125,4,2,1,60,0,0
158505,-125,4,2,2,60,0,0
159157,-125,4,2,1,60,0,0
162418,-125,4,2,2,60,0,0
162744,-125,4,2,1,60,0,0
163070,-125,4,2,8,60,0,0
163396,-125,4,2,2,60,0,0
163722,-125,4,2,2,60,0,0
164375,-125,4,2,8,60,0,0
164701,-125,4,2,1,60,0,0
165027,-125,4,2,2,60,0,0
165353,-125,4,2,1,60,0,0
165842,-125,4,2,2,60,0,0
166331,-125,4,2,2,60,0,0
166820,-125,4,2,1,60,0,0
168288,-100,4,2,3,60,0,0
169918,-100,4,2,1,60,0,0
170896,-100,4,2,3,60,0,0
171059,-100,4,2,2,60,0,0
172201,-100,4,2,4,70,0,0
172527,-100,4,2,3,70,0,0
172690,-100,4,2,1,70,0,0
172853,-100,4,2,2,70,0,0
173016,-100,4,2,1,70,0,0
173179,-100,4,2,2,70,0,0
173342,-100,4,2,1,70,0,0
173505,-100,4,2,4,70,0,0
173831,-100,4,2,2,70,0,0
173994,-100,4,2,3,70,0,0
174076,-100,4,2,1,70,0,0
174157,-100,4,2,2,70,0,0
174483,-100,4,2,3,70,0,0
174646,-100,4,2,1,70,0,0
174809,-100,4,2,4,70,0,0
175135,-100,4,2,2,70,0,0
175462,-100,4,2,3,70,0,0
175788,-100,4,2,2,70,0,0
175951,-100,4,2,3,70,0,0
176929,-100,4,2,4,70,0,0
177092,-100,4,2,3,70,0,0
177418,-100,4,2,5,70,0,0
177744,-100,4,2,2,70,0,0
177907,-100,4,2,1,70,0,0
178070,-100,4,2,3,70,0,0
178233,-100,4,2,1,70,0,0
178396,-100,4,2,3,70,0,0
178478,-100,4,2,1,70,0,0
178559,-100,4,2,3,70,0,0
179049,-100,4,2,2,70,0,0
179701,-100,4,2,3,70,0,0
180027,-100,4,2,4,70,0,0
180353,-100,4,2,3,70,0,0
180679,-100,4,2,2,70,0,0
180842,-100,4,2,1,70,0,0
181005,-100,4,2,2,70,0,0
181168,-100,4,2,3,70,0,0
181331,-100,4,2,3,80,0,0
181494,-100,4,2,3,70,0,0
181657,-100,4,2,2,70,0,0
181820,-100,4,2,3,70,0,0
182635,-125,4,2,9,70,0,0
183287,-125,4,2,2,70,0,0
183614,-125,4,2,1,70,0,0
183940,-125,4,2,8,70,0,0
184103,-125,4,2,2,70,0,0
185163,-125,4,2,1,70,0,0
185244,-125,4,2,5,70,0,0
185570,-125,4,2,1,70,0,0
185896,-125,4,2,2,70,0,0
186059,-125,4,2,3,70,0,0
186304,-125,4,2,1,70,0,0
186549,-125,4,2,8,70,0,0
186875,-125,4,2,1,70,0,0
187201,-125,4,2,4,70,0,0
187527,-125,4,2,1,70,0,0
187853,-111.111111111111,4,2,3,70,0,0
188342,-111.111111111111,4,2,1,70,0,0
206114,-166.666666666667,4,2,1,70,0,0
207418,-166.666666666667,4,2,3,70,0,0
208722,-100,4,2,5,70,0,0
209048,-100,4,2,2,70,0,0
209864,-100,4,2,1,70,0,0
210027,-95.2380952380952,4,2,4,80,0,1
210353,-95.2380952380952,4,2,2,80,0,1
210842,-95.2380952380952,4,2,1,80,0,1
211005,-95.2380952380952,4,2,2,80,0,1
211168,-95.2380952380952,4,2,3,80,0,1
211983,-95.2380952380952,4,2,4,80,0,1
212309,-95.2380952380952,4,2,3,80,0,1
212635,-95.2380952380952,4,2,5,80,0,1
212961,-95.2380952380952,4,2,2,80,0,1
213451,-95.2380952380952,4,2,1,80,0,1
213614,-95.2380952380952,4,2,2,80,0,1
213777,-95.2380952380952,4,2,3,80,0,1
214266,-95.2380952380952,4,2,2,80,0,1
214918,-95.2380952380952,4,2,3,80,0,1
215244,-95.2380952380952,4,2,5,80,0,1
215570,-95.2380952380952,4,2,3,80,0,1
215896,-95.2380952380952,4,2,2,80,0,1
216059,-95.2380952380952,4,2,1,80,0,1
216222,-95.2380952380952,4,2,2,80,0,1
216385,-95.2380952380952,4,2,3,80,0,1
216875,-95.2380952380952,4,2,2,80,0,1
217038,-95.2380952380952,4,2,1,80,0,1
217853,-95.2380952380952,4,2,4,80,0,1
218179,-95.2380952380952,4,2,1,80,0,1
219157,-95.2380952380952,4,2,3,80,0,1
219646,-95.2380952380952,4,2,1,80,0,1
220462,-95.2380952380952,4,2,3,80,0,1
221277,-95.2380952380952,4,2,1,80,0,1
221603,-95.2380952380952,4,2,3,80,0,1
222092,-95.2380952380952,4,2,1,80,0,1
222418,-95.2380952380952,4,2,3,80,0,1
222663,-95.2380952380952,4,2,1,80,0,1
223070,-95.2380952380952,4,2,3,80,0,1
223722,-95.2380952380952,4,2,1,80,0,1
224212,-95.2380952380952,4,2,3,80,0,1
225190,-95.2380952380952,4,2,1,80,0,1
225679,-95.2380952380952,4,2,9,80,0,1
226005,-95.2380952380952,4,2,3,80,0,1
226168,-95.2380952380952,4,2,1,80,0,1
226331,-95.2380952380952,4,2,2,80,0,1
226494,-95.2380952380952,4,2,1,80,0,1
226657,-95.2380952380952,4,2,2,80,0,1
226820,-95.2380952380952,4,2,1,80,0,1
227146,-95.2380952380952,4,2,4,80,0,1
227309,-95.2380952380952,4,2,2,80,0,1
228125,-95.2380952380952,4,2,1,80,0,1
228288,-95.2380952380952,4,2,5,80,0,1
228614,-95.2380952380952,4,2,2,80,0,1
229103,-95.2380952380952,4,2,1,80,0,1
229266,-95.2380952380952,4,2,2,80,0,1
229429,-95.2380952380952,4,2,3,80,0,1
230244,-95.2380952380952,4,2,4,80,0,1
230570,-95.2380952380952,4,2,3,80,0,1
230896,-95.2380952380952,4,2,1,80,0,1
233505,-95.2380952380952,4,2,1,70,0,0
236766,-100,4,2,1,70,0,0
237418,-100,4,2,3,70,0,0
237744,-100,4,2,1,70,0,0
239375,-100,4,2,3,70,0,0
239701,-100,4,2,1,70,0,0
240027,-100,4,2,3,70,0,0
240353,-100,4,2,1,70,0,0
241168,-100,4,2,3,70,0,0
241657,-100,4,2,1,70,0,0
241983,-100,4,2,3,70,0,0
242309,-100,4,2,1,70,0,0
242635,-100,4,2,3,70,0,0
243125,-100,4,2,1,70,0,0
243777,-100,4,2,3,70,0,0
244103,-100,4,2,1,70,0,0
245244,-100,4,2,3,70,0,0
245896,-100,4,2,1,70,0,0
246385,-100,4,2,3,70,0,0
246711,-100,4,2,1,70,0,0
247853,-100,4,2,7,70,0,0
248179,-100,4,2,1,70,0,0
249809,-100,4,2,3,70,0,0
250135,-100,4,2,1,70,0,0
250462,-100,4,2,3,70,0,0
250788,-100,4,2,1,70,0,0
251603,-100,4,2,3,70,0,0
252092,-100,4,2,1,70,0,0
252418,-100,4,2,3,70,0,0
252744,-100,4,2,1,70,0,0
253070,-100,4,2,3,70,0,0
253559,-100,4,2,1,70,0,0
254212,-100,4,2,3,70,0,0
254538,-100,4,2,1,70,0,0
255679,-100,4,2,3,70,0,0
256331,-100,4,2,1,70,0,0
256820,-100,4,2,3,70,0,0
257146,-100,4,2,1,70,0,0
258288,-100,4,2,7,70,0,0
262201,-100,4,2,7,5,0,0

[Colours]
Combo1 : 230,215,236
Combo2 : 250,182,199
Combo3 : 253,209,190
Combo4 : 230,170,170

[HitObjects]
351,322,2636,6,0,P|409:361|479:352,2,143.999995605469,2|2|2,2:0|2:0|2:0,2:0:0:0:
375,137,3940,2,0,L|238:182,1,143.999995605469,2|0,2:0|2:0,2:0:0:0:
156,80,4755,1,0,2:0:0:0:
156,80,4918,2,0,P|173:95|184:117,1,47.9999985351563,2|0,2:0|2:0,2:0:0:0:
156,243,5244,6,0,P|97:203|29:217,1,143.999995605469,2|2,2:0|2:0,2:0:0:0:
71,337,6059,1,0,2:0:0:0:
71,337,6222,2,0,L|81:290,1,47.9999985351563,2|2,2:0|2:0,2:0:0:0:
156,243,6549,2,0,B|196:276|196:276|285:255,1,143.999995605469,2|2,2:0|2:0,2:0:0:0:
475,355,7365,1,0,3:0:0:0:
475,355,7445,1,0,3:0:0:0:
475,355,7528,2,0,L|484:308,1,47.9999985351563,8|0,3:0|2:0,2:0:0:0:
365,138,7853,6,0,B|337:221|435:244|435:244|506:186|456:125,1,287.999991210938,14|2,2:1|2:1,2:0:0:0:
291,51,8994,1,0,3:0:0:0:
291,51,9076,1,0,3:0:0:0:
291,51,9157,2,0,B|249:114|163:88,2,143.999995605469,14|8|6,3:1|2:3|2:3,2:0:0:0:
81,159,10299,1,0,3:0:0:0:
81,159,10380,1,0,3:0:0:0:
81,159,10462,6,0,L|60:81,1,80,14|0,2:1|3:0,2:0:0:0:
192,205,10788,1,0,3:0:0:0:
39,362,10951,2,0,P|82:299|158:302,1,160,12|2,2:0|3:1,2:0:0:0:
252,377,11440,1,14,2:1:0:0:
323,161,11603,2,0,P|338:239|351:318,1,160,2|12,3:1|2:0,2:0:0:0:
511,214,12092,2,0,P|471:206|432:199,1,80,2|0,3:1|3:0,2:0:0:0:
246,255,12418,1,14,2:1:0:0:
341,55,12581,1,0,3:0:0:0:
323,161,12744,1,10,2:1:0:0:
323,161,13070,6,0,B|177:198|210:69|52:110,1,287.999991210938,14|0,2:1|2:0,2:0:0:0:
28,223,14375,6,0,P|87:261|156:249,1,143.999995605469,2|8,2:1|2:3,2:0:0:0:
314,113,15190,1,4,2:3:0:0:
314,113,15353,2,0,L|322:160,1,47.9999985351563,4|0,2:3|2:0,2:0:0:0:
299,269,15679,6,0,P|368:207|458:224,1,191.999994140625,2|0,2:1|2:0,2:0:0:0:
458,224,16657,1,2,2:0:0:0:
358,24,16983,1,2,2:1:0:0:
237,103,17309,1,0,2:0:0:0:
237,103,17472,2,0,L|217:7,2,95.9999970703126,2|2|2,2:0|2:0|2:0,2:0:0:0:
322,160,18288,6,0,B|306:226|306:226|331:276|331:276|315:342,1,191.999994140625,2|0,2:1|2:0,2:0:0:0:
315,342,19266,1,2,2:0:0:0:
115,321,19592,2,0,P|165:273|234:285,1,143.999995605469,2|0,2:1|2:0,2:0:0:0:
234,285,20244,1,2,2:0:0:0:
480,128,20896,6,0,B|457:148|443:180|443:180|378:196|320:159,1,191.999994140625,2|0,2:1|2:0,2:0:0:0:
192,20,21875,2,0,L|180:66,1,47.9999985351563,2|2,2:0|2:0,2:0:0:0:
120,133,22201,2,0,P|77:112|30:120,2,95.9999970703126,2|0|2,2:1|2:0|2:0,2:0:0:0:
160,243,23179,1,0,2:0:0:0:
66,378,23505,6,0,B|52:311|52:311|78:266|78:266|65:195,1,191.999994140625,2|0,2:1|2:0,2:0:0:0:
246,347,24646,1,2,2:0:0:0:
246,346,24809,2,0,P|287:323|334:325,1,95.9999970703126,2|2,2:1|2:0,2:0:0:0:
425,384,25299,2,0,L|444:289,1,95.9999970703126,2|2,2:0|3:2,2:0:0:0:
369,242,25788,1,8,2:0:0:0:
134,64,26114,6,0,P|204:62|259:18,1,143.999995605469,6|0,3:1|3:0,2:0:0:0:
378,104,26603,1,0,2:0:0:0:
378,104,26766,2,0,L|391:30,1,71.9999978027344,0|0,3:0|2:0,2:0:0:0:
242,145,27092,2,0,L|255:219,1,71.9999978027344,2|0,3:1|2:0,2:0:0:0:
199,364,27418,6,0,P|139:329|70:346,1,143.999995605469,2|0,3:1|3:0,2:0:0:0:
0,215,27907,2,0,L|71:230,1,71.9999978027344,2|0,2:0|3:0,2:0:0:0:
139,103,28233,2,0,L|68:118,1,71.9999978027344,2|0,2:0|3:0,2:0:0:0:
161,195,28559,1,2,2:0:0:0:
282,74,28722,6,0,L|253:215,1,143.999995605469,2|0,3:1|3:0,2:0:0:0:
345,345,29212,1,0,2:0:0:0:
345,344,29375,2,0,P|378:331|414:327,1,71.9999978027344,0|0,3:0|2:0,2:0:0:0:
483,215,29701,2,0,P|447:210|413:198,1,71.9999978027344,2|0,3:1|2:0,2:0:0:0:
193,39,30027,6,0,P|262:21|332:3,1,143.999995605469,2|0,3:1|3:0,2:0:0:0:
266,149,30516,1,2,2:0:0:0:
80,111,30679,2,0,P|71:145|62:180,1,71.9999978027344,0|2,3:0|2:0,2:0:0:0:
186,246,31005,1,0,3:0:0:0:
34,300,31168,1,2,2:0:0:0:
148,384,31331,6,0,P|203:339|273:345,1,143.999995605469,6|0,3:1|3:0,2:0:0:0:
417,382,31820,1,2,2:0:0:0:
419,372,31902,1,2,2:0:0:0:
421,360,31983,2,0,L|411:288,1,71.9999978027344,2|0,3:2|2:0,2:0:0:0:
324,168,32309,2,0,L|315:240,1,71.9999978027344,2|0,3:2|2:0,2:0:0:0:
147,123,32635,6,0,P|197:74|266:83,1,143.999995605469,2|0,3:1|3:0,2:0:0:0:
418,153,33125,2,0,L|489:135,1,71.9999978027344,2|0,2:0|3:0,2:0:0:0:
360,55,33451,1,2,2:0:0:0:
224,150,33614,2,0,L|242:221,1,71.9999978027344,0|2,3:0|2:0,2:0:0:0:
228,382,33940,5,4,3:2:0:0:
146,259,34103,1,8,2:0:0:0:
146,259,34184,1,8,2:0:0:0:
146,259,34266,1,8,2:0:0:0:
336,288,34429,2,0,L|407:270,1,71.9999978027344,2|0,3:2|2:0,2:0:0:0:
257,230,34755,5,2,3:2:0:0:
457,178,34918,1,8,2:0:0:0:
363,6,35081,2,0,B|348:59|348:59|363:95|363:95|351:143,1,143.999995605469,6|0,3:2|3:0,2:0:0:0:
336,288,35570,1,8,2:0:0:0:
72,191,35733,5,8,2:3:0:0:
72,191,35815,1,8,2:3:0:0:
72,191,35896,1,4,2:3:0:0:
257,230,36059,1,4,2:3:0:0:
126,360,36222,1,4,2:3:0:0:
146,259,36385,1,4,2:3:0:0:
0,131,36549,6,0,P|62:136|113:100,1,128,4|2,3:2|2:0,2:0:0:0:
257,230,37038,1,0,3:0:0:0:
257,230,37201,2,0,L|269:167,1,64,10|0,2:0|3:0,2:0:0:0:
194,32,37527,2,0,L|206:94,1,64,2|8,2:0|2:0,2:0:0:0:
364,153,37853,6,0,P|415:118|476:128,1,128,2|2,3:2|2:0,2:0:0:0:
447,260,38342,1,0,3:0:0:0:
447,260,38424,1,0,3:0:0:0:
447,260,38505,2,0,L|432:197,1,64,10|0,2:0|2:0,2:0:0:0:
363,330,38831,2,0,L|300:315,1,64,2|8,3:2|2:0,2:0:0:0:
146,259,39157,6,0,P|163:320|174:383,1,128,6|2,3:2|2:0,2:0:0:0:
292,234,39646,1,0,3:0:0:0:
292,234,39809,2,0,L|280:170,1,64,10|0,2:0|3:0,2:0:0:0:
132,136,40135,2,0,L|143:72,1,64,2|8,2:0|2:0,2:0:0:0:
244,0,40462,5,2,3:2:0:0:
36,71,40625,1,8,2:0:0:0:
197,195,40788,1,2,2:0:0:0:
143,72,40951,5,0,3:0:0:0:
143,72,41032,1,0,3:0:0:0:
143,72,41114,1,10,2:0:0:0:
337,3,41277,1,8,2:0:0:0:
280,170,41440,1,6,3:0:0:0:
280,170,41766,5,4,3:2:0:0:
280,170,42418,6,0,L|375:189,1,95.9999970703126,2|0,2:0|2:0,2:0:0:0:
482,123,43070,5,2,2:1:0:0:
353,95,43396,1,0,2:0:0:0:
353,95,43559,2,0,P|365:141|373:188,1,95.9999970703126,2|2,2:0|2:0,2:0:0:0:
395,304,44049,1,0,2:0:0:0:
207,218,44212,5,0,3:0:0:0:
202,207,44293,1,0,3:0:0:0:
197,195,44375,2,0,P|119:186|60:236,1,160,14|0,2:1|3:0,2:0:0:0:
224,34,44864,2,0,P|234:72|243:111,1,80,12|0,2:0|3:0,2:0:0:0:
145,277,45190,1,0,3:0:0:0:
380,218,45353,2,0,P|341:207|302:198,1,80,12|2,2:0|3:2,2:0:0:0:
60,233,45679,5,2,3:1:0:0:
178,375,45842,2,0,P|193:296|216:220,1,160,12|2,2:0|3:2,2:0:0:0:
79,99,46331,1,14,2:1:0:0:
208,10,46494,5,0,3:0:0:0:
208,10,46576,1,0,3:0:0:0:
208,10,46657,1,8,2:0:0:0:
140,188,46820,1,2,3:2:0:0:
339,127,46983,1,14,2:1:0:0:
339,127,47309,5,8,2:0:0:0:
184,80,47472,1,8,2:0:0:0:
384,234,47636,1,8,2:0:0:0:
436,30,47799,6,0,L|425:71,1,40,0|0,3:0|3:0,2:0:0:0:
249,226,47962,1,8,2:0:0:0:
489,295,48125,1,8,2:0:0:0:
489,295,49592,6,0,P|407:286|345:338,1,167.999994873047,6|10,3:1|2:0,2:0:0:0:
154,236,50081,2,0,L|171:318,1,83.9999974365235,2|2,2:0|3:2,2:0:0:0:
303,236,50407,2,0,L|320:153,1,83.9999974365235,2|10,3:2|2:0,2:0:0:0:
171,18,50733,6,0,P|111:72|31:60,1,167.999994873047,2|0,3:2|2:0,2:0:0:0:
213,155,51222,1,10,2:0:0:0:
319,59,51385,2,0,P|359:49|401:40,1,83.9999974365235,2|2,3:1|2:0,2:0:0:0:
485,211,51712,2,0,P|494:170|503:128,1,83.9999974365235,0|10,3:0|2:0,2:0:0:0:
272,334,52038,5,2,3:2:0:0:
274,326,52119,1,2,3:2:0:0:
277,318,52201,2,0,P|359:312|426:360,1,167.999994873047,2|10,3:1|2:0,2:0:0:0:
387,135,52690,1,0,3:0:0:0:
387,135,52771,1,0,3:0:0:0:
387,135,52853,2,0,P|379:176|373:217,1,83.9999974365235,2|2,3:2|3:2,2:0:0:0:
277,318,53179,1,10,2:0:0:0:
154,236,53342,6,0,B|66:216|66:216|28:247|45:285,1,167.999994873047,6|0,3:1|3:0,2:0:0:0:
235,183,53831,1,10,2:0:0:0:
84,94,53994,1,0,3:0:0:0:
84,94,54076,1,0,3:0:0:0:
84,94,54157,2,0,P|88:52|92:10,1,83.9999974365235,2|0,3:1|3:0,2:0:0:0:
157,144,54483,1,10,2:0:0:0:
247,15,54646,5,0,3:0:0:0:
247,15,54728,1,0,3:0:0:0:
247,15,54809,2,0,B|337:-3|337:-3|362:22|406:23,1,167.999994873047,6|10,3:1|2:0,2:0:0:0:
294,148,55299,1,0,3:0:0:0:
469,187,55462,2,0,P|478:146|489:105,1,83.9999974365235,2|2,3:2|3:2,2:0:0:0:
404,23,55788,1,10,2:0:0:0:
350,296,55951,6,0,P|390:286|431:275,1,83.9999974365235,2|0,3:1|2:0,2:0:0:0:
294,148,56277,2,0,P|284:188|273:229,1,83.9999974365235,0|10,3:0|2:0,2:0:0:0:
237,382,56603,2,0,P|167:341|89:365,1,167.999994873047,0|0,3:0|3:0,2:0:0:0:
199,251,57092,1,10,2:0:0:0:
54,216,57255,5,0,3:0:0:0:
54,216,57337,1,0,3:0:0:0:
54,216,57418,2,0,P|-2:156|6:76,1,167.999994873047,2|10,3:1|2:0,2:0:0:0:
177,112,57907,2,0,P|135:119|94:128,1,83.9999974365235,0|2,3:0|3:2,2:0:0:0:
256,311,58233,2,0,P|263:269|272:228,1,83.9999974365235,2|10,3:2|2:0,2:0:0:0:
364,23,58559,6,0,P|432:75|508:61,1,167.999994873047,6|0,3:1|3:0,2:0:0:0:
508,61,58967,1,0,3:0:0:0:
508,61,59049,1,10,2:0:0:0:
388,255,59212,2,0,P|379:214|372:173,1,83.9999974365235,6|0,3:1|2:0,2:0:0:0:
174,0,59538,1,8,2:0:0:0:
159,23,59619,1,8,2:0:0:0:
138,42,59701,1,0,3:0:0:0:
114,55,59782,1,0,3:0:0:0:
86,61,59864,1,0,3:0:0:0:
58,60,59945,1,0,3:0:0:0:
32,50,60027,6,0,P|44:133|53:216,1,167.999994873047,6|10,3:1|2:0,2:0:0:0:
252,265,60516,2,0,P|256:223|262:181,1,83.9999974365235,2|2,2:0|3:2,2:0:0:0:
345,350,60842,1,2,3:2:0:0:
449,244,61005,2,0,P|407:248|365:254,1,83.9999974365235,10|2,2:0|3:2,2:0:0:0:
167,122,61331,6,0,P|246:137|308:84,1,167.999994873047,2|10,3:1|2:0,2:0:0:0:
167,337,61820,2,0,P|158:295|148:255,1,83.9999974365235,2|2,3:1|2:0,2:0:0:0:
308,84,62146,2,0,P|297:124|289:165,1,83.9999974365235,0|10,3:0|2:0,2:0:0:0:
12,71,62472,5,2,3:2:0:0:
16,82,62554,1,2,3:2:0:0:
21,94,62635,2,0,P|87:141|166:121,1,167.999994873047,2|10,3:1|2:0,2:0:0:0:
290,1,63125,1,0,3:0:0:0:
290,1,63206,1,0,3:0:0:0:
290,1,63288,2,0,P|298:42|307:83,1,83.9999974365235,2|2,3:2|3:2,2:0:0:0:
424,226,63614,1,10,2:0:0:0:
479,148,63777,6,0,B|434:113|389:126|389:126|373:160|334:169,1,167.999994873047,2|0,3:1|3:0,2:0:0:0:
166,121,64266,1,10,2:0:0:0:
213,299,64429,1,0,3:0:0:0:
213,299,64510,1,0,3:0:0:0:
213,299,64592,2,0,P|220:257|228:216,1,83.9999974365235,2|0,2:1|3:0,2:0:0:0:
334,230,64837,1,2,3:2:0:0:
334,230,64918,2,0,P|326:271|319:312,1,83.9999974365235,10|2,2:0|2:0,2:0:0:0:
166,121,65244,6,0,B|227:105|227:105|268:125|268:125|325:111,1,167.999994873047,6|10,3:1|2:0,2:0:0:0:
462,231,65733,1,0,3:0:0:0:
462,231,65815,1,0,3:0:0:0:
462,230,65896,2,0,P|470:188|478:147,1,83.9999974365235,2|2,3:2|3:2,2:0:0:0:
499,311,66222,1,10,2:0:0:0:
371,269,66385,6,0,B|279:251|306:319|211:298,1,167.999994873047,2|0,2:1|3:0,2:0:0:0:
42,233,66875,1,10,2:0:0:0:
101,377,67038,1,0,3:0:0:0:
101,377,67119,1,0,3:0:0:0:
101,377,67201,2,0,P|109:335|116:294,1,83.9999974365235,2|2,3:2|3:2,2:0:0:0:
223,128,67527,2,0,P|230:169|238:210,1,83.9999974365235,10|0,2:0|2:0,2:0:0:0:
13,121,67853,6,0,P|66:59|146:66,1,167.999994873047,6|8,3:1|2:0,2:0:0:0:
325,158,68342,2,0,L|340:75,1,83.9999974365235,8|8,2:0|2:0,2:0:0:0:
238,210,68668,1,8,2:0:0:0:
426,156,68831,1,8,2:0:0:0:
380,350,68994,5,8,2:0:0:0:
380,350,69076,1,8,2:0:0:0:
380,350,69157,1,10,2:1:0:0:
325,158,69320,1,8,2:0:0:0:
190,325,69483,1,8,2:0:0:0:
380,238,69646,1,8,2:0:0:0:
211,130,69809,6,0,P|225:169|237:209,1,83.9999974365235,8|8,2:0|2:0,2:0:0:0:
326,66,70135,1,8,2:0:0:0:
140,19,70299,1,8,2:0:0:0:
140,19,70380,1,8,2:0:0:0:
140,19,70462,1,14,2:1:0:0:
256,192,70625,12,2,71766,2:1:0:0:
396,84,72581,5,0,3:0:0:0:
396,84,72663,1,0,3:0:0:0:
396,84,72744,2,0,P|400:48|406:12,1,71.9999978027344,0|0,3:0|2:0,2:0:0:0:
488,139,73070,6,0,P|411:128|351:178,1,160,6|10,3:1|2:0,2:0:0:0:
165,64,73559,1,0,3:0:0:0:
165,64,73641,1,0,3:0:0:0:
165,64,73722,2,0,P|203:52|241:40,1,80,2|0,3:2|3:0,2:0:0:0:
229,195,74049,1,10,2:0:0:0:
27,129,74212,6,0,P|46:206|57:285,1,160,2|0,2:0|3:0,2:0:0:0:
234,367,74701,1,10,2:0:0:0:
229,195,74864,1,0,3:0:0:0:
229,195,74945,1,0,3:0:0:0:
229,195,75027,2,0,P|190:205|151:215,1,80,2|0,3:1|3:0,2:0:0:0:
233,366,75353,2,0,P|243:327|254:289,1,80,10|0,2:0|3:0,2:0:0:0:
295,115,75679,6,0,P|372:121|429:68,1,160,2|10,2:1|2:0,2:0:0:0:
435,253,76168,1,0,3:0:0:0:
435,253,76250,1,0,3:0:0:0:
434,253,76331,2,0,P|395:243|355:236,1,80,2|0,3:2|2:0,2:0:0:0:
295,115,76657,1,10,2:0:0:0:
90,342,76820,6,0,P|166:325|232:365,1,160,2|0,3:1|3:0,2:0:0:0:
355,236,77309,1,10,2:0:0:0:
196,142,77472,1,2,3:2:0:0:
196,142,77554,1,2,3:2:0:0:
196,142,77635,2,0,P|202:181|208:220,1,80,2|0,3:1|3:0,2:0:0:0:
342,314,77962,2,0,P|348:274|354:235,1,80,10|0,2:0|2:0,2:0:0:0:
453,79,78288,6,0,P|377:97|315:51,1,160,6|8,3:1|2:0,2:0:0:0:
208,220,78777,1,2,2:0:0:0:
208,220,78858,1,2,2:0:0:0:
208,220,78940,2,0,P|169:229|130:238,1,80,2|2,3:2|3:2,2:0:0:0:
37,174,79266,1,10,2:0:0:0:
111,316,79429,6,0,P|120:277|129:238,1,80,2|0,3:1|2:0,2:0:0:0:
18,96,79755,2,0,P|27:134|36:173,1,80,2|8,3:2|2:0,2:0:0:0:
183,98,80081,2,0,P|237:43|314:50,1,160,2|0,2:0|3:0,2:0:0:0:
421,166,80570,2,0,P|459:155|497:143,1,80,10|0,2:0|3:0,2:0:0:0:
265,126,80896,6,0,P|256:205|250:285,1,160,2|8,3:1|2:0,2:0:0:0:
403,384,81385,1,0,3:0:0:0:
400,375,81467,1,0,3:0:0:0:
398,365,81549,2,0,P|361:350|321:356,1,80,2|0,3:2|3:0,2:0:0:0:
146,311,81875,1,8,2:0:0:0:
282,190,82038,2,0,P|331:130|320:53,1,160,6|10,2:1|2:0,2:0:0:0:
295,21,82445,1,10,2:0:0:0:
295,21,82527,1,10,2:0:0:0:
126,65,82690,6,0,P|145:142|162:220,1,160,6|8,2:1|2:0,2:0:0:0:
185,315,83097,1,8,2:0:0:0:
182,325,83179,2,0,P|165:314|145:310,1,40,8|8,2:0|2:0,2:0:0:0:
285,371,83342,2,0,P|304:366|321:356,1,40,8|8,2:0|2:0,2:0:0:0:
270,256,83505,1,14,2:1:0:0:
366,55,92472,5,8,2:0:0:0:
366,55,92554,1,8,2:0:0:0:
366,55,92635,2,0,P|396:46|427:38,1,64,8|0,2:0|3:0,2:0:0:0:
412,154,92962,1,8,2:0:0:0:
252,87,93125,1,6,3:2:0:0:
252,87,93940,6,0,P|183:102|126:62,1,143.999995605469,6|8,3:2|2:0,2:0:0:0:
170,216,94429,1,0,3:0:0:0:
170,216,94510,1,0,3:0:0:0:
170,216,94592,2,0,P|175:180|181:144,1,71.9999978027344,0|0,3:0|3:0,2:0:0:0:
39,242,94918,2,0,P|44:277|50:313,1,71.9999978027344,10|0,2:0|2:0,2:0:0:0:
174,384,95244,6,0,P|232:343|302:352,1,143.999995605469,2|10,3:2|2:0,2:0:0:0:
416,261,95733,1,2,0:0:0:0:
416,261,95815,1,2,0:0:0:0:
416,260,95896,2,0,P|423:295|431:330,1,71.9999978027344,0|2,3:2|3:2,2:0:0:0:
289,250,96222,2,0,P|296:214|304:179,1,71.9999978027344,8|2,2:0|2:0,2:0:0:0:
348,52,96549,6,0,P|417:61|470:16,1,143.999995605469,2|8,3:2|2:0,2:0:0:0:
396,150,97038,1,0,3:0:0:0:
236,106,97201,1,0,3:0:0:0:
236,106,97364,1,0,3:0:0:0:
289,250,97527,2,0,P|296:214|304:179,1,71.9999978027344,10|0,2:0|2:0,2:0:0:0:
137,95,97853,6,0,B|46:123|46:123|3:102,1,143.999995605469,2|10,3:2|2:0,2:0:0:0:
179,204,98342,1,2,2:0:0:0:
60,324,98505,1,2,3:2:0:0:
60,324,98668,1,2,3:2:0:0:
246,368,98831,2,0,P|253:332|260:297,1,71.9999978027344,8|2,2:0|2:0,2:0:0:0:
396,150,99157,6,0,P|464:140|510:191,1,143.999995605469,6|8,3:2|2:0,2:0:0:0:
314,220,99646,1,0,3:0:0:0:
314,220,99728,1,0,3:0:0:0:
314,220,99809,2,0,P|305:185|296:150,1,71.9999978027344,2|0,3:2|3:0,2:0:0:0:
154,25,100135,2,0,P|145:59|136:94,1,71.9999978027344,10|0,2:0|2:0,2:0:0:0:
179,204,100462,6,0,B|99:189|119:244|41:226,1,143.999995605469,2|10,3:2|2:0,2:0:0:0:
152,359,100951,2,0,P|152:323|158:287,1,71.9999978027344,2|2,3:2|3:2,2:0:0:0:
296,150,101277,1,2,3:2:0:0:
136,94,101440,1,8,2:0:0:0:
251,273,101603,1,2,2:0:0:0:
236,0,101766,5,6,3:2:0:0:
179,204,101929,1,8,2:0:0:0:
179,204,102010,1,8,2:0:0:0:
179,204,102092,1,10,2:0:0:0:
401,118,102255,1,2,3:2:0:0:
401,118,102581,6,0,P|405:82|409:46,1,71.9999978027344,2|10,3:2|2:0,2:0:0:0:
491,182,102907,2,0,P|421:172|367:216,1,143.999995605469,6|0,3:2|3:0,2:0:0:0:
323,357,103396,1,8,2:0:0:0:
182,252,103559,1,0,3:0:0:0:
182,252,103641,1,0,3:0:0:0:
182,251,103722,2,0,P|216:262|250:272,1,71.9999978027344,0|8,3:0|3:0,2:0:0:0:
92,188,104049,1,4,2:3:0:0:
121,330,104212,1,4,2:3:0:0:
296,150,104375,6,0,P|234:159|181:125,1,128,4|2,3:2|2:0,2:0:0:0:
181,125,104864,1,2,3:2:0:0:
239,10,105027,2,0,P|245:41|250:72,1,64,10|2,2:0|3:2,2:0:0:0:
401,118,105353,2,0,P|406:86|412:55,1,64,0|10,2:0|2:0,2:0:0:0:
491,182,105679,5,2,3:2:0:0:
491,182,105842,2,0,P|428:180|383:223,1,128,8|0,2:0|3:0,2:0:0:0:
261,336,106331,2,0,P|255:304|250:272,1,64,10|0,2:0|2:0,2:0:0:0:
118,237,106657,1,0,3:0:0:0:
215,154,106820,5,8,2:0:0:0:
215,154,106902,1,8,2:0:0:0:
215,154,106983,2,0,B|235:68|235:68|219:31,1,128,6|2,3:2|2:0,2:0:0:0:
81,88,107472,2,0,P|112:81|143:75,1,64,0|10,3:0|2:0,2:0:0:0:
180,249,107799,2,0,P|148:242|117:236,1,64,2|2,3:2|2:0,2:0:0:0:
215,154,108125,1,8,2:0:0:0:
215,154,108451,5,8,2:0:0:0:
276,299,108614,2,0,P|269:330|263:361,1,64,0|0,2:0|3:0,2:0:0:0:
263,361,108858,1,0,3:0:0:0:
263,361,108940,1,10,2:0:0:0:
429,250,109103,2,0,P|379:212|317:221,1,128,12|4,2:0|3:0,2:0:0:0:
276,299,109510,5,4,3:0:0:0:
272,297,109592,2,0,L|250:170,1,128,6|2,3:2|2:0,2:0:0:0:
203,66,110081,1,0,3:0:0:0:
339,131,110244,2,0,P|401:126|443:80,1,128,10|0,2:0|2:0,2:0:0:0:
429,250,110733,1,10,2:0:0:0:
429,250,110815,1,10,2:0:0:0:
429,250,110896,1,2,3:2:0:0:
250,170,111059,6,0,B|208:151|208:151|128:169,1,128,8|0,2:0|3:0,2:0:0:0:
76,44,111549,2,0,P|68:75|63:106,1,64,10|0,2:0|2:0,2:0:0:0:
128,169,111875,1,0,3:0:0:0:
23,335,112038,5,8,2:0:0:0:
19,329,112119,1,8,2:0:0:0:
15,323,112201,2,0,P|60:280|122:281,1,128,6|0,3:2|2:0,2:0:0:0:
242,366,112690,2,0,P|248:334|256:303,1,64,0|10,3:0|2:0,2:0:0:0:
180,170,113016,2,0,P|187:201|194:232,1,64,0|2,3:0|2:0,2:0:0:0:
350,269,113342,1,8,2:0:0:0:
350,269,113668,5,8,2:0:0:0:
492,225,113831,2,0,L|429:210,1,64,0|0,2:0|3:0,2:0:0:0:
429,210,114076,1,0,3:0:0:0:
429,210,114157,1,10,2:0:0:0:
256,303,114320,1,8,2:0:0:0:
275,89,114483,1,4,3:0:0:0:
350,269,114646,1,4,3:0:0:0:
180,170,114809,5,14,2:1:0:0:
399,88,114972,1,0,2:0:0:0:
399,88,115135,2,0,P|404:56|408:24,1,64,0|0,3:0|2:0,2:0:0:0:
275,89,115462,2,0,P|280:120|284:152,1,64,0|0,3:0|2:0,2:0:0:0:
89,90,115788,1,0,3:0:0:0:
149,270,115951,5,8,2:0:0:0:
180,170,116114,1,2,3:1:0:0:
19,308,116277,1,8,2:0:0:0:
217,369,116440,1,0,3:0:0:0:
149,270,116603,5,8,2:3:0:0:
149,270,116684,1,8,2:3:0:0:
149,270,116766,2,0,P|180:262|211:255,1,64,6|4,3:0|2:3,2:0:0:0:
346,167,117092,2,0,P|315:159|284:152,1,64,4|4,3:0|2:3,2:0:0:0:
180,170,117418,5,14,3:1:0:0:
394,70,117581,1,8,2:0:0:0:
350,275,117744,1,0,3:0:0:0:
350,275,118070,6,0,P|381:267|412:260,1,64,0|0,3:0|2:0,2:0:0:0:
283,151,118396,1,0,3:0:0:0:
217,369,118559,6,0,P|154:322|77:336,1,160,12|0,2:0|2:0,2:0:0:0:
255,269,119049,1,8,2:0:0:0:
137,170,119212,5,0,3:0:0:0:
137,170,119293,1,0,3:0:0:0:
137,170,119375,1,6,3:0:0:0:
217,369,119538,1,4,2:3:0:0:
412,259,119701,1,4,3:0:0:0:
412,259,120027,6,0,P|422:163|436:68,1,191.999994140625,4|2,3:2|2:0,2:0:0:0:
436,68,121005,1,0,2:0:0:0:
212,194,121331,5,2,2:1:0:0:
273,103,121657,1,0,2:0:0:0:
273,103,121820,2,0,P|277:126|282:150,1,47.9999985351563,2|0,2:0|2:0,2:0:0:0:
255,269,122146,2,0,P|250:292|245:316,1,47.9999985351563,2|0,2:0|2:0,2:0:0:0:
83,249,122472,5,0,3:0:0:0:
80,239,122554,1,0,3:0:0:0:
78,231,122635,2,0,P|135:179|211:193,1,160,14|0,2:1|3:0,2:0:0:0:
345,286,123125,2,0,P|384:277|423:269,1,80,12|0,2:0|3:0,2:0:0:0:
211,193,123451,1,0,3:0:0:0:
366,86,123614,2,0,P|357:125|349:164,1,80,12|0,2:0|3:0,2:0:0:0:
255,269,123940,5,2,3:1:0:0:
150,101,124103,2,0,B|63:80|63:80|26:101|37:140,1,160,12|0,2:0|3:0,2:0:0:0:
211,193,124592,1,14,2:1:0:0:
83,302,124755,1,0,3:0:0:0:
83,302,124837,1,0,3:0:0:0:
83,302,124918,2,0,P|89:341|97:380,1,80,8|0,2:0|3:0,2:0:0:0:
255,269,125244,1,14,2:1:0:0:
255,269,125570,5,8,2:0:0:0:
305,384,125733,1,8,2:0:0:0:
156,345,125896,1,8,2:0:0:0:
363,238,126059,5,0,3:0:0:0:
363,238,126141,1,0,3:0:0:0:
363,238,126222,1,8,2:0:0:0:
179,119,126385,1,8,2:0:0:0:
179,119,126712,2,0,L|185:79,1,40,0|0,3:0|3:0,2:0:0:0:
203,0,126875,1,12,2:0:0:0:
203,0,127201,5,0,3:0:0:0:
301,163,127364,1,8,2:0:0:0:
315,140,127445,1,8,2:0:0:0:
334,122,127527,1,8,2:0:0:0:
358,110,127608,1,8,2:0:0:0:
384,106,127690,1,8,2:0:0:0:
411,108,127771,1,8,2:0:0:0:
435,118,127853,6,0,B|419:179|419:179|437:221|437:221|423:278,1,167.999994873047,6|10,3:1|2:0,2:0:0:0:
258,252,128342,2,0,P|297:239|338:226,1,83.9999974365235,2|2,2:0|2:0,2:0:0:0:
206,86,128668,2,0,P|194:126|183:166,1,83.9999974365235,2|10,3:2|2:0,2:0:0:0:
229,371,128994,6,0,P|158:328|80:350,1,167.999994873047,2|0,3:2|2:0,2:0:0:0:
247,244,129483,1,10,2:0:0:0:
55,146,129646,2,0,P|66:186|77:226,1,83.9999974365235,2|2,3:1|2:0,2:0:0:0:
206,86,129972,2,0,P|165:74|125:63,1,83.9999974365235,0|10,3:0|2:0,2:0:0:0:
246,242,130299,5,2,2:0:0:0:
246,242,130380,1,2,2:0:0:0:
246,242,130462,2,0,B|309:226|309:226|352:245|352:245|406:231,1,167.999994873047,6|10,3:1|2:0,2:0:0:0:
372,73,130951,1,0,3:0:0:0:
372,73,131032,1,0,3:0:0:0:
372,72,131114,2,0,P|363:113|358:154,1,83.9999974365235,2|2,3:2|3:2,2:0:0:0:
468,44,131440,1,10,2:0:0:0:
287,3,131603,6,0,P|232:63|151:60,1,167.999994873047,6|0,3:1|3:0,2:0:0:0:
261,191,132092,1,10,2:0:0:0:
98,229,132255,1,0,3:0:0:0:
98,229,132337,1,0,3:0:0:0:
98,229,132418,2,0,P|56:220|15:212,1,83.9999974365235,2|0,3:1|3:0,2:0:0:0:
179,375,132744,2,0,P|187:333|195:292,1,83.9999974365235,10|0,2:0|2:0,2:0:0:0:
355,131,133070,6,0,P|274:143|210:92,1,167.999994873047,6|10,3:1|2:0,2:0:0:0:
381,315,133559,1,0,3:0:0:0:
381,315,133641,1,0,3:0:0:0:
381,315,133722,2,0,P|422:306|463:298,1,83.9999974365235,2|2,3:2|3:2,2:0:0:0:
235,263,134049,1,10,2:0:0:0:
355,131,134212,6,0,P|346:172|338:213,1,83.9999974365235,2|0,3:1|2:0,2:0:0:0:
154,185,134538,2,0,P|145:143|136:102,1,83.9999974365235,0|10,3:0|2:0,2:0:0:0:
32,384,134864,6,0,P|84:322|165:328,1,167.999994873047,0|0,3:0|3:0,2:0:0:0:
247,179,135353,2,0,P|240:220|234:262,1,83.9999974365235,10|2,2:0|2:0,2:0:0:0:
323,345,135679,6,0,P|381:288|462:296,1,167.999994873047,2|10,3:1|2:0,2:0:0:0:
355,114,136168,2,0,P|349:155|344:197,1,83.9999974365235,0|2,3:0|3:2,2:0:0:0:
187,80,136494,1,2,3:2:0:0:
294,13,136657,1,10,2:0:0:0:
247,179,136820,6,0,P|180:132|100:149,1,167.999994873047,6|0,3:1|3:0,2:0:0:0:
46,238,137309,1,10,2:0:0:0:
100,149,137472,2,0,P|90:108|79:67,1,83.9999974365235,6|0,3:1|2:0,2:0:0:0:
175,318,137799,1,8,2:0:0:0:
189,293,137880,1,8,2:0:0:0:
209,274,137962,1,0,3:0:0:0:
234,262,138043,1,0,3:0:0:0:
261,256,138125,1,0,3:0:0:0:
289,259,138206,1,0,3:0:0:0:
314,268,138288,6,0,B|412:293|412:293|438:268|470:260,1,167.999994873047,6|10,2:1|2:0,2:0:0:0:
408,106,138777,2,0,P|400:147|394:188,1,83.9999974365235,2|2,2:0|3:2,2:0:0:0:
239,108,139103,2,0,P|232:66|225:25,1,83.9999974365235,2|10,3:2|2:0,2:0:0:0:
208,273,139429,6,0,P|142:226|64:248,1,167.999994873047,2|0,3:2|2:0,2:0:0:0:
64,248,139918,1,10,2:0:0:0:
150,122,140081,2,0,P|143:80|136:39,1,83.9999974365235,2|2,3:1|3:2,2:0:0:0:
222,191,140407,2,0,P|215:232|208:273,1,83.9999974365235,0|10,3:0|2:0,2:0:0:0:
318,372,140733,5,2,3:2:0:0:
318,372,140815,1,2,3:2:0:0:
318,372,140896,2,0,P|378:317|458:330,1,167.999994873047,2|10,3:1|2:0,2:0:0:0:
317,238,141385,1,0,3:0:0:0:
317,238,141467,1,0,3:0:0:0:
317,238,141549,2,0,P|324:196|330:155,1,83.9999974365235,2|2,3:2|3:2,2:0:0:0:
439,66,141875,1,10,2:0:0:0:
273,25,142038,6,0,P|212:80|131:73,1,167.999994873047,2|0,3:1|3:0,2:0:0:0:
198,240,142527,1,10,2:0:0:0:
19,197,142690,1,0,3:0:0:0:
19,197,142771,1,0,3:0:0:0:
19,197,142853,2,0,P|59:184|99:172,1,83.9999974365235,2|0,2:1|3:0,2:0:0:0:
202,244,143097,1,2,3:2:0:0:
202,244,143179,2,0,P|189:285|177:325,1,83.9999974365235,10|2,2:0|2:0,2:0:0:0:
216,137,143505,6,0,B|260:146|279:169|279:169|371:141,1,167.999994873047,6|10,3:1|2:0,2:0:0:0:
481,249,143994,1,0,3:0:0:0:
481,249,144076,1,0,3:0:0:0:
481,249,144157,2,0,P|488:207|495:166,1,83.9999974365235,2|2,3:2|3:2,2:0:0:0:
363,353,144483,1,10,2:0:0:0:
506,384,144646,6,0,P|441:334|362:352,1,167.999994873047,2|0,3:1|3:0,2:0:0:0:
198,240,145135,2,0,P|207:280|215:322,1,83.9999974365235,10|0,2:0|3:0,2:0:0:0:
301,191,145462,1,2,3:2:0:0:
122,146,145625,1,2,3:2:0:0:
250,41,145788,5,10,2:0:0:0:
198,240,145951,1,0,2:0:0:0:
405,164,146114,2,0,B|395:227|395:227|414:268|414:268|403:326,1,167.999994873047,6|8,3:1|2:0,2:0:0:0:
197,240,146603,2,0,P|239:232|280:224,1,83.9999974365235,8|8,2:0|2:0,2:0:0:0:
405,164,146929,1,8,2:0:0:0:
245,94,147092,1,8,2:0:0:0:
350,22,147255,5,8,2:0:0:0:
350,22,147337,1,8,2:0:0:0:
350,22,147418,1,10,2:1:0:0:
280,224,147581,1,8,2:0:0:0:
163,75,147744,2,0,P|204:83|244:93,1,83.9999974365235,8|8,2:0|2:0,2:0:0:0:
135,231,148070,5,8,2:0:0:0:
347,101,148233,1,0,3:0:0:0:
163,75,148396,1,8,2:0:0:0:
280,224,148559,1,0,3:0:0:0:
77,361,148722,6,0,P|131:300|212:304,1,167.999994873047,14|4,3:1|2:3,2:0:0:0:
388,371,149212,2,0,P|394:329|402:288,1,83.9999974365235,8|4,2:0|2:3,2:0:0:0:
265,141,149538,1,4,2:3:0:0:
265,141,149701,2,0,P|272:182|279:223,1,83.9999974365235,8|4,2:0|2:3,2:0:0:0:
382,85,150027,5,4,2:3:0:0:
198,34,150190,2,0,B|149:76|149:76|45:59,1,167.999994873047,12|0,2:0|3:0,2:0:0:0:
46,59,150597,1,0,3:0:0:0:
46,59,150679,1,8,2:0:0:0:
123,208,150842,1,8,2:0:0:0:
123,208,150924,1,8,2:0:0:0:
123,208,151005,2,0,L|129:166,3,41.9999987182618,0|0|0|0,3:0|3:0|3:0|3:0,2:0:0:0:
166,293,151331,6,0,P|112:260|50:270,2,128,14|0|0,2:1|3:0|3:0,2:0:0:0:
166,293,152309,1,0,3:0:0:0:
265,141,152635,6,0,L|293:265,1,128,2|0,3:1|3:0,2:0:0:0:
437,276,153125,1,8,2:3:0:0:
437,276,153288,2,0,L|422:338,1,64,6|0,3:0|2:0,2:0:0:0:
302,216,153614,2,0,L|364:201,1,64,4|0,3:0|2:0,2:0:0:0:
471,73,153940,6,0,P|408:83|352:54,1,128,6|0,3:1|3:0,2:0:0:0:
245,14,154429,1,0,2:0:0:0:
245,14,154592,2,0,L|265:141,1,128,0|0,3:0|3:0,2:0:0:0:
204,240,155081,1,12,2:0:0:0:
322,258,155244,6,0,P|265:229|203:239,1,128,2|0,3:1|2:0,2:0:0:0:
80,327,155733,1,8,3:0:0:0:
80,327,155815,1,8,3:0:0:0:
80,327,155896,2,0,P|67:264|56:201,1,128,6|4,3:0|3:0,2:0:0:0:
161,79,156385,1,0,2:0:0:0:
161,80,156549,6,0,P|99:92|46:59,2,128,6|0|0,3:1|3:0|3:0,2:0:0:0:
347,0,157527,1,0,3:0:0:0:
347,0,157690,1,8,2:0:0:0:
413,73,157853,2,0,P|402:136|393:199,1,128,2|0,3:1|3:0,2:0:0:0:
284,255,158342,1,8,2:3:0:0:
284,255,158424,1,8,2:3:0:0:
284,255,158505,2,0,P|289:286|293:318,1,64,6|4,3:0|2:3,2:0:0:0:
412,364,158831,2,0,P|416:332|421:300,1,64,4|4,3:0|3:0,2:0:0:0:
290,121,159157,6,0,P|341:155|403:145,2,128,6|0|0,3:1|3:0|3:0,2:0:0:0:
129,29,160135,1,0,3:0:0:0:
129,29,160299,1,12,2:0:0:0:
175,102,160462,2,0,L|154:228,1,128,2|0,3:1|3:0,2:0:0:0:
103,373,160951,1,8,2:0:0:0:
95,364,161032,1,8,2:0:0:0:
85,354,161114,2,0,P|54:361|22:369,1,64,0|4,3:0|3:0,2:0:0:0:
92,212,161440,2,0,P|123:219|154:227,1,64,4|4,3:0|2:3,2:0:0:0:
193,355,161766,6,0,P|255:339|317:323,1,128,6|2,3:1|2:0,2:0:0:0:
364,173,162255,2,0,P|356:204|348:235,1,64,0|10,3:0|2:0,2:0:0:0:
449,342,162581,2,0,P|441:311|433:279,1,64,0|2,3:0|2:0,2:0:0:0:
435,108,162907,1,8,2:0:0:0:
434,108,163070,2,0,P|372:119|318:87,1,128,2|0,3:1|2:0,2:0:0:0:
154,227,163559,2,0,P|146:196|138:164,1,64,0|10,3:0|2:0,2:0:0:0:
234,54,163885,1,0,2:0:0:0:
114,42,164049,1,0,3:0:0:0:
245,165,164212,5,8,2:0:0:0:
245,165,164293,1,8,2:0:0:0:
245,165,164375,2,0,P|306:148|369:133,1,128,6|2,3:1|2:0,2:0:0:0:
433,279,164864,2,0,P|441:248|448:216,1,64,0|10,3:0|2:0,2:0:0:0:
353,71,165190,2,0,P|361:101|368:133,1,64,0|2,3:0|2:0,2:0:0:0:
332,310,165516,6,0,P|277:278|215:288,1,128,8|8,2:0|2:0,2:0:0:0:
170,365,166005,1,0,2:0:0:0:
70,263,166168,1,0,3:0:0:0:
70,263,166250,1,0,3:0:0:0:
70,263,166331,2,0,P|100:273|129:285,1,64,10|8,2:0|2:0,2:0:0:0:
265,190,166657,1,4,3:0:0:0:
112,111,166820,5,2,3:2:0:0:
112,111,166902,1,2,3:2:0:0:
112,111,166983,1,6,3:1:0:0:
112,111,167309,5,8,2:0:0:0:
296,22,167472,1,8,2:0:0:0:
188,213,167635,1,8,2:0:0:0:
174,4,167799,1,8,2:0:0:0:
302,160,167962,1,8,2:0:0:0:
389,22,168125,5,8,2:0:0:0:
389,22,168206,1,8,2:0:0:0:
388,22,168288,2,0,P|349:33|312:47,1,80,10|8,2:1|2:0,2:0:0:0:
477,167,168614,2,0,P|488:128|502:91,1,80,8|8,2:0|2:0,2:0:0:0:
275,255,168940,5,8,2:0:0:0:
459,298,169103,1,8,2:0:0:0:
394,121,169266,1,8,2:0:0:0:
339,353,169429,5,8,2:0:0:0:
339,353,169510,1,8,2:0:0:0:
339,353,169592,2,0,P|274:310|198:328,1,160,14|4,3:1|2:3,2:0:0:0:
70,263,170081,2,0,P|79:301|88:340,1,80,12|4,3:2|2:3,2:0:0:0:
184,209,170407,1,4,2:3:0:0:
2,149,170570,1,12,3:2:0:0:
129,51,170733,5,4,2:3:0:0:
129,51,170815,1,4,2:3:0:0:
129,51,170896,1,14,3:1:0:0:
103,142,171059,2,0,P|181:124|259:109,1,160,4|0,2:3|3:0,2:0:0:0:
329,39,171549,1,8,2:0:0:0:
507,240,171712,1,8,2:0:0:0:
489,219,171793,1,8,2:0:0:0:
467,205,171875,1,8,2:0:0:0:
442,196,171956,1,8,2:0:0:0:
415,195,172038,1,8,2:0:0:0:
389,201,172119,1,8,2:0:0:0:
366,213,172201,6,0,P|312:268|236:256,1,160,6|10,3:1|2:0,2:0:0:0:
103,142,172690,1,2,2:0:0:0:
103,142,172771,1,2,2:0:0:0:
103,142,172853,2,0,P|94:181|87:220,1,80,2|2,3:2|3:2,2:0:0:0:
236,256,173179,2,0,P|243:216|251:177,1,80,10|2,2:0|3:2,2:0:0:0:
61,335,173505,6,0,P|136:316|202:358,1,160,2|10,3:1|2:0,2:0:0:0:
330,161,173994,1,2,3:1:0:0:
330,161,174076,1,2,2:0:0:0:
330,161,174157,2,0,P|290:168|251:176,1,80,2|0,2:0|3:0,2:0:0:0:
397,312,174483,2,0,P|404:272|412:233,1,80,10|2,2:0|3:2,2:0:0:0:
324,46,174809,6,0,P|401:56|462:8,1,160,2|10,3:1|2:0,2:0:0:0:
251,176,175299,1,0,3:0:0:0:
251,176,175380,1,0,3:0:0:0:
251,176,175462,2,0,P|243:136|235:97,1,80,2|0,3:2|3:0,2:0:0:0:
161,33,175788,1,10,2:0:0:0:
61,136,175951,6,0,P|100:127|139:120,1,80,2|0,3:1|2:0,2:0:0:0:
298,261,176277,1,0,3:0:0:0:
335,132,176440,1,10,2:0:0:0:
204,326,176603,2,0,P|281:315|346:358,1,160,0|0,3:0|3:0,2:0:0:0:
399,193,177092,1,10,2:0:0:0:
235,97,177255,5,0,3:0:0:0:
235,97,177337,1,0,3:0:0:0:
235,97,177418,2,0,P|251:175|266:253,1,160,6|10,3:1|2:0,2:0:0:0:
371,138,177907,1,2,3:2:0:0:
371,138,177989,1,2,3:2:0:0:
371,138,178070,2,0,L|333:129,1,40,2|0,3:2|2:0,2:0:0:0:
237,58,178233,2,0,L|275:49,1,40,2|2,3:2|2:0,2:0:0:0:
266,253,178396,1,10,2:0:0:0:
266,253,178478,1,2,2:0:0:0:
266,253,178559,6,0,P|200:210|124:226,1,160,2|0,3:1|3:0,2:0:0:0:
45,168,179049,1,10,2:0:0:0:
107,330,179212,1,0,3:0:0:0:
107,330,179293,1,0,3:0:0:0:
107,330,179375,2,0,P|145:318|183:306,1,80,2|0,3:2|3:0,2:0:0:0:
146,149,179701,2,0,P|134:187|122:225,1,80,10|0,2:0|2:0,2:0:0:0:
268,354,180027,6,0,P|330:307|406:321,1,160,2|10,3:1|2:0,2:0:0:0:
258,245,180516,1,0,3:0:0:0:
258,245,180597,1,0,3:0:0:0:
258,244,180679,2,0,P|247:205|239:166,1,80,2|2,3:2|3:2,2:0:0:0:
283,79,181005,1,10,2:0:0:0:
409,172,181168,6,0,P|369:163|331:153,1,80,6|0,3:1|2:0,2:0:0:0:
196,38,181494,1,0,3:0:0:0:
196,38,181576,1,0,3:0:0:0:
196,38,181657,1,10,2:0:0:0:
252,245,181820,1,6,3:1:0:0:
252,245,182146,5,0,3:2:0:0:
233,224,182227,1,0,3:0:0:0:
211,209,182309,1,10,2:1:0:0:
186,201,182390,1,0,3:0:0:0:
160,197,182472,1,0,3:0:0:0:
134,201,182553,1,0,3:0:0:0:
114,207,182635,6,0,B|159:275|105:321|105:321|26:319|25:240,1,256,6|10,3:1|2:0,2:0:0:0:
25,240,183614,1,2,2:0:0:0:
233,224,183777,1,8,2:0:0:0:
233,224,183858,1,8,2:0:0:0:
233,224,183940,2,0,P|238:192|243:160,1,64,2|8,3:1|2:0,2:0:0:0:
151,42,184266,2,0,P|156:73|161:105,1,64,0|0,3:0|3:0,2:0:0:0:
243,160,184592,5,10,2:0:0:0:
379,26,184755,2,0,P|331:28|288:7,1,96,0|0,3:0|3:0,2:0:0:0:
455,105,185163,1,10,2:0:0:0:
455,105,185244,2,0,L|427:230,1,128,6|2,3:1|2:0,2:0:0:0:
386,339,185733,1,0,3:0:0:0:
386,339,185815,1,0,3:0:0:0:
386,339,185896,1,10,2:0:0:0:
243,160,186059,5,6,3:1:0:0:
502,311,186304,5,6,2:1:0:0:
243,382,186549,6,0,B|205:360|205:360|124:382,1,128,6|2,3:1|2:0,2:0:0:0:
50,246,187038,1,0,3:0:0:0:
50,246,187119,1,0,3:0:0:0:
50,246,187201,2,0,L|33:307,1,64,10|8,2:1|2:0,2:0:0:0:
135,196,187527,2,0,L|118:134,1,64,4|2,3:0|3:2,2:0:0:0:
191,23,187853,6,0,P|274:85|375:60,1,215.999993408203,6|2,3:1|2:0,2:0:0:0:
375,60,188505,1,8,2:0:0:0:
233,224,188831,1,0,3:0:0:0:
233,224,188994,2,0,P|303:237|374:251,1,143.999995605469,12|8,2:0|2:0,2:0:0:0:
466,186,189483,1,0,3:0:0:0:
421,342,189646,5,0,3:0:0:0:
421,342,189728,1,0,3:0:0:0:
421,342,189809,1,8,2:0:0:0:
233,224,189972,1,8,2:0:0:0:
372,150,190135,5,0,3:0:0:0:
294,357,190299,1,0,3:0:0:0:
294,357,190380,1,0,3:0:0:0:
294,357,190462,2,0,P|234:321|164:333,1,143.999995605469,6|0,3:1|3:0,2:0:0:0:
8,291,190951,1,0,3:0:0:0:
83,194,191114,2,0,P|90:229|97:264,1,71.9999978027344,8|8,2:0|2:0,2:0:0:0:
208,163,191440,1,0,3:0:0:0:
8,100,191603,5,8,2:0:0:0:
8,100,191684,1,8,2:0:0:0:
8,100,191766,1,0,3:0:0:0:
148,8,191929,1,8,2:0:0:0:
83,194,192092,1,2,3:2:0:0:
329,117,192255,5,0,3:0:0:0:
329,117,192337,1,0,3:0:0:0:
329,117,192418,1,8,2:0:0:0:
95,81,192581,1,8,2:0:0:0:
183,272,192744,1,0,3:0:0:0:
208,163,192907,5,0,3:0:0:0:
208,163,192989,1,0,3:0:0:0:
208,163,193070,1,6,3:1:0:0:
256,192,193152,12,2,194375,3:1:0:0:
256,192,194456,12,2,195679,2:1:0:0:
421,40,206114,6,0,P|411:177|298:97,1,335.999989746094,2|0,2:0|2:0,2:0:0:0:
339,27,207418,1,14,3:1:0:0:
277,273,208070,5,0,3:0:0:0:
195,172,208233,1,8,2:0:0:0:
169,163,208314,1,8,2:0:0:0:
143,161,208396,1,8,2:0:0:0:
117,166,208477,1,8,2:0:0:0:
93,179,208559,1,8,2:0:0:0:
74,197,208640,1,8,2:0:0:0:
60,219,208722,6,0,P|42:140|25:62,1,160,6|10,3:1|2:0,2:0:0:0:
186,84,209212,2,0,P|177:123|168:162,1,80,4|0,3:2|2:0,2:0:0:0:
294,351,209538,1,0,3:0:0:0:
294,351,209619,1,0,3:0:0:0:
294,351,209701,2,0,P|285:311|276:272,1,80,10|2,2:0|3:2,2:0:0:0:
298,95,210027,6,0,B|392:75|392:75|414:105|450:113,1,167.999994873047,6|10,3:1|2:0,2:0:0:0:
385,257,210516,1,0,3:0:0:0:
385,257,210597,1,0,3:0:0:0:
385,257,210679,2,0,P|374:216|364:175,1,83.9999974365235,2|2,3:2|3:2,2:0:0:0:
276,272,211005,1,10,2:0:0:0:
186,84,211168,6,0,P|131:144|50:138,1,167.999994873047,6|0,3:1|3:0,2:0:0:0:
189,232,211657,1,10,2:0:0:0:
37,321,211820,1,0,3:0:0:0:
37,321,211902,1,0,3:0:0:0:
36,321,211983,2,0,P|76:331|116:344,1,83.9999974365235,2|0,3:1|3:0,2:0:0:0:
212,151,212309,2,0,P|201:191|188:231,1,83.9999974365235,10|0,2:0|2:0,2:0:0:0:
294,351,212635,6,0,P|354:296|435:304,1,167.999994873047,6|10,3:1|2:0,2:0:0:0:
309,181,213125,1,0,3:0:0:0:
309,181,213206,1,0,3:0:0:0:
309,181,213288,2,0,P|320:139|331:100,1,83.9999974365235,2|2,3:2|3:2,2:0:0:0:
269,17,213614,1,10,2:0:0:0:
428,66,213777,6,0,P|470:55|509:44,1,83.9999974365235,6|0,3:1|2:0,2:0:0:0:
434,235,214103,2,0,P|423:193|412:154,1,83.9999974365235,0|10,3:0|2:0,2:0:0:0:
269,17,214429,2,0,B|206:0|172:31|172:31|161:66|130:80,1,167.999994873047,0|0,3:0|3:0,2:0:0:0:
219,192,214918,2,0,P|225:150|233:109,1,83.9999974365235,10|0,2:0|3:0,2:0:0:0:
54,259,215244,6,0,B|137:236|137:236|158:273|202:281,1,167.999994873047,6|10,3:1|2:0,2:0:0:0:
314,86,215733,2,0,L|233:108,1,83.9999974365235,0|2,3:0|3:2,2:0:0:0:
389,234,216059,2,0,L|411:153,1,83.9999974365235,2|10,3:2|2:0,2:0:0:0:
174,30,216385,6,0,L|218:191,1,167.999994873047,6|0,3:1|3:0,2:0:0:0:
271,349,216875,1,10,2:0:0:0:
126,307,217038,2,0,P|160:282|201:281,1,83.9999974365235,6|0,3:1|2:0,2:0:0:0:
380,344,217364,1,8,2:0:0:0:
407,338,217445,1,8,2:0:0:0:
431,323,217527,1,0,3:0:0:0:
449,302,217608,1,0,3:0:0:0:
460,277,217690,1,0,3:0:0:0:
462,249,217771,1,0,3:0:0:0:
455,222,217853,6,0,B|362:201|394:271|297:253,1,167.999994873047,6|10,2:1|2:0,2:0:0:0:
174,30,218342,1,2,3:2:0:0:
174,30,218424,1,0,3:0:0:0:
174,30,218505,2,0,P|165:71|158:112,1,83.9999974365235,8|2,3:2|3:2,2:0:0:0:
297,253,218831,2,0,P|304:211|312:170,1,83.9999974365235,8|2,2:0|3:2,2:0:0:0:
41,333,219157,6,0,P|121:318|185:367,1,167.999994873047,14|8,3:1|2:0,2:0:0:0:
312,170,219646,2,0,P|270:177|229:185,1,83.9999974365235,2|8,3:1|2:0,2:0:0:0:
158,112,219972,1,0,3:0:0:0:
221,277,220135,1,8,2:0:0:0:
390,98,220299,5,2,3:2:0:0:
390,98,220380,1,2,3:2:0:0:
390,98,220462,2,0,P|378:181|370:264,1,167.999994873047,14|8,2:1|2:0,2:0:0:0:
158,112,220951,1,0,3:0:0:0:
158,112,221032,1,0,3:0:0:0:
157,112,221114,2,0,P|196:95|237:98,1,83.9999974365235,8|2,3:2|3:2,2:0:0:0:
116,21,221440,1,8,2:0:0:0:
75,204,221603,1,2,3:1:0:0:
303,146,221766,6,0,P|237:97|157:111,1,167.999994873047,8|10,2:0|2:0,2:0:0:0:
288,250,222255,1,0,3:0:0:0:
288,250,222337,1,0,3:0:0:0:
288,250,222418,2,0,L|370:228,1,83.9999974365235,10|0,2:1|3:0,2:0:0:0:
455,288,222663,1,2,3:2:0:0:
455,288,222744,2,0,L|477:206,1,83.9999974365235,8|2,2:0|2:0,2:0:0:0:
328,347,223070,6,0,B|283:310|232:326|232:326|217:358|184:368,1,167.999994873047,14|8,2:1|2:0,2:0:0:0:
180,173,223559,1,0,3:0:0:0:
180,173,223641,1,0,3:0:0:0:
180,173,223722,2,0,P|209:202|220:242,1,83.9999974365235,10|2,3:2|3:2,2:0:0:0:
98,311,224049,2,0,P|68:281|57:241,1,83.9999974365235,8|2,2:0|3:1,2:0:0:0:
118,64,224375,6,0,P|182:114|260:95,1,167.999994873047,8|8,2:0|2:0,2:0:0:0:
408,9,224864,1,0,3:0:0:0:
415,18,224945,1,0,3:0:0:0:
423,27,225027,2,0,P|413:67|404:108,1,83.9999974365235,8|2,3:2|3:2,2:0:0:0:
469,273,225353,2,0,P|478:232|488:192,1,83.9999974365235,10|0,2:0|2:0,2:0:0:0:
260,95,225679,6,0,B|244:157|244:157|263:198|263:198|249:255,1,167.999994873047,6|10,3:1|2:0,2:0:0:0:
79,231,226168,2,0,P|119:221|160:211,1,83.9999974365235,2|2,3:2|3:2,2:0:0:0:
269,353,226494,2,0,P|228:343|187:333,1,83.9999974365235,2|10,3:2|2:0,2:0:0:0:
7,162,226820,6,0,P|26:243|39:326,1,167.999994873047,2|0,3:2|2:0,2:0:0:0:
262,198,227309,1,10,2:0:0:0:
102,114,227472,1,2,3:1:0:0:
102,114,227554,1,0,3:0:0:0:
102,114,227635,1,2,3:2:0:0:
228,28,227799,1,0,3:0:0:0:
160,210,227962,2,0,P|169:251|179:292,1,83.9999974365235,10|2,2:0|2:0,2:0:0:0:
350,162,228288,6,0,P|286:111|206:126,1,167.999994873047,6|10,3:1|2:0,2:0:0:0:
421,9,228777,2,0,P|415:50|410:92,1,83.9999974365235,0|2,3:0|3:2,2:0:0:0:
272,281,229103,2,0,P|267:239|261:197,1,83.9999974365235,2|10,3:2|2:0,2:0:0:0:
452,355,229429,6,0,B|426:307|361:314|361:314|351:341|320:358,1,167.999994873047,6|0,3:1|3:0,2:0:0:0:
211,134,229918,2,0,P|243:159|260:197,1,83.9999974365235,10|0,2:0|3:0,2:0:0:0:
205,379,230244,1,2,3:1:0:0:
173,374,230325,1,0,3:0:0:0:
142,369,230407,1,0,3:0:0:0:
111,364,230488,1,0,3:0:0:0:
80,359,230570,1,10,2:0:0:0:
272,281,230733,1,0,3:0:0:0:
110,175,230896,5,14,2:1:0:0:
110,175,231222,5,8,2:0:0:0:
173,374,231385,1,8,2:0:0:0:
254,186,231549,1,8,2:0:0:0:
80,293,231712,1,8,2:0:0:0:
278,320,231875,1,8,2:0:0:0:
190,117,232038,5,8,2:0:0:0:
190,117,232119,1,8,0:0:0:0:
190,117,232201,2,0,P|196:75|202:33,1,83.9999974365235,10|8,2:1|2:0,2:0:0:0:
353,156,232527,2,0,P|359:114|365:72,1,83.9999974365235,8|8,2:0|2:0,2:0:0:0:
271,263,232853,5,8,2:0:0:0:
485,190,233016,1,8,2:0:0:0:
358,377,233179,1,8,2:0:0:0:
353,156,233343,1,8,2:0:0:0:
483,334,233506,1,12,2:0:0:0:
256,192,233587,12,0,236114,2:0:0:0:
375,43,236766,6,0,L|368:82,3,40,8|8|0|0,2:0|2:0|3:0|3:0,2:0:0:0:
423,153,237092,1,8,2:0:0:0:
400,172,237173,1,8,2:0:0:0:
387,198,237255,1,8,2:0:0:0:
386,228,237336,1,8,2:0:0:0:
398,255,237418,6,0,P|333:211|257:227,1,160,6|10,3:1|2:0,2:0:0:0:
166,311,237907,1,0,3:0:0:0:
166,311,237989,1,0,3:0:0:0:
166,311,238070,2,0,P|155:272|143:234,1,80,2|0,3:2|3:0,2:0:0:0:
315,307,238396,2,0,P|304:345|297:387,1,80,10|2,2:0|3:2,2:0:0:0:
257,227,238722,6,0,L|413:196,1,160,2|10,3:1|2:0,2:0:0:0:
270,120,239212,1,0,3:0:0:0:
388,50,239375,1,2,3:1:0:0:
341,198,239538,1,0,3:0:0:0:
168,135,239701,2,0,P|154:97|143:58,1,80,10|0,2:0|3:0,2:0:0:0:
27,347,240027,6,0,P|87:298|164:311,1,160,2|10,3:1|2:0,2:0:0:0:
244,108,240516,1,0,3:0:0:0:
244,108,240597,1,0,3:0:0:0:
243,108,240679,2,0,P|205:120|167:134,1,80,2|0,3:2|2:0,2:0:0:0:
341,198,241005,1,10,2:0:0:0:
472,41,241168,6,0,P|414:93|336:89,1,160,2|0,3:1|2:0,2:0:0:0:
213,233,241657,1,10,2:0:0:0:
421,282,241820,1,2,2:0:0:0:
421,282,241902,1,2,2:0:0:0:
421,281,241983,2,0,P|427:241|436:202,1,80,2|0,3:1|3:0,2:0:0:0:
296,293,242309,2,0,P|304:332|311:371,1,80,10|0,2:0|2:0,2:0:0:0:
61,244,242635,6,0,B|112:230|112:230|153:249|153:249|213:233,1,160,6|8,3:1|2:0,2:0:0:0:
173,75,243125,1,2,2:0:0:0:
173,75,243206,1,2,2:0:0:0:
173,75,243288,2,0,P|167:114|162:154,1,80,2|2,3:2|3:2,2:0:0:0:
95,1,243614,1,10,2:0:0:0:
263,53,243777,6,0,P|302:47|342:42,1,80,2|0,3:1|2:0,2:0:0:0:
436,202,244103,2,0,P|441:162|446:122,1,80,2|8,3:2|2:0,2:0:0:0:
316,274,244429,2,0,B|407:255|376:313|470:291,1,160,2|0,2:0|3:0,2:0:0:0:
348,360,244918,1,10,2:0:0:0:
232,223,245081,5,0,3:0:0:0:
232,223,245163,1,0,3:0:0:0:
232,223,245244,2,0,P|225:262|220:302,1,80,2|0,3:1|2:0,2:0:0:0:
33,361,245570,2,0,P|24:301|15:242,1,120,8|0,2:0|3:0,2:0:0:0:
4,203,245896,2,0,P|42:209|78:192,1,80,2|0,3:2|3:0,2:0:0:0:
139,54,246222,1,8,2:0:0:0:
232,223,246385,6,0,P|240:143|250:64,1,160,6|10,2:1|2:0,2:0:0:0:
256,27,246793,1,10,2:0:0:0:
256,27,246875,1,10,2:0:0:0:
446,122,247038,2,0,P|406:126|366:131,1,80,6|2,2:1|2:0,2:0:0:0:
220,302,247364,1,8,2:0:0:0:
202,281,247445,1,8,2:0:0:0:
180,266,247527,1,8,2:0:0:0:
155,258,247608,1,8,2:0:0:0:
128,257,247690,1,8,2:0:0:0:
102,262,247771,1,8,2:0:0:0:
77,274,247853,6,0,B|39:234|39:234|44:175|60:131,1,160,14|10,2:1|2:0,2:0:0:0:
139,54,248342,1,0,3:0:0:0:
139,54,248424,1,0,3:0:0:0:
139,54,248505,2,0,P|145:93|152:132,1,80,10|0,3:2|3:0,2:0:0:0:
160,172,248750,1,0,3:0:0:0:
160,172,248831,1,10,2:0:0:0:
347,124,248994,1,2,2:0:0:0:
287,305,249157,6,0,P|280:265|273:226,1,80,10|0,3:1|3:0,2:0:0:0:
414,65,249483,2,0,P|356:75|303:48,1,120,10|0,2:0|3:0,2:0:0:0:
213,12,249809,2,0,P|219:51|226:90,1,80,10|0,3:1|3:0,2:0:0:0:
389,163,250135,2,0,P|382:202|375:241,1,80,10|0,2:0|3:0,2:0:0:0:
220,302,250462,6,0,B|180:269|132:284|132:284|119:319|86:329,1,160,14|10,2:1|2:0,2:0:0:0:
64,134,250951,1,0,3:0:0:0:
64,134,251032,1,0,3:0:0:0:
64,134,251114,2,0,P|90:163|102:201,1,80,10|0,3:2|3:0,2:0:0:0:
232,76,251440,1,10,2:0:0:0:
113,5,251603,1,2,2:1:0:0:
192,175,251766,6,0,P|251:125|328:133,1,160,12|10,3:2|2:0,2:0:0:0:
462,239,252255,1,2,3:2:0:0:
462,239,252337,1,2,3:2:0:0:
462,239,252418,2,0,P|470:199|477:160,1,80,10|0,3:1|3:0,2:0:0:0:
328,133,252744,1,10,2:0:0:0:
434,49,252907,1,0,3:0:0:0:
208,0,253070,6,0,P|228:77|241:156,1,160,14|8,3:1|2:0,2:0:0:0:
364,284,253559,1,2,3:2:0:0:
364,284,253641,1,2,3:2:0:0:
364,284,253722,2,0,P|370:244|380:205,1,80,10|2,2:0|3:2,2:0:0:0:
186,273,254049,2,0,P|196:312|203:352,1,80,10|2,2:0|3:1,2:0:0:0:
241,156,254375,5,8,2:0:0:0:
49,75,254538,2,0,P|87:65|126:54,1,80,2|8,3:2|2:0,2:0:0:0:
241,156,254864,1,2,3:2:0:0:
241,156,254945,1,2,3:2:0:0:
241,156,255027,2,0,P|250:117|261:78,1,80,10|0,3:2|3:0,2:0:0:0:
70,184,255353,2,0,P|79:222|90:261,1,80,10|0,2:0|2:0,2:0:0:0:
202,351,255679,6,0,P|262:301|340:308,1,160,14|8,3:1|2:0,2:0:0:0:
405,112,256168,1,0,3:0:0:0:
405,112,256250,1,0,3:0:0:0:
405,112,256331,2,0,P|366:121|327:132,1,80,10|0,2:0|3:0,2:0:0:0:
153,66,256657,1,8,2:0:0:0:
322,217,256820,1,6,2:1:0:0:
329,224,257146,5,10,2:0:0:0:
329,224,257228,1,10,2:0:0:0:
329,224,257309,1,10,2:0:0:0:
108,299,257472,1,6,2:1:0:0:
117,308,257799,5,8,2:0:0:0:
117,308,257880,1,8,2:0:0:0:
117,308,257962,2,0,L|106:269,1,40,8|8,2:0|2:0,2:0:0:0:
224,154,258125,2,0,L|213:193,1,40,8|8,2:0|2:0,2:0:0:0:
340,308,258288,5,14,2:1:0:0:
256,192,258369,12,0,262201,2:0:0:0:
