osu file format v14

[General]
AudioFilename: audio.mp3
AudioLeadIn: 0
PreviewTime: 49592
Countdown: 0
SampleSet: Soft
StackLeniency: 0.4
Mode: 0
LetterboxInBreaks: 0
WidescreenStoryboard: 0

[Editor]
Bookmarks: 258288,260733,262201
DistanceSpacing: 1
BeatDivisor: 4
GridSize: 32
TimelineZoom: 2.2

[Metadata]
Title:Have a live day
TitleUnicode:Have a live day
Artist:Ceui
ArtistUnicode:Ceui
Creator:Shizuku-
Version:Erisa
Source:白恋サクラ*グラム
Tags:Shirokoi Sakura * Gram 白グラ Shirogra eternal snow blooming season of love NanaWind Koutaro Kotaro Odaka 小高 光太郎 Takayuki Ishikura 石倉誉之 SONO MAKERS Nagahara 永原さくら op opening full ver version eroge vn visual novel video game japanese
BeatmapID:2319111
BeatmapSetID:1109772

[Difficulty]
HPDrainRate:7
CircleSize:4
OverallDifficulty:9
ApproachRate:9.2
SliderMultiplier:1.76
SliderTickRate:1

[Events]
//Background and Video events
0,0,"evsERI01a.jpg",0,0
//Break Periods
2,83705,91902
2,195879,205544
//Storyboard Layer 0 (Background)
//Storyboard Layer 1 (Fail)
//Storyboard Layer 2 (Pass)
//Storyboard Layer 3 (Foreground)
//Storyboard Layer 4 (Overlay)
//Storyboard Sound Samples

[TimingPoints]
2636,326.086956521739,4,2,1,50,1,0
2636,-166.666666666667,4,2,1,50,0,0
7853,-166.666666666667,4,2,1,60,0,0
8505,-166.666666666667,4,2,2,60,0,0
9157,-166.666666666667,4,2,1,60,0,0
9809,-166.666666666667,4,2,2,60,0,0
10462,-166.666666666667,4,2,1,70,0,0
10951,-100,4,2,1,70,0,0
13070,-166.666666666667,4,2,1,70,0,0
14375,-166.666666666667,4,2,3,70,0,0
14864,-166.666666666667,4,2,1,70,0,0
15679,-166.666666666667,4,2,3,50,0,0
16657,-166.666666666667,4,2,1,50,0,0
16983,-166.666666666667,4,2,3,50,0,0
17472,-166.666666666667,4,2,1,50,0,0
18288,-166.666666666667,4,2,3,50,0,0
19266,-166.666666666667,4,2,1,50,0,0
19592,-166.666666666667,4,2,3,50,0,0
20244,-166.666666666667,4,2,1,50,0,0
20896,-166.666666666667,4,2,3,50,0,0
21875,-166.666666666667,4,2,1,50,0,0
22201,-166.666666666667,4,2,3,50,0,0
22853,-166.666666666667,4,2,1,50,0,0
23505,-166.666666666667,4,2,3,50,0,0
24646,-166.666666666667,4,2,1,50,0,0
24809,-166.666666666667,4,2,3,50,0,0
25135,-166.666666666667,4,2,1,50,0,0
26114,-111.111111111111,4,2,1,70,0,0
27092,-111.111111111111,4,2,3,70,0,0
27907,-111.111111111111,4,2,1,70,0,0
29701,-111.111111111111,4,2,3,70,0,0
30516,-111.111111111111,4,2,1,70,0,0
31331,-111.111111111111,4,2,3,70,0,0
31820,-111.111111111111,4,2,1,70,0,0
32635,-111.111111111111,4,2,3,70,0,0
33125,-111.111111111111,4,2,1,70,0,0
34429,-111.111111111111,4,2,3,70,0,0
34755,-111.111111111111,4,2,2,70,0,0
35081,-111.111111111111,4,2,1,70,0,0
36549,-125,4,2,1,70,0,0
37201,-125,4,2,2,70,0,0
37527,-125,4,2,1,70,0,0
37853,-125,4,2,2,70,0,0
38342,-125,4,2,1,70,0,0
38505,-125,4,2,2,70,0,0
38831,-125,4,2,1,70,0,0
39157,-125,4,2,2,70,0,0
39483,-125,4,2,1,70,0,0
39809,-125,4,2,2,70,0,0
40135,-125,4,2,1,70,0,0
40462,-125,4,2,2,70,0,0
40788,-125,4,2,1,70,0,0
41114,-125,4,2,2,70,0,0
41440,-125,4,2,1,70,0,0
41766,-166.666666666667,4,2,1,60,0,0
43070,-166.666666666667,4,2,3,60,0,0
43559,-166.666666666667,4,2,1,60,0,0
44375,-166.666666666667,4,2,3,70,0,0
44864,-100,4,2,3,70,0,0
45516,-100,4,2,1,70,0,0
45679,-100,4,2,3,70,0,0
46168,-100,4,2,1,70,0,0
46983,-100,4,2,3,70,0,0
49592,-95.2380952380952,4,2,4,80,0,1
49918,-95.2380952380952,4,2,3,80,0,1
50081,-95.2380952380952,4,2,1,80,0,1
50244,-95.2380952380952,4,2,2,80,0,1
50407,-95.2380952380952,4,2,1,80,0,1
50570,-95.2380952380952,4,2,2,80,0,1
50733,-95.2380952380952,4,2,1,80,0,1
50896,-95.2380952380952,4,2,4,80,0,1
51222,-95.2380952380952,4,2,2,80,0,1
52038,-95.2380952380952,4,2,1,80,0,1
52201,-95.2380952380952,4,2,4,80,0,1
52527,-95.2380952380952,4,2,2,80,0,1
53016,-95.2380952380952,4,2,1,80,0,1
53179,-95.2380952380952,4,2,2,80,0,1
53342,-95.2380952380952,4,2,3,80,0,1
54157,-95.2380952380952,4,2,4,80,0,1
54483,-95.2380952380952,4,2,3,80,0,1
54809,-95.2380952380952,4,2,5,80,0,1
55135,-95.2380952380952,4,2,2,80,0,1
55625,-95.2380952380952,4,2,1,80,0,1
55788,-95.2380952380952,4,2,2,80,0,1
55951,-95.2380952380952,4,2,3,80,0,1
56440,-95.2380952380952,4,2,2,80,0,1
57092,-95.2380952380952,4,2,3,80,0,1
57418,-95.2380952380952,4,2,4,80,0,1
57744,-95.2380952380952,4,2,3,80,0,1
58070,-95.2380952380952,4,2,2,80,0,1
58233,-95.2380952380952,4,2,1,80,0,1
58396,-95.2380952380952,4,2,2,80,0,1
58559,-95.2380952380952,4,2,3,80,0,1
59049,-95.2380952380952,4,2,2,80,0,1
59212,-95.2380952380952,4,2,1,80,0,1
60027,-95.2380952380952,4,2,4,80,0,1
60353,-95.2380952380952,4,2,3,80,0,1
60516,-95.2380952380952,4,2,1,80,0,1
60679,-95.2380952380952,4,2,2,80,0,1
60842,-95.2380952380952,4,2,1,80,0,1
61005,-95.2380952380952,4,2,2,80,0,1
61168,-95.2380952380952,4,2,1,80,0,1
61331,-95.2380952380952,4,2,4,80,0,1
61657,-95.2380952380952,4,2,2,80,0,1
62472,-95.2380952380952,4,2,1,80,0,1
62635,-95.2380952380952,4,2,4,80,0,1
62962,-95.2380952380952,4,2,2,80,0,1
63451,-95.2380952380952,4,2,1,80,0,1
63614,-95.2380952380952,4,2,2,80,0,1
63777,-95.2380952380952,4,2,3,80,0,1
64103,-95.2380952380952,4,2,2,80,0,1
64266,-95.2380952380952,4,2,3,80,0,1
64592,-95.2380952380952,4,2,4,80,0,1
64837,-95.2380952380952,4,2,1,80,0,1
64918,-95.2380952380952,4,2,2,80,0,1
65081,-95.2380952380952,4,2,1,80,0,1
65244,-95.2380952380952,4,2,5,80,0,1
65570,-95.2380952380952,4,2,2,80,0,1
65896,-95.2380952380952,4,2,3,80,0,1
66059,-95.2380952380952,4,2,1,80,0,1
66222,-95.2380952380952,4,2,2,80,0,1
66385,-95.2380952380952,4,2,3,80,0,1
66875,-95.2380952380952,4,2,2,80,0,1
67364,-95.2380952380952,4,2,1,80,0,1
67527,-95.2380952380952,4,2,3,80,0,1
69157,-95.2380952380952,4,2,1,80,0,1
70462,-95.2380952380952,4,2,6,70,0,0
72581,-95.2380952380952,4,2,3,70,0,0
72744,-166.666666666667,4,2,3,70,0,0
73070,-100,4,2,3,70,0,0
73396,-100,4,2,1,70,0,0
75027,-100,4,2,3,70,0,0
75353,-100,4,2,1,70,0,0
75679,-100,4,2,3,70,0,0
76005,-100,4,2,1,70,0,0
76820,-100,4,2,3,70,0,0
77309,-100,4,2,1,70,0,0
77635,-100,4,2,3,70,0,0
77962,-100,4,2,1,70,0,0
78288,-100,4,2,3,70,0,0
78777,-100,4,2,1,70,0,0
79429,-100,4,2,3,70,0,0
79755,-100,4,2,1,70,0,0
80896,-100,4,2,3,70,0,0
81549,-100,4,2,1,70,0,0
82038,-100,4,2,3,70,0,0
82364,-100,4,2,1,70,0,0
83505,-100,4,2,7,60,0,0
92472,-166.666666666667,4,2,3,60,0,0
93451,-250,4,2,1,60,0,0
93940,-111.111111111111,4,2,1,60,0,0
102255,-111.111111111111,4,2,3,60,0,0
102744,-111.111111111111,4,2,1,60,0,0
104375,-125,4,2,1,70,0,0
105027,-125,4,2,2,70,0,0
105190,-125,4,2,1,70,0,0
105679,-125,4,2,3,70,0,0
107309,-125,4,2,1,70,0,0
107635,-125,4,2,3,70,0,0
107799,-125,4,2,1,70,0,0
108451,-125,4,2,3,70,0,0
108940,-125,4,2,3,70,0,0
109266,-125,4,2,1,70,0,0
110244,-125,4,2,2,70,0,0
110733,-125,4,2,1,70,0,0
110896,-125,4,2,3,70,0,0
113179,-125,4,2,1,70,0,0
113505,-125,4,2,3,70,0,0
114157,-125,4,2,2,70,0,0
114809,-125,4,2,1,60,0,0
116766,-125,4,2,2,60,0,0
117418,-125,4,2,1,60,0,0
118559,-100,4,2,1,60,0,0
119375,-100,4,2,2,60,0,0
120027,-166.666666666667,4,2,2,60,0,0
120679,-166.666666666667,4,2,1,60,0,0
121331,-166.666666666667,4,2,3,60,0,0
121820,-166.666666666667,4,2,1,60,0,0
122635,-166.666666666667,4,2,1,70,0,0
124103,-100,4,2,1,70,0,0
127853,-95.2380952380952,4,2,4,80,0,1
128179,-95.2380952380952,4,2,3,80,0,1
128342,-95.2380952380952,4,2,1,80,0,1
128505,-95.2380952380952,4,2,2,80,0,1
128668,-95.2380952380952,4,2,1,80,0,1
128831,-95.2380952380952,4,2,2,80,0,1
128994,-95.2380952380952,4,2,1,80,0,1
129157,-95.2380952380952,4,2,4,80,0,1
129483,-95.2380952380952,4,2,2,80,0,1
130299,-95.2380952380952,4,2,1,80,0,1
130462,-95.2380952380952,4,2,5,80,0,1
130788,-95.2380952380952,4,2,2,80,0,1
131277,-95.2380952380952,4,2,1,80,0,1
131440,-95.2380952380952,4,2,2,80,0,1
131603,-95.2380952380952,4,2,3,80,0,1
132418,-95.2380952380952,4,2,4,80,0,1
132744,-95.2380952380952,4,2,3,80,0,1
133070,-95.2380952380952,4,2,5,80,0,1
133396,-95.2380952380952,4,2,2,80,0,1
133885,-95.2380952380952,4,2,1,80,0,1
134049,-95.2380952380952,4,2,2,80,0,1
134212,-95.2380952380952,4,2,3,80,0,1
134701,-95.2380952380952,4,2,2,80,0,1
135353,-95.2380952380952,4,2,3,80,0,1
135516,-95.2380952380952,4,2,1,80,0,1
135679,-95.2380952380952,4,2,4,80,0,1
136005,-95.2380952380952,4,2,3,80,0,1
136331,-95.2380952380952,4,2,2,80,0,1
136494,-95.2380952380952,4,2,1,80,0,1
136657,-95.2380952380952,4,2,2,80,0,1
136820,-95.2380952380952,4,2,3,80,0,1
137309,-95.2380952380952,4,2,2,80,0,1
137472,-95.2380952380952,4,2,1,80,0,1
138288,-95.2380952380952,4,2,4,80,0,1
138614,-95.2380952380952,4,2,3,80,0,1
138777,-95.2380952380952,4,2,1,80,0,1
138940,-95.2380952380952,4,2,2,80,0,1
139103,-95.2380952380952,4,2,1,80,0,1
139266,-95.2380952380952,4,2,2,80,0,1
139429,-95.2380952380952,4,2,1,80,0,1
139592,-95.2380952380952,4,2,4,80,0,1
139918,-95.2380952380952,4,2,2,80,0,1
140733,-95.2380952380952,4,2,1,80,0,1
140896,-95.2380952380952,4,2,4,80,0,1
141222,-95.2380952380952,4,2,2,80,0,1
141712,-95.2380952380952,4,2,1,80,0,1
141875,-95.2380952380952,4,2,2,80,0,1
142038,-95.2380952380952,4,2,3,80,0,1
142853,-95.2380952380952,4,2,4,80,0,1
143097,-95.2380952380952,4,2,1,80,0,1
143179,-95.2380952380952,4,2,2,80,0,1
143342,-95.2380952380952,4,2,1,80,0,1
143505,-95.2380952380952,4,2,5,80,0,1
143831,-95.2380952380952,4,2,2,80,0,1
144157,-95.2380952380952,4,2,3,80,0,1
144320,-95.2380952380952,4,2,1,80,0,1
144483,-95.2380952380952,4,2,2,80,0,1
144646,-95.2380952380952,4,2,3,80,0,1
145135,-95.2380952380952,4,2,2,80,0,1
145625,-95.2380952380952,4,2,1,80,0,1
145788,-95.2380952380952,4,2,3,80,0,1
147418,-95.2380952380952,4,2,1,80,0,1
151331,-125,4,2,1,60,0,0
153288,-125,4,2,2,60,0,0
153940,-125,4,2,1,60,0,0
155896,-125,4,2,2,60,0,0
156549,-125,4,2,1,60,0,0
158505,-125,4,2,2,60,0,0
159157,-125,4,2,1,60,0,0
162418,-125,4,2,2,60,0,0
162744,-125,4,2,1,60,0,0
163070,-125,4,2,8,60,0,0
163233,-125,4,2,2,60,0,0
164375,-125,4,2,8,60,0,0
164701,-125,4,2,1,60,0,0
165027,-125,4,2,2,60,0,0
165353,-125,4,2,1,60,0,0
165679,-125,4,2,8,60,0,0
165842,-125,4,2,2,60,0,0
166820,-125,4,2,1,60,0,0
168288,-125,4,2,3,60,0,0
169592,-100,4,2,3,60,0,0
169755,-100,4,2,1,60,0,0
170896,-100,4,2,3,60,0,0
171059,-100,4,2,2,60,0,0
172201,-100,4,2,4,70,0,0
172527,-100,4,2,3,70,0,0
172690,-100,4,2,1,70,0,0
172853,-100,4,2,2,70,0,0
173016,-100,4,2,1,70,0,0
173179,-100,4,2,2,70,0,0
173342,-100,4,2,1,70,0,0
173505,-100,4,2,4,70,0,0
173831,-100,4,2,2,70,0,0
173994,-100,4,2,3,70,0,0
174076,-100,4,2,1,70,0,0
174157,-100,4,2,2,70,0,0
174483,-100,4,2,3,70,0,0
174809,-100,4,2,4,70,0,0
175135,-100,4,2,2,70,0,0
175462,-100,4,2,3,70,0,0
175788,-100,4,2,2,70,0,0
175951,-100,4,2,3,70,0,0
176766,-100,4,2,4,70,0,0
177092,-100,4,2,3,70,0,0
177418,-100,4,2,5,70,0,0
177744,-100,4,2,2,70,0,0
177907,-100,4,2,1,70,0,0
178070,-100,4,2,3,70,0,0
178233,-100,4,2,1,70,0,0
178396,-100,4,2,3,70,0,0
178478,-100,4,2,1,70,0,0
178559,-100,4,2,3,70,0,0
179049,-100,4,2,2,70,0,0
179701,-100,4,2,3,70,0,0
180027,-100,4,2,4,70,0,0
180353,-100,4,2,3,70,0,0
180679,-100,4,2,2,70,0,0
180842,-100,4,2,1,70,0,0
181005,-100,4,2,2,70,0,0
181168,-100,4,2,3,70,0,0
181657,-100,4,2,2,70,0,0
181820,-100,4,2,3,70,0,0
182635,-125,4,2,9,70,0,0
182961,-125,4,2,1,70,0,0
183288,-125,4,2,2,70,0,0
183614,-125,4,2,1,70,0,0
183940,-125,4,2,8,70,0,0
184103,-125,4,2,2,70,0,0
185163,-125,4,2,1,70,0,0
185244,-125,4,2,5,70,0,0
185570,-125,4,2,1,70,0,0
185896,-125,4,2,2,70,0,0
186059,-125,4,2,3,70,0,0
186304,-125,4,2,1,70,0,0
186549,-125,4,2,8,70,0,0
186875,-125,4,2,1,70,0,0
187201,-125,4,2,4,70,0,0
187527,-125,4,2,1,70,0,0
187853,-111.111111111111,4,2,3,70,0,0
188342,-111.111111111111,4,2,1,70,0,0
193070,-250,4,2,1,70,0,0
206114,-166.666666666667,4,2,1,70,0,0
207418,-166.666666666667,4,2,3,70,0,0
208722,-166.666666666667,4,2,5,70,0,0
209049,-166.666666666667,4,2,2,70,0,0
209212,-100,4,2,2,70,0,0
209864,-100,4,2,1,70,0,0
210027,-95.2380952380952,4,2,4,80,0,1
210353,-95.2380952380952,4,2,2,80,0,1
210842,-95.2380952380952,4,2,1,80,0,1
211005,-95.2380952380952,4,2,2,80,0,1
211168,-95.2380952380952,4,2,3,80,0,1
211983,-95.2380952380952,4,2,4,80,0,1
212309,-95.2380952380952,4,2,3,80,0,1
212635,-95.2380952380952,4,2,5,80,0,1
212961,-95.2380952380952,4,2,2,80,0,1
213451,-95.2380952380952,4,2,1,80,0,1
213614,-95.2380952380952,4,2,2,80,0,1
213777,-95.2380952380952,4,2,3,80,0,1
214266,-95.2380952380952,4,2,2,80,0,1
214918,-95.2380952380952,4,2,3,80,0,1
215244,-95.2380952380952,4,2,5,80,0,1
215570,-95.2380952380952,4,2,3,80,0,1
215896,-95.2380952380952,4,2,2,80,0,1
216059,-95.2380952380952,4,2,1,80,0,1
216222,-95.2380952380952,4,2,2,80,0,1
216385,-95.2380952380952,4,2,3,80,0,1
216875,-95.2380952380952,4,2,2,80,0,1
217038,-95.2380952380952,4,2,1,80,0,1
217853,-95.2380952380952,4,2,4,80,0,1
218179,-95.2380952380952,4,2,1,80,0,1
219157,-95.2380952380952,4,2,3,80,0,1
219646,-95.2380952380952,4,2,1,80,0,1
220462,-95.2380952380952,4,2,3,80,0,1
221277,-95.2380952380952,4,2,1,80,0,1
221603,-95.2380952380952,4,2,3,80,0,1
222092,-95.2380952380952,4,2,1,80,0,1
222418,-95.2380952380952,4,2,3,80,0,1
222663,-95.2380952380952,4,2,1,80,0,1
223070,-95.2380952380952,4,2,3,80,0,1
223722,-95.2380952380952,4,2,1,80,0,1
224212,-95.2380952380952,4,2,3,80,0,1
225190,-95.2380952380952,4,2,1,80,0,1
225679,-95.2380952380952,4,2,9,80,0,1
226005,-95.2380952380952,4,2,3,80,0,1
226168,-95.2380952380952,4,2,1,80,0,1
226331,-95.2380952380952,4,2,2,80,0,1
226494,-95.2380952380952,4,2,1,80,0,1
226657,-95.2380952380952,4,2,2,80,0,1
226820,-95.2380952380952,4,2,1,80,0,1
226983,-95.2380952380952,4,2,4,80,0,1
227309,-95.2380952380952,4,2,2,80,0,1
228125,-95.2380952380952,4,2,1,80,0,1
228288,-95.2380952380952,4,2,5,80,0,1
228614,-95.2380952380952,4,2,2,80,0,1
229103,-95.2380952380952,4,2,1,80,0,1
229266,-95.2380952380952,4,2,2,80,0,1
229429,-95.2380952380952,4,2,3,80,0,1
230244,-95.2380952380952,4,2,4,80,0,1
230570,-95.2380952380952,4,2,3,80,0,1
230896,-95.2380952380952,4,2,1,80,0,1
233505,-95.2380952380952,4,2,1,70,0,0
235951,-125,4,2,1,70,0,0
236766,-100,4,2,1,70,0,0
237418,-100,4,2,3,70,0,0
237744,-100,4,2,1,70,0,0
239375,-100,4,2,3,70,0,0
239701,-100,4,2,1,70,0,0
240027,-100,4,2,3,70,0,0
240353,-100,4,2,1,70,0,0
241168,-100,4,2,3,70,0,0
241657,-100,4,2,1,70,0,0
241983,-100,4,2,3,70,0,0
242309,-100,4,2,1,70,0,0
242635,-100,4,2,3,70,0,0
243125,-100,4,2,1,70,0,0
243777,-100,4,2,3,70,0,0
244103,-100,4,2,1,70,0,0
245244,-100,4,2,3,70,0,0
245896,-100,4,2,1,70,0,0
246385,-100,4,2,3,70,0,0
246711,-100,4,2,1,70,0,0
247853,-100,4,2,7,70,0,0
248016,-100,4,2,1,70,0,0
249809,-100,4,2,3,70,0,0
250135,-100,4,2,1,70,0,0
250462,-100,4,2,3,70,0,0
250788,-100,4,2,1,70,0,0
251603,-100,4,2,3,70,0,0
252092,-100,4,2,1,70,0,0
252418,-100,4,2,3,70,0,0
252744,-100,4,2,1,70,0,0
253070,-100,4,2,3,70,0,0
253559,-100,4,2,1,70,0,0
254212,-100,4,2,3,70,0,0
254538,-100,4,2,1,70,0,0
255679,-100,4,2,3,70,0,0
256331,-100,4,2,1,70,0,0
256820,-100,4,2,3,70,0,0
257146,-100,4,2,1,70,0,0
258288,-250,4,2,7,70,0,0
262201,-250,4,2,7,5,0,0

[Colours]
Combo1 : 230,215,236
Combo2 : 250,182,199
Combo3 : 253,209,190
Combo4 : 230,170,170

[HitObjects]
485,311,2636,6,0,P|440:284|389:293,1,105.599996777344,2|0,2:0|2:0,2:0:0:0:
314,366,3125,2,0,L|296:261,1,105.599996777344,2|2,2:0|2:0,2:0:0:0:
374,158,3614,2,0,L|365:210,1,52.7999983886719,2|0,2:0|2:0,2:0:0:0:
215,257,3940,6,0,B|173:231|135:253|135:253|127:294|90:308,1,158.399995166016,2|0,2:0|2:0,2:0:0:0:
7,224,4755,1,0,2:0:0:0:
7,224,4918,2,0,L|57:237,1,52.7999983886719,2|0,2:0|2:0,2:0:0:0:
127,167,5244,6,0,P|139:117|115:72,1,105.599996777344,2|0,2:0|2:0,2:0:0:0:
232,113,5733,2,0,P|283:101|335:92,1,105.599996777344,2|0,2:0|2:0,2:0:0:0:
400,148,6222,1,2,2:0:0:0:
418,64,6385,1,2,2:0:0:0:
488,209,6549,6,0,P|412:198|357:252,1,158.399995166016,2|2,2:0|2:0,2:0:0:0:
228,345,7364,1,0,3:0:0:0:
224,340,7445,1,0,3:0:0:0:
221,335,7527,2,0,L|214:256,1,79.1999975830079,8|0,3:0|2:0,2:0:0:0:
236,204,7853,6,0,B|113:171|155:255|33:222,1,211.199993554688,14|2,2:1|2:0,2:0:0:0:
33,222,8831,1,2,2:1:0:0:
69,33,8994,5,0,3:0:0:0:
74,29,9076,1,0,3:0:0:0:
79,26,9157,2,0,P|112:65|116:117,1,105.599996777344,14|2,3:1|2:1,2:0:0:0:
263,60,9646,1,8,2:3:0:0:
235,203,9809,2,0,L|225:152,1,52.7999983886719,6|0,2:3|2:0,2:0:0:0:
438,255,10135,2,0,L|448:204,1,52.7999983886719,6|0,2:3|3:0,2:0:0:0:
454,180,10380,1,0,3:0:0:0:
454,180,10462,5,14,2:1:0:0:
282,277,10625,1,0,3:0:0:0:
351,114,10788,1,0,3:0:0:0:
428,361,10951,6,0,P|386:349|342:343,1,88,12|0,2:0|3:0,2:0:0:0:
177,271,11277,1,2,3:1:0:0:
364,211,11440,1,14,2:1:0:0:
252,117,11603,2,0,P|243:160|235:203,1,88,2|0,3:1|3:0,2:0:0:0:
134,89,11929,1,12,2:0:0:0:
330,15,12092,1,2,3:1:0:0:
235,203,12255,1,0,3:0:0:0:
47,106,12418,6,0,P|90:97|133:89,1,88,14|0,2:1|3:0,2:0:0:0:
282,277,12744,2,0,P|325:286|368:294,1,88,10|0,2:1|3:0,2:0:0:0:
483,15,13070,6,0,P|482:152|350:113,1,316.799990332032,14|0,2:1|2:0,2:0:0:0:
133,88,14212,1,2,2:0:0:0:
133,88,14293,1,2,2:0:0:0:
132,88,14375,2,0,P|145:166|153:245,1,158.399995166016,2|8,2:1|2:3,2:0:0:0:
45,381,15190,1,4,2:3:0:0:
151,330,15353,2,0,P|127:320|101:315,1,52.7999983886719,4|0,2:3|2:0,2:0:0:0:
282,277,15679,6,0,B|400:251|361:341|482:308,1,211.199993554688,2|0,2:1|2:0,2:0:0:0:
481,308,16657,1,2,2:0:0:0:
444,83,16983,2,0,P|402:113|350:113,1,105.599996777344,2|0,2:1|2:0,2:0:0:0:
277,49,17472,2,0,L|258:153,1,105.599996777344,2|2,2:0|2:0,2:0:0:0:
45,381,18125,5,2,2:0:0:0:
45,381,18288,2,0,P|120:312|221:330,1,211.199993554688,2|0,2:1|2:0,2:0:0:0:
220,329,19266,1,2,2:0:0:0:
436,220,19592,2,0,P|416:297|400:374,1,158.399995166016,2|0,2:1|2:0,2:0:0:0:
312,304,20244,2,0,P|261:298|220:329,1,105.599996777344,2|0,2:0|2:0,2:0:0:0:
58,121,20896,6,0,B|176:95|137:185|258:152,1,211.199993554688,2|0,2:1|2:0,2:0:0:0:
413,109,21875,1,2,2:0:0:0:
346,170,22038,1,2,2:0:0:0:
257,152,22201,2,0,P|247:100|236:49,2,105.599996777344,2|0|2,2:1|2:0|2:0,2:0:0:0:
257,152,23179,1,0,2:0:0:0:
311,304,23505,6,0,B|269:245|199:279|199:279|189:326|147:341,1,211.199993554688,2|0,2:1|2:0,2:0:0:0:
20,233,24646,1,2,2:0:0:0:
20,233,24809,2,0,P|72:236|116:265,1,105.599996777344,2|2,2:1|2:0,2:0:0:0:
147,340,25299,1,2,2:0:0:0:
257,152,25625,1,2,3:2:0:0:
257,152,25788,2,0,L|205:162,1,52.7999983886719,8|0,2:0|2:0,2:0:0:0:
85,54,26114,6,0,B|141:42|141:42|180:63|180:63|236:50,1,158.399995166016,6|0,3:1|3:0,2:0:0:0:
353,99,26603,2,0,P|360:60|367:21,1,79.1999975830079,0|0,2:0|3:0,2:0:0:0:
257,152,26929,1,0,2:0:0:0:
407,191,27092,2,0,P|446:184|485:177,1,79.1999975830079,2|0,3:1|2:0,2:0:0:0:
445,345,27418,6,0,P|387:294|311:304,1,158.399995166016,2|0,3:1|3:0,2:0:0:0:
257,152,27907,2,0,P|250:191|243:230,1,79.1999975830079,2|0,2:0|3:0,2:0:0:0:
115,262,28233,2,0,P|122:301|129:340,1,79.1999975830079,2|0,2:0|3:0,2:0:0:0:
15,208,28559,1,2,2:0:0:0:
160,90,28722,6,0,P|85:106|23:61,1,158.399995166016,2|0,3:1|3:0,2:0:0:0:
257,152,29212,2,0,P|264:113|271:74,1,79.1999975830079,0|0,2:0|3:0,2:0:0:0:
166,187,29538,1,0,2:0:0:0:
328,224,29701,2,0,P|387:214|445:204,1,118.799996374512,2|0,3:1|2:0,2:0:0:0:
479,223,30027,6,0,P|527:163|513:88,1,158.399995166016,2|0,3:1|3:0,2:0:0:0:
311,303,30516,2,0,P|350:310|389:317,1,79.1999975830079,2|0,2:0|3:0,2:0:0:0:
353,99,30842,2,0,P|314:106|275:113,1,79.1999975830079,2|0,2:0|3:0,2:0:0:0:
128,339,31168,5,2,2:0:0:0:
128,339,31250,1,2,2:0:0:0:
127,339,31331,2,0,P|175:279|166:202,1,158.399995166016,6|0,3:1|3:0,2:0:0:0:
83,252,31820,1,2,2:0:0:0:
247,328,31983,2,0,P|286:321|325:314,1,79.1999975830079,2|0,3:2|2:0,2:0:0:0:
445,203,32309,2,0,P|406:196|367:189,1,79.1999975830079,2|0,3:2|2:0,2:0:0:0:
123,96,32635,6,0,B|219:73|182:134|274:112,1,158.399995166016,2|0,3:1|3:0,2:0:0:0:
445,203,33125,2,0,P|452:164|459:125,1,79.1999975830079,2|0,2:0|3:0,2:0:0:0:
247,328,33451,2,0,P|240:289|233:250,1,79.1999975830079,2|0,2:0|3:0,2:0:0:0:
274,112,33777,1,2,2:0:0:0:
403,279,33940,5,4,3:2:0:0:
166,202,34103,1,8,2:0:0:0:
166,202,34184,1,8,2:0:0:0:
166,202,34266,1,8,2:0:0:0:
367,40,34429,1,2,3:2:0:0:
367,40,34755,5,2,3:2:0:0:
309,220,34918,1,8,2:0:0:0:
153,96,35081,2,0,B|96:86|96:86|56:106|56:106|1:95,1,158.399995166016,6|0,3:2|3:0,2:0:0:0:
92,321,35570,2,0,L|107:242,1,79.1999975830079,8|8,2:0|2:3,2:0:0:0:
113,215,35815,1,8,2:3:0:0:
113,215,35896,1,4,2:3:0:0:
284,118,36059,1,4,2:3:0:0:
201,283,36222,1,4,2:3:0:0:
153,96,36385,1,4,2:3:0:0:
309,220,36549,6,0,B|404:200|404:200|442:219,1,140.8,4|2,3:2|2:0,2:0:0:0:
309,220,37038,1,0,3:0:0:0:
378,355,37201,2,0,P|383:320|391:286,1,70.4,10|0,2:0|3:0,2:0:0:0:
288,121,37527,2,0,P|296:155|301:190,1,70.4,2|8,2:0|2:0,2:0:0:0:
309,220,37771,1,8,2:0:0:0:
309,220,37853,5,2,3:2:0:0:
493,63,38016,2,0,P|425:75|366:40,1,140.8,8|0,2:0|3:0,2:0:0:0:
219,105,38505,2,0,P|253:113|288:121,1,70.4,10|0,2:0|2:0,2:0:0:0:
241,283,38831,2,0,P|207:291|172:299,1,70.4,2|8,3:2|2:0,2:0:0:0:
43,296,39076,5,8,2:0:0:0:
43,296,39157,2,0,B|87:270|87:270|172:298,1,140.8,6|2,3:2|2:0,2:0:0:0:
287,120,39646,2,0,P|281:155|275:189,1,70.4,0|10,3:0|2:0,2:0:0:0:
124,81,39972,2,0,P|130:116|136:150,1,70.4,0|2,3:0|2:0,2:0:0:0:
238,27,40299,5,8,2:0:0:0:
238,27,40380,1,8,2:0:0:0:
238,27,40462,1,2,3:2:0:0:
387,82,40625,2,0,P|422:76|456:70,1,70.4,8|2,2:0|2:0,2:0:0:0:
274,189,40951,1,0,3:0:0:0:
274,189,41032,1,0,3:0:0:0:
274,189,41114,1,10,2:0:0:0:
492,244,41277,1,8,2:0:0:0:
345,364,41440,1,6,3:0:0:0:
345,364,41766,6,0,B|224:396|264:310|144:336,1,211.199993554688,4|2,3:2|2:0,2:0:0:0:
144,335,42744,1,0,2:0:0:0:
64,192,43070,2,0,L|42:295,1,105.599996777344,2|0,2:1|2:0,2:0:0:0:
42,295,43559,1,2,2:0:0:0:
270,198,43885,5,2,2:0:0:0:
292,292,44049,2,0,L|240:283,1,52.7999983886719,0|0,2:0|3:0,2:0:0:0:
208,280,44293,1,0,3:0:0:0:
208,280,44375,5,14,2:1:0:0:
409,184,44538,1,0,3:0:0:0:
245,62,44701,1,0,3:0:0:0:
388,292,44864,6,0,L|372:379,1,88,12|0,2:0|3:0,2:0:0:0:
142,235,45190,1,0,3:0:0:0:
339,120,45353,1,12,2:0:0:0:
140,13,45516,1,2,3:2:0:0:
140,13,45597,1,2,3:2:0:0:
140,13,45679,1,2,3:1:0:0:
292,292,45842,6,0,P|355:234|440:243,1,176,12|2,2:0|3:2,2:0:0:0:
186,166,46331,1,14,2:1:0:0:
371,31,46494,1,0,3:0:0:0:
371,31,46576,1,0,3:0:0:0:
371,31,46657,1,8,2:0:0:0:
292,292,46820,1,2,3:2:0:0:
63,192,46983,1,14,2:1:0:0:
63,192,47309,5,8,2:0:0:0:
339,120,47472,1,8,2:0:0:0:
140,13,47635,1,8,2:0:0:0:
209,331,47799,5,0,3:0:0:0:
209,331,47880,1,0,3:0:0:0:
209,331,47962,1,8,2:0:0:0:
407,62,48125,1,8,2:0:0:0:
254,107,49592,6,0,P|350:120|407:63,1,184.799994360352,6|10,3:1|2:0,2:0:0:0:
140,13,50081,2,0,P|147:58|154:104,1,92.3999971801759,2|2,2:0|3:2,2:0:0:0:
290,291,50407,2,0,P|297:245|306:200,1,92.3999971801759,2|10,3:2|2:0,2:0:0:0:
443,189,50733,5,2,3:2:0:0:
443,189,50815,1,2,3:2:0:0:
443,189,50896,1,2,3:1:0:0:
254,107,51059,1,0,2:0:0:0:
290,291,51222,1,10,2:0:0:0:
427,68,51385,6,0,B|315:53|362:123|253:106,1,184.799994360352,2|0,3:1|3:0,2:0:0:0:
76,150,51875,1,10,2:0:0:0:
163,0,52038,1,2,3:2:0:0:
163,0,52119,1,2,3:2:0:0:
163,0,52201,6,0,B|177:64|177:64|155:108|155:108|171:176,1,184.799994360352,2|10,3:1|2:0,2:0:0:0:
221,358,52690,1,0,3:0:0:0:
221,358,52771,1,0,3:0:0:0:
221,358,52853,1,2,3:2:0:0:
306,200,53016,1,2,3:2:0:0:
128,299,53179,1,10,2:0:0:0:
347,383,53342,6,0,P|415:325|502:342,1,184.799994360352,6|0,3:1|3:0,2:0:0:0:
306,200,53831,1,10,2:0:0:0:
480,107,53994,1,0,3:0:0:0:
480,107,54076,1,0,3:0:0:0:
480,107,54157,2,0,P|470:152|459:197,1,92.3999971801759,2|0,3:1|3:0,2:0:0:0:
269,47,54483,2,0,P|314:37|359:26,1,92.3999971801759,10|0,2:0|3:0,2:0:0:0:
304,295,54809,6,0,B|236:284|236:284|188:310|188:310|128:299,1,184.799994360352,6|10,3:1|2:0,2:0:0:0:
14,191,55299,1,0,3:0:0:0:
14,191,55380,1,0,3:0:0:0:
14,191,55462,1,2,3:2:0:0:
198,136,55625,1,2,3:2:0:0:
127,298,55788,1,10,2:0:0:0:
23,86,55951,6,0,P|68:96|113:107,1,92.3999971801759,2|0,3:1|2:0,2:0:0:0:
306,200,56277,1,0,3:0:0:0:
358,26,56440,1,10,2:0:0:0:
198,136,56603,1,0,3:0:0:0:
198,136,56684,1,0,3:0:0:0:
198,136,56766,2,0,P|208:181|219:226,1,92.3999971801759,2|0,3:2|3:0,2:0:0:0:
408,94,57092,2,0,P|341:107|286:69,1,138.599995770264,10|0,2:0|3:0,2:0:0:0:
265,27,57418,6,0,B|157:5|198:80|90:60,1,184.799994360352,2|10,3:1|2:0,2:0:0:0:
306,200,57907,1,0,3:0:0:0:
306,200,57989,1,0,3:0:0:0:
306,200,58070,1,2,3:2:0:0:
127,298,58233,1,2,3:2:0:0:
198,136,58396,1,10,2:0:0:0:
286,381,58559,6,0,P|353:322|441:337,1,184.799994360352,6|0,3:1|3:0,2:0:0:0:
441,337,58967,1,0,3:0:0:0:
441,337,59049,1,10,2:0:0:0:
324,109,59212,6,0,L|306:199,1,92.3999971801759,6|0,3:1|2:0,2:0:0:0:
152,126,59538,1,8,2:0:0:0:
152,126,59619,1,8,2:0:0:0:
152,126,59701,2,0,L|197:135,1,46.1999985900879,0|0,3:0|3:0,2:0:0:0:
281,14,59864,2,0,L|236:23,1,46.1999985900879,0|0,3:0|3:0,2:0:0:0:
305,199,60027,6,0,B|320:273|320:273|299:308|299:308|312:374,1,184.799994360352,6|10,3:1|2:0,2:0:0:0:
496,237,60516,2,0,L|406:219,1,92.3999971801759,2|2,2:0|3:2,2:0:0:0:
235,23,60842,2,0,L|325:5,1,92.3999971801759,2|10,3:2|2:0,2:0:0:0:
305,199,61168,5,2,3:2:0:0:
305,199,61250,1,2,3:2:0:0:
305,199,61331,1,2,3:1:0:0:
57,131,61494,1,0,2:0:0:0:
235,23,61657,1,10,2:0:0:0:
195,227,61820,2,0,L|105:209,1,92.3999971801759,2|2,3:1|2:0,2:0:0:0:
279,186,62146,5,0,3:0:0:0:
312,375,62309,1,10,2:0:0:0:
496,237,62472,1,2,3:2:0:0:
496,237,62554,1,2,3:2:0:0:
496,237,62635,6,0,P|452:224|406:216,1,92.3999971801759,2|0,3:1|2:0,2:0:0:0:
235,23,62962,2,0,P|191:36|145:44,1,92.3999971801759,10|0,2:0|3:0,2:0:0:0:
108,51,63206,1,0,3:0:0:0:
108,51,63288,1,2,3:2:0:0:
357,111,63451,1,2,3:2:0:0:
195,227,63614,1,10,2:0:0:0:
323,0,63777,6,0,P|394:55|482:37,1,184.799994360352,2|0,3:1|3:0,2:0:0:0:
265,147,64266,1,10,2:0:0:0:
390,306,64429,1,0,3:0:0:0:
390,306,64510,1,0,3:0:0:0:
390,306,64592,2,0,L|406:215,1,92.3999971801759,2|0,2:1|3:0,2:0:0:0:
413,175,64837,1,2,3:2:0:0:
413,175,64918,1,10,2:0:0:0:
272,277,65081,1,2,2:0:0:0:
174,103,65244,6,0,B|107:88|107:88|62:116|62:116|0:105,1,184.799994360352,6|10,3:1|2:0,2:0:0:0:
195,227,65733,1,0,3:0:0:0:
195,227,65815,1,0,3:0:0:0:
195,227,65896,1,2,3:2:0:0:
349,99,66059,1,2,3:2:0:0:
272,277,66222,1,10,2:0:0:0:
62,115,66385,6,0,P|83:205|99:296,1,184.799994360352,2|0,2:1|3:0,2:0:0:0:
315,189,66875,1,10,2:0:0:0:
112,44,67038,1,0,3:0:0:0:
112,44,67119,1,0,3:0:0:0:
112,44,67201,1,2,3:2:0:0:
195,226,67364,1,2,3:2:0:0:
265,58,67527,1,10,2:0:0:0:
82,197,67690,1,0,2:0:0:0:
272,277,67853,1,6,3:1:0:0:
272,277,68179,5,8,2:0:0:0:
181,91,68342,1,8,2:0:0:0:
446,195,68505,1,8,2:0:0:0:
234,354,68668,1,8,2:0:0:0:
349,99,68831,1,8,2:0:0:0:
396,360,68994,5,8,2:0:0:0:
396,360,69076,1,8,2:0:0:0:
396,360,69157,1,10,2:1:0:0:
125,268,69320,1,8,2:0:0:0:
349,99,69483,1,8,2:0:0:0:
234,354,69646,1,8,2:0:0:0:
58,95,69809,5,8,2:0:0:0:
358,219,69972,1,8,2:0:0:0:
222,0,70135,1,8,2:0:0:0:
144,285,70299,1,8,2:0:0:0:
446,195,70462,5,14,2:1:0:0:
256,192,70543,12,2,71766,2:1:0:0:
386,114,72581,5,0,3:0:0:0:
386,114,72663,1,0,3:0:0:0:
386,114,72744,2,0,P|391:74|397:35,1,79.1999975830079,0|0,3:0|2:0,2:0:0:0:
446,195,73070,6,0,P|375:147|293:171,1,176,6|10,3:1|2:0,2:0:0:0:
234,354,73559,1,0,3:0:0:0:
234,354,73641,1,0,3:0:0:0:
234,354,73722,2,0,P|277:344|320:334,1,88,2|0,3:2|3:0,2:0:0:0:
136,283,74049,1,10,2:0:0:0:
345,327,74212,1,2,2:0:0:0:
283,150,74375,6,0,P|276:193|271:237,1,88,2|0,3:1|3:0,2:0:0:0:
64,80,74701,2,0,P|128:87|181:51,1,132,10|0,2:0|3:0,2:0:0:0:
199,11,75027,1,2,3:1:0:0:
153,192,75190,1,0,3:0:0:0:
371,163,75353,2,0,P|328:156|284:151,1,88,10|0,2:0|3:0,2:0:0:0:
15,352,75679,6,0,P|77:292|162:302,1,176,2|10,2:1|2:0,2:0:0:0:
283,150,76168,1,0,3:0:0:0:
283,150,76250,1,0,3:0:0:0:
283,150,76331,2,0,P|276:193|271:237,1,88,2|0,3:2|2:0,2:0:0:0:
393,97,76657,1,10,2:0:0:0:
132,24,76820,6,0,B|107:123|180:91|152:191,1,176,2|0,3:1|3:0,2:0:0:0:
248,357,77309,2,0,P|253:313|260:270,1,88,10|2,2:0|3:2,2:0:0:0:
270,237,77554,1,2,3:2:0:0:
270,237,77635,1,2,3:1:0:0:
215,58,77799,1,0,3:0:0:0:
370,162,77962,2,0,P|326:157|283:150,1,88,10|0,2:0|2:0,2:0:0:0:
0,302,78288,6,0,B|44:289|76:322|76:322|122:337|161:299,1,176,6|8,3:1|2:0,2:0:0:0:
282,149,78777,1,2,2:0:0:0:
282,149,78858,1,2,2:0:0:0:
282,149,78940,1,2,3:2:0:0:
105,236,79103,1,2,3:2:0:0:
132,53,79266,1,10,2:0:0:0:
260,269,79429,6,0,P|304:264|347:257,1,88,2|0,3:1|2:0,2:0:0:0:
209,0,79755,1,2,3:2:0:0:
179,161,79918,1,8,2:0:0:0:
433,89,80081,1,2,2:0:0:0:
433,89,80163,1,2,2:0:0:0:
433,89,80244,2,0,P|389:84|346:77,1,88,2|0,3:2|3:0,2:0:0:0:
260,269,80570,2,0,P|194:276|129:287,1,132,10|0,2:0|3:0,2:0:0:0:
90,309,80896,6,0,P|27:252|39:169,1,176,2|8,3:1|2:0,2:0:0:0:
275,143,81385,1,0,3:0:0:0:
275,143,81467,1,0,3:0:0:0:
275,143,81549,1,2,3:2:0:0:
117,82,81712,1,0,3:0:0:0:
152,240,81875,1,8,2:0:0:0:
243,50,82038,6,0,B|346:32|304:95|412:75,1,176,6|10,2:1|2:0,2:0:0:0:
449,45,82445,1,10,2:0:0:0:
449,45,82527,1,10,2:0:0:0:
287,230,82690,2,0,P|282:186|275:143,1,88,6|2,2:1|2:0,2:0:0:0:
477,296,83016,1,8,2:0:0:0:
477,296,83097,1,8,2:0:0:0:
477,296,83179,2,0,P|473:318|471:340,1,44,8|8,2:0|2:0,2:0:0:0:
381,210,83342,2,0,P|377:188|375:166,1,44,8|8,2:0|2:0,2:0:0:0:
258,315,83505,5,14,2:1:0:0:
372,234,92472,6,0,L|397:228,1,26.399999194336,8|8,2:0|2:0,2:0:0:0:
477,210,92635,5,8,2:0:0:0:
272,198,92799,1,0,3:0:0:0:
452,306,92962,1,8,2:0:0:0:
442,88,93125,1,6,3:2:0:0:
442,88,93451,6,0,P|399:94|360:74,1,88,2|0,2:0|2:0,2:0:0:0:
253,40,93940,6,0,P|266:118|271:197,1,158.399995166016,6|8,3:2|2:0,2:0:0:0:
88,207,94429,2,0,L|166:196,1,79.1999975830079,0|0,3:0|3:0,2:0:0:0:
251,285,94755,1,0,3:0:0:0:
369,170,94918,2,0,L|358:248,1,79.1999975830079,10|0,2:0|2:0,2:0:0:0:
268,117,95244,5,2,3:2:0:0:
442,88,95407,1,0,3:0:0:0:
357,248,95570,1,10,2:0:0:0:
177,117,95733,6,0,L|166:195,1,79.1999975830079,2|0,0:0|3:2,2:0:0:0:
83,90,96059,1,2,3:2:0:0:
225,43,96222,1,8,2:0:0:0:
165,195,96385,1,2,2:0:0:0:
57,104,96549,6,0,L|68:26,1,79.1999975830079,2|0,3:2|3:0,2:0:0:0:
192,276,96875,2,0,P|143:243|86:249,1,118.799996374512,8|0,2:0|3:0,2:0:0:0:
204,298,97201,2,0,L|282:287,1,79.1999975830079,0|0,3:0|3:0,2:0:0:0:
332,125,97527,2,0,L|254:114,1,79.1999975830079,10|0,2:0|2:0,2:0:0:0:
336,346,97853,6,0,B|390:331|426:362|426:362|450:343|451:306,1,158.399995166016,2|10,3:2|2:0,2:0:0:0:
253,113,98342,1,2,2:0:0:0:
253,113,98424,1,2,2:0:0:0:
253,113,98505,1,2,3:2:0:0:
408,74,98668,1,2,3:2:0:0:
373,237,98831,1,8,2:0:0:0:
345,147,98994,1,2,2:0:0:0:
190,296,99157,6,0,P|247:346|323:337,1,158.399995166016,6|8,3:2|2:0,2:0:0:0:
140,207,99646,1,0,3:0:0:0:
140,207,99728,1,0,3:0:0:0:
140,207,99809,1,2,3:2:0:0:
99,368,99972,1,0,3:0:0:0:
271,264,100135,2,0,L|260:186,1,79.1999975830079,10|0,2:0|2:0,2:0:0:0:
91,81,100462,6,0,P|166:93|224:42,1,158.399995166016,2|10,3:2|2:0,2:0:0:0:
417,139,100951,1,2,3:2:0:0:
417,139,101032,1,2,3:2:0:0:
417,139,101114,2,0,L|428:61,1,79.1999975830079,2|2,3:2|3:2,2:0:0:0:
259,185,101440,1,8,2:0:0:0:
305,0,101603,1,2,2:0:0:0:
364,242,101766,5,6,3:2:0:0:
140,207,101929,1,8,2:0:0:0:
140,207,102010,1,8,2:0:0:0:
140,207,102092,1,10,2:0:0:0:
284,88,102255,1,2,3:2:0:0:
284,88,102581,5,2,3:2:0:0:
238,325,102744,1,10,2:0:0:0:
3,246,102907,6,0,P|62:197|139:206,1,158.399995166016,6|0,3:2|3:0,2:0:0:0:
238,325,103396,1,8,2:0:0:0:
169,109,103559,1,0,3:0:0:0:
169,109,103641,1,0,3:0:0:0:
169,109,103722,1,0,3:0:0:0:
87,287,103885,1,8,3:0:0:0:
270,184,104049,1,4,2:3:0:0:
75,94,104212,1,4,2:3:0:0:
209,248,104375,6,0,P|277:232|347:224,1,140.8,4|2,3:2|2:0,2:0:0:0:
281,114,104864,2,0,P|273:148|269:183,1,70.4,2|10,3:2|2:0,2:0:0:0:
150,53,105190,2,0,P|185:49|220:42,1,70.4,2|0,3:2|2:0,2:0:0:0:
379,88,105516,5,10,2:0:0:0:
379,88,105597,1,10,2:0:0:0:
379,88,105679,1,2,3:2:0:0:
269,183,105842,2,0,P|273:148|281:114,1,70.4,8|0,2:0|2:0,2:0:0:0:
347,224,106168,1,0,3:0:0:0:
461,278,106331,2,0,B|383:265|409:318|328:305,1,140.8,10|0,2:0|3:0,2:0:0:0:
138,205,106820,1,8,2:0:0:0:
138,205,106902,1,8,2:0:0:0:
138,205,106983,6,0,P|154:273|163:343,1,140.8,6|2,3:2|2:0,2:0:0:0:
0,285,107472,2,0,P|35:281|69:273,1,70.4,0|10,3:0|2:0,2:0:0:0:
138,205,107799,1,2,3:2:0:0:
0,174,107962,1,2,2:0:0:0:
110,1,108125,6,0,P|94:69|82:138,1,140.8,8|8,2:0|2:0,2:0:0:0:
138,205,108614,1,0,2:0:0:0:
277,70,108777,5,0,3:0:0:0:
277,70,108858,1,0,3:0:0:0:
277,70,108940,1,10,2:0:0:0:
338,192,109103,2,0,L|269:183,1,70.4,12|4,2:0|3:0,2:0:0:0:
359,272,109429,1,4,3:0:0:0:
512,150,109592,6,0,P|455:110|387:120,1,140.8,6|2,3:2|2:0,2:0:0:0:
338,192,110081,1,0,3:0:0:0:
207,83,110244,2,0,L|276:69,1,70.4,10|0,2:0|3:0,2:0:0:0:
138,205,110570,1,0,2:0:0:0:
110,1,110733,5,10,2:0:0:0:
110,1,110815,1,10,2:0:0:0:
110,1,110896,1,2,3:2:0:0:
276,69,111059,2,0,L|262:138,1,70.4,8|0,2:0|2:0,2:0:0:0:
239,278,111385,1,0,3:0:0:0:
460,216,111549,2,0,P|404:176|337:191,1,140.8,10|0,2:0|3:0,2:0:0:0:
297,346,112038,5,8,2:0:0:0:
293,350,112119,1,8,2:0:0:0:
289,354,112201,2,0,P|221:367|165:328,1,140.8,6|0,3:2|2:0,2:0:0:0:
252,209,112690,2,0,L|238:278,1,70.4,0|10,3:0|2:0,2:0:0:0:
337,190,113016,1,0,3:0:0:0:
184,86,113179,1,2,2:0:0:0:
69,218,113342,6,0,L|138:204,1,70.4,8|2,2:0|3:2,2:0:0:0:
287,65,113668,1,8,2:0:0:0:
109,0,113831,1,0,2:0:0:0:
137,204,113994,5,0,3:0:0:0:
137,204,114076,1,0,3:0:0:0:
137,204,114157,1,10,2:0:0:0:
362,106,114320,1,8,2:0:0:0:
238,277,114483,1,4,3:0:0:0:
184,86,114646,1,4,3:0:0:0:
386,257,114809,5,14,2:1:0:0:
432,20,114972,1,0,2:0:0:0:
290,150,115135,1,0,3:0:0:0:
429,125,115299,6,0,L|361:105,1,70.4,0|0,2:0|3:0,2:0:0:0:
206,195,115625,2,0,L|138:175,1,70.4,0|0,2:0|3:0,2:0:0:0:
255,35,115951,5,8,2:0:0:0:
307,233,116114,1,2,3:1:0:0:
432,20,116277,5,8,2:0:0:0:
184,86,116440,1,0,3:0:0:0:
386,257,116603,5,8,2:3:0:0:
386,257,116684,1,8,2:3:0:0:
386,257,116766,1,6,3:0:0:0:
361,105,116929,1,4,2:3:0:0:
474,307,117092,1,4,3:0:0:0:
322,332,117255,1,4,2:3:0:0:
468,153,117418,5,14,3:1:0:0:
407,367,117581,1,8,2:0:0:0:
237,243,117744,1,0,3:0:0:0:
386,257,117907,2,0,P|421:253|456:246,1,70.4,0|0,2:0|3:0,2:0:0:0:
344,95,118233,2,0,P|340:130|333:165,1,70.4,0|0,2:0|3:0,2:0:0:0:
322,332,118559,6,0,B|279:280|221:302|221:302|208:330|173:339,1,176,12|0,2:0|2:0,2:0:0:0:
0,220,119049,1,8,2:0:0:0:
146,269,119212,5,0,3:0:0:0:
146,269,119293,1,0,3:0:0:0:
146,269,119375,1,6,3:0:0:0:
106,133,119538,1,4,2:3:0:0:
45,314,119701,1,4,3:0:0:0:
45,314,120027,6,0,P|123:378|221:349,1,211.199993554688,4|2,3:2|2:0,2:0:0:0:
220,349,121005,1,0,2:0:0:0:
165,165,121331,2,0,L|145:268,1,105.599996777344,2|0,2:1|2:0,2:0:0:0:
0,121,121820,2,0,P|50:130|97:107,1,105.599996777344,2|2,2:0|2:0,2:0:0:0:
202,20,122309,1,0,2:0:0:0:
252,254,122472,5,0,3:0:0:0:
252,254,122554,1,0,3:0:0:0:
252,254,122635,1,14,2:1:0:0:
97,107,122799,1,0,3:0:0:0:
333,164,122962,1,0,3:0:0:0:
145,268,123125,5,12,2:0:0:0:
350,77,123288,1,0,3:0:0:0:
220,349,123451,1,0,3:0:0:0:
97,107,123614,5,12,2:0:0:0:
360,262,123777,1,0,3:0:0:0:
360,262,123858,1,0,3:0:0:0:
360,262,123940,1,2,3:1:0:0:
202,20,124103,6,0,B|186:87|186:87|205:125|205:125|188:187,1,176,12|0,2:0|3:0,2:0:0:0:
340,379,124592,1,14,2:1:0:0:
296,169,124755,1,0,3:0:0:0:
296,169,124837,1,0,3:0:0:0:
296,169,124918,1,8,2:0:0:0:
146,269,125081,1,0,3:0:0:0:
67,21,125244,1,14,2:1:0:0:
67,21,125570,5,8,2:0:0:0:
296,169,125733,1,8,2:0:0:0:
36,275,125896,1,8,2:0:0:0:
207,26,126059,5,0,3:0:0:0:
207,26,126141,1,0,3:0:0:0:
207,26,126222,1,8,2:0:0:0:
249,311,126385,1,8,2:0:0:0:
249,311,126712,6,0,L|257:267,1,44,0|0,3:0|3:0,2:0:0:0:
285,87,126875,1,12,2:0:0:0:
285,87,127201,5,0,3:0:0:0:
406,284,127364,1,8,2:0:0:0:
442,282,127445,1,8,2:0:0:0:
475,267,127527,1,8,2:0:0:0:
500,240,127608,1,8,2:0:0:0:
512,206,127690,1,8,2:0:0:0:
510,170,127771,1,8,2:0:0:0:
494,137,127853,6,0,B|388:110|425:182|318:156,1,184.799994360352,6|10,3:1|2:0,2:0:0:0:
88,136,128342,2,0,P|95:181|102:227,1,92.3999971801759,2|2,2:0|2:0,2:0:0:0:
236,344,128668,2,0,P|243:298|251:253,1,92.3999971801759,2|10,3:2|2:0,2:0:0:0:
24,261,128994,5,2,3:2:0:0:
24,261,129076,1,2,3:2:0:0:
24,261,129157,1,2,3:1:0:0:
186,157,129320,1,0,2:0:0:0:
142,341,129483,1,10,2:0:0:0:
343,239,129646,6,0,P|297:245|251:253,1,92.3999971801759,2|2,3:1|2:0,2:0:0:0:
77,183,129972,1,0,3:0:0:0:
275,54,130135,1,10,2:0:0:0:
186,157,130299,5,2,2:0:0:0:
186,157,130380,1,2,2:0:0:0:
186,157,130462,2,0,P|179:111|171:65,1,92.3999971801759,6|0,3:1|2:0,2:0:0:0:
427,147,130788,2,0,P|416:215|405:283,1,138.599995770264,10|0,2:0|3:0,2:0:0:0:
396,326,131114,1,2,3:2:0:0:
211,265,131277,1,2,3:2:0:0:
342,152,131440,1,10,2:0:0:0:
302,368,131603,6,0,P|228:317|141:340,1,184.799994360352,6|0,3:1|3:0,2:0:0:0:
17,200,132092,1,10,2:0:0:0:
211,265,132255,1,0,3:0:0:0:
211,265,132337,1,0,3:0:0:0:
210,265,132418,2,0,P|229:223|224:178,1,92.3999971801759,2|0,3:1|3:0,2:0:0:0:
55,28,132744,2,0,P|104:73|170:65,1,138.599995770264,10|0,2:0|2:0,2:0:0:0:
204,33,133070,6,0,B|271:19|271:19|314:41|314:41|380:28,1,184.799994360352,6|10,3:1|2:0,2:0:0:0:
250,130,133559,1,0,3:0:0:0:
250,130,133641,1,0,3:0:0:0:
250,130,133722,1,2,3:2:0:0:
454,165,133885,1,2,3:2:0:0:
319,297,134049,1,10,2:0:0:0:
134,117,134212,6,0,P|142:162|150:207,1,92.3999971801759,2|0,3:1|2:0,2:0:0:0:
336,206,134538,2,0,P|327:251|319:296,1,92.3999971801759,0|10,3:0|2:0,2:0:0:0:
250,131,134864,1,0,3:0:0:0:
250,131,134945,1,0,3:0:0:0:
250,131,135027,1,2,3:2:0:0:
454,165,135190,1,0,3:0:0:0:
322,14,135353,2,0,P|330:59|338:104,1,92.3999971801759,10|2,2:0|2:0,2:0:0:0:
319,297,135679,6,0,P|245:246|158:269,1,184.799994360352,2|10,3:1|2:0,2:0:0:0:
52,179,136168,1,0,3:0:0:0:
52,179,136250,1,0,3:0:0:0:
52,179,136331,1,2,3:2:0:0:
252,216,136494,1,2,3:2:0:0:
192,20,136657,1,10,2:0:0:0:
85,276,136820,6,0,B|120:239|176:253|176:253|197:295|243:300,1,184.799994360352,6|0,3:1|3:0,2:0:0:0:
243,300,137228,1,0,3:0:0:0:
243,300,137309,1,10,2:0:0:0:
490,62,137472,6,0,P|424:122|337:104,1,184.799994360352,6|8,3:1|2:0,2:0:0:0:
319,74,137880,1,8,2:0:0:0:
319,74,137962,2,0,L|309:119,1,46.1999985900879,0|0,3:0|3:0,2:0:0:0:
251,215,138125,2,0,L|242:170,1,46.1999985900879,0|0,3:0|3:0,2:0:0:0:
357,338,138288,6,0,P|423:279|511:298,1,184.799994360352,6|10,2:1|2:0,2:0:0:0:
268,124,138777,2,0,P|259:169|251:214,1,92.3999971801759,2|2,2:0|3:2,2:0:0:0:
50,103,139103,1,2,3:2:0:0:
193,31,139266,1,10,2:0:0:0:
133,222,139429,5,2,3:2:0:0:
133,222,139510,1,2,3:2:0:0:
133,222,139592,1,2,3:1:0:0:
45,6,139755,1,0,2:0:0:0:
268,124,139918,1,10,2:0:0:0:
42,239,140081,6,0,P|87:230|132:222,1,92.3999971801759,2|2,3:1|3:2,2:0:0:0:
283,48,140407,2,0,P|238:39|193:31,1,92.3999971801759,0|10,3:0|2:0,2:0:0:0:
42,239,140733,5,2,3:2:0:0:
42,239,140815,1,2,3:2:0:0:
42,239,140896,2,0,P|33:194|25:149,1,92.3999971801759,2|0,3:1|2:0,2:0:0:0:
195,368,141222,2,0,P|247:324|315:322,1,138.599995770264,10|0,2:0|3:0,2:0:0:0:
357,338,141549,5,2,3:2:0:0:
150,269,141712,1,2,3:2:0:0:
301,142,141875,1,10,2:0:0:0:
63,0,142038,6,0,P|131:57|218:37,1,184.799994360352,2|0,3:1|3:0,2:0:0:0:
445,169,142527,1,10,2:0:0:0:
270,305,142690,1,0,3:0:0:0:
270,305,142771,1,0,3:0:0:0:
270,305,142853,2,0,L|250:212,1,92.3999971801759,2|0,2:1|3:0,2:0:0:0:
241,174,143097,1,2,3:2:0:0:
241,174,143179,1,10,2:0:0:0:
398,75,143342,1,2,2:0:0:0:
63,0,143505,6,0,B|40:99|40:99|77:121|86:165,1,184.799994360352,6|10,3:1|2:0,2:0:0:0:
178,293,143994,1,0,3:0:0:0:
178,293,144076,1,0,3:0:0:0:
178,293,144157,1,2,3:2:0:0:
335,149,144320,1,2,3:2:0:0:
136,62,144483,1,10,2:0:0:0:
250,214,144646,6,0,B|320:200|320:200|359:224|359:224|425:209,1,184.799994360352,2|0,3:1|3:0,2:0:0:0:
201,140,145135,1,10,2:0:0:0:
373,50,145299,1,0,3:0:0:0:
373,50,145380,1,0,3:0:0:0:
373,50,145462,1,2,3:2:0:0:
296,290,145625,1,2,3:2:0:0:
86,165,145788,5,10,2:0:0:0:
255,53,145951,1,0,2:0:0:0:
178,293,146114,1,6,3:1:0:0:
178,293,146440,5,8,2:0:0:0:
367,161,146603,1,8,2:0:0:0:
136,62,146766,1,8,2:0:0:0:
296,290,146929,1,8,2:0:0:0:
255,53,147092,1,8,2:0:0:0:
178,293,147255,5,8,2:0:0:0:
178,293,147337,1,8,2:0:0:0:
178,293,147418,1,10,2:1:0:0:
446,231,147581,1,8,2:0:0:0:
255,53,147744,1,8,2:0:0:0:
296,290,147907,1,8,2:0:0:0:
35,215,148070,5,8,2:0:0:0:
255,53,148233,1,0,3:0:0:0:
255,53,148315,1,0,3:0:0:0:
255,53,148396,1,8,2:0:0:0:
296,290,148559,1,0,3:0:0:0:
106,124,148722,5,14,3:1:0:0:
379,40,148885,1,8,2:3:0:0:
229,219,149049,1,4,2:3:0:0:
135,18,149212,5,8,2:0:0:0:
359,120,149375,1,4,2:3:0:0:
132,233,149538,1,4,2:3:0:0:
255,53,149701,5,8,2:0:0:0:
296,290,149864,1,4,2:3:0:0:
487,141,150027,1,4,2:3:0:0:
450,338,150190,6,0,P|384:277|295:289,1,184.799994360352,12|0,2:0|3:0,2:0:0:0:
261,319,150597,1,0,3:0:0:0:
261,319,150679,1,8,2:0:0:0:
35,215,150842,1,8,2:0:0:0:
197,131,151005,1,0,3:0:0:0:
125,357,151168,1,0,3:0:0:0:
346,268,151331,6,0,P|290:226|222:232,2,140.8,14|0|0,2:1|3:0|3:0,2:0:0:0:
487,141,152309,2,0,L|418:155,1,70.4,0|0,3:0|2:0,2:0:0:0:
255,53,152635,6,0,P|322:62|372:16,1,140.8,2|0,3:1|3:0,2:0:0:0:
306,147,153125,1,8,2:3:0:0:
177,0,153288,2,0,L|162:68,1,70.4,6|0,3:0|2:0,2:0:0:0:
57,156,153614,2,0,L|79:259,1,105.6,4|0,3:0|2:0,2:0:0:0:
69,293,153940,6,0,B|148:269|118:332|202:304,1,140.8,6|0,3:1|3:0,2:0:0:0:
332,336,154429,2,0,L|346:267,1,70.4,0|0,2:0|3:0,2:0:0:0:
216,150,154755,2,0,L|230:219,1,70.4,0|0,2:0|3:0,2:0:0:0:
255,53,155081,1,12,2:0:0:0:
477,61,155244,6,0,P|409:74|350:39,1,140.8,2|0,3:1|2:0,2:0:0:0:
314,193,155733,1,8,3:0:0:0:
314,193,155815,1,8,3:0:0:0:
314,193,155896,1,6,3:0:0:0:
441,150,156059,1,0,2:0:0:0:
414,281,156222,2,0,L|345:267,1,70.4,4|0,3:0|2:0,2:0:0:0:
216,150,156549,6,0,P|223:82|175:34,1,140.8,6|0,3:1|3:0,2:0:0:0:
69,293,157038,2,0,P|134:268|204:267,1,140.8,0|0,2:0|2:0,2:0:0:0:
122,145,157527,1,0,3:0:0:0:
303,87,157690,1,8,2:0:0:0:
185,12,157853,6,0,P|202:80|215:149,1,140.8,2|0,3:1|3:0,2:0:0:0:
367,226,158342,1,8,2:3:0:0:
367,226,158424,1,8,2:3:0:0:
367,226,158505,1,6,3:3:0:0:
220,165,158668,1,4,2:3:0:0:
308,325,158831,1,4,3:0:0:0:
501,203,158994,5,4,3:0:0:0:
501,203,159076,1,4,3:0:0:0:
501,203,159157,2,0,B|421:191|447:240|365:225,1,140.8,6|0,3:1|3:0,2:0:0:0:
220,165,159646,1,0,2:0:0:0:
339,74,159809,2,0,P|326:106|318:141,1,70.4,0|0,3:0|2:0,2:0:0:0:
179,267,160135,1,0,3:0:0:0:
130,96,160299,1,12,2:0:0:0:
56,303,160462,6,0,P|110:261|179:267,1,140.8,2|0,3:1|3:0,2:0:0:0:
308,325,160951,1,8,2:0:0:0:
308,325,161032,1,8,2:0:0:0:
308,325,161114,1,0,3:0:0:0:
220,165,161277,1,4,3:0:0:0:
421,111,161440,1,4,3:0:0:0:
366,225,161603,5,4,2:3:0:0:
366,225,161684,1,4,2:3:0:0:
366,225,161766,2,0,P|331:218|296:212,1,70.4,6|0,3:1|2:0,2:0:0:0:
199,83,162092,2,0,P|164:90|129:96,1,70.4,2|0,2:0|3:0,2:0:0:0:
25,100,162418,5,10,2:0:0:0:
121,254,162581,2,0,P|128:219|134:184,1,70.4,0|2,3:0|2:0,2:0:0:0:
24,289,162907,1,8,2:0:0:0:
196,322,163070,6,0,P|231:315|266:309,1,70.4,2|8,3:1|2:0,2:0:0:0:
421,111,163396,1,0,2:0:0:0:
296,212,163559,1,0,3:0:0:0:
258,71,163722,5,10,2:0:0:0:
456,194,163885,1,0,2:0:0:0:
410,8,164049,1,0,3:0:0:0:
296,212,164212,5,8,2:0:0:0:
296,212,164293,1,8,2:0:0:0:
296,212,164375,1,6,3:1:0:0:
122,109,164538,1,0,2:0:0:0:
258,71,164701,1,2,2:0:0:0:
183,252,164864,2,0,P|190:287|196:322,1,70.4,0|10,3:0|2:0,2:0:0:0:
365,362,165190,2,0,P|372:327|378:292,1,70.4,0|2,3:0|2:0,2:0:0:0:
283,142,165516,6,0,P|290:177|296:212,1,70.4,8|2,2:0|3:1,2:0:0:0:
369,94,165842,1,8,2:0:0:0:
186,141,166005,1,0,2:0:0:0:
246,0,166168,1,0,3:0:0:0:
295,211,166331,5,10,2:0:0:0:
117,155,166494,2,0,L|186:140,1,70.4,8|4,2:0|3:0,2:0:0:0:
418,223,166820,1,2,3:2:0:0:
418,223,166902,1,2,3:2:0:0:
418,223,166983,1,6,3:1:0:0:
418,223,167309,5,8,2:0:0:0:
214,314,167472,1,8,2:0:0:0:
256,108,167635,1,8,2:0:0:0:
339,308,167799,1,8,2:0:0:0:
102,261,167962,1,8,2:0:0:0:
259,87,168125,1,8,2:0:0:0:
278,371,168288,5,10,2:1:0:0:
512,158,168451,1,8,2:0:0:0:
259,87,168614,1,8,2:0:0:0:
425,311,168777,1,8,2:0:0:0:
409,43,168940,1,8,2:0:0:0:
245,274,169103,1,8,2:0:0:0:
512,158,169266,1,8,2:0:0:0:
252,0,169429,1,8,2:0:0:0:
337,308,169592,6,0,P|343:264|350:221,1,88,14|8,3:1|2:3,2:0:0:0:
91,139,169918,1,4,2:3:0:0:
328,42,170081,5,12,3:2:0:0:
246,274,170244,1,4,2:3:0:0:
179,41,170407,1,4,2:3:0:0:
431,132,170570,5,12,3:2:0:0:
180,203,170733,1,4,2:3:0:0:
337,347,170896,5,14,3:1:0:0:
250,95,171059,1,4,2:3:0:0:
512,199,171222,1,12,2:3:0:0:
246,274,171385,1,0,3:0:0:0:
334,16,171549,5,8,2:0:0:0:
254,282,171712,1,8,2:0:0:0:
254,282,171793,1,8,2:0:0:0:
254,282,171875,2,0,L|298:273,1,44,8|8,2:0|2:0,2:0:0:0:
100,95,172038,2,0,L|91:138,1,44,8|8,2:0|2:0,2:0:0:0:
4,336,172201,6,0,B|42:299|93:319|93:319|113:356|156:364,1,176,6|10,3:1|2:0,2:0:0:0:
343,189,172690,1,2,2:0:0:0:
343,189,172771,1,2,2:0:0:0:
343,189,172853,1,2,3:2:0:0:
165,101,173016,1,2,3:2:0:0:
337,308,173179,2,0,P|381:302|424:295,1,88,10|2,2:0|3:2,2:0:0:0:
397,96,173505,6,0,P|334:154|250:142,1,176,2|10,3:1|2:0,2:0:0:0:
114,299,173994,1,2,3:1:0:0:
114,299,174076,1,2,2:0:0:0:
114,299,174157,1,2,2:0:0:0:
165,101,174320,1,0,3:0:0:0:
337,308,174483,2,0,P|284:271|220:279,1,132,10|0,2:0|2:0,2:0:0:0:
155,356,174809,6,0,P|141:269|125:182,1,176,2|10,3:1|2:0,2:0:0:0:
308,73,175299,1,0,3:0:0:0:
308,73,175380,1,0,3:0:0:0:
308,73,175462,1,2,3:2:0:0:
127,12,175625,1,0,3:0:0:0:
230,184,175788,1,10,2:0:0:0:
408,2,175951,6,0,P|415:45|421:89,1,88,2|0,3:1|2:0,2:0:0:0:
230,184,176277,1,0,3:0:0:0:
445,233,176440,1,10,2:0:0:0:
308,73,176603,1,0,3:0:0:0:
308,73,176684,1,0,3:0:0:0:
308,73,176766,2,0,L|323:160,1,88,2|0,3:1|3:0,2:0:0:0:
353,331,177092,1,10,2:0:0:0:
114,299,177255,5,0,3:0:0:0:
114,299,177337,1,0,3:0:0:0:
114,298,177418,2,0,P|175:240|258:257,1,176,6|10,3:1|2:0,2:0:0:0:
308,73,177907,1,2,3:2:0:0:
308,73,177989,1,2,3:2:0:0:
308,73,178070,2,0,L|265:84,1,44,2|0,3:2|2:0,2:0:0:0:
230,184,178233,2,0,L|187:172,1,44,2|2,3:2|2:0,2:0:0:0:
81,126,178396,1,10,2:0:0:0:
81,126,178478,1,2,2:0:0:0:
81,126,178559,6,0,P|101:211|113:298,1,176,2|0,3:1|3:0,2:0:0:0:
321,160,179049,1,10,2:0:0:0:
161,91,179212,1,0,3:0:0:0:
161,91,179293,1,0,3:0:0:0:
161,91,179375,1,2,3:2:0:0:
259,259,179538,1,0,3:0:0:0:
382,75,179701,1,10,2:0:0:0:
187,172,179864,1,0,2:0:0:0:
404,288,180027,6,0,P|339:233|258:258,1,176,2|10,3:1|2:0,2:0:0:0:
447,166,180516,1,0,3:0:0:0:
447,166,180597,1,0,3:0:0:0:
447,166,180679,1,2,3:2:0:0:
214,41,180842,1,2,3:2:0:0:
258,257,181005,1,10,2:0:0:0:
480,76,181168,6,0,B|374:52|415:120|312:100,1,176,6|0,3:1|3:0,2:0:0:0:
277,83,181576,1,0,3:0:0:0:
277,83,181657,1,10,2:0:0:0:
126,250,181820,6,0,P|115:208|104:165,1,88,6|0,3:1|3:0,2:0:0:0:
94,122,182065,1,8,2:0:0:0:
94,122,182146,1,0,3:2:0:0:
329,211,182309,2,0,P|278:175|213:186,1,132,10|0,2:1|3:0,2:0:0:0:
258,257,182635,6,0,P|327:245|396:233,1,140.8,6|2,3:1|2:0,2:0:0:0:
396,233,183125,1,0,3:0:0:0:
324,30,183288,2,0,P|318:64|312:99,1,70.4,10|0,2:0|3:0,2:0:0:0:
151,138,183614,2,0,P|156:172|162:207,1,70.4,2|8,2:0|2:0,2:0:0:0:
171,239,183858,1,8,2:0:0:0:
171,239,183940,1,2,3:1:0:0:
225,73,184103,1,8,2:0:0:0:
81,126,184266,2,0,P|115:131|150:137,1,70.4,0|0,3:0|3:0,2:0:0:0:
258,257,184592,5,10,2:0:0:0:
463,188,184755,2,0,P|420:157|368:160,1,105.6,0|0,3:0|3:0,2:0:0:0:
375,372,185163,1,10,2:0:0:0:
375,372,185244,6,0,P|383:302|395:232,1,140.8,6|2,3:1|2:0,2:0:0:0:
227,176,185733,1,0,3:0:0:0:
351,75,185896,1,10,2:0:0:0:
258,257,186059,5,6,3:1:0:0:
512,126,186304,5,6,2:1:0:0:
238,35,186549,6,0,P|231:105|227:176,1,140.8,6|2,3:1|2:0,2:0:0:0:
394,232,187038,1,0,3:0:0:0:
394,232,187119,1,0,3:0:0:0:
394,232,187201,1,10,2:1:0:0:
272,350,187364,1,8,2:0:0:0:
162,240,187527,2,0,L|93:254,1,70.4,4|2,3:0|3:2,2:0:0:0:
66,282,187771,1,2,3:2:0:0:
66,282,187853,6,0,P|8:231|15:155,1,158.399995166016,6|0,3:1|3:0,2:0:0:0:
162,58,188342,1,2,2:0:0:0:
162,58,188424,1,2,2:0:0:0:
162,58,188505,2,0,L|150:137,1,79.1999975830079,8|8,2:0|2:0,2:0:0:0:
258,257,188831,1,0,3:0:0:0:
377,75,188994,6,0,B|335:68|313:32|313:32|317:74|290:104,1,158.399995166016,12|8,2:0|2:0,2:0:0:0:
467,157,189483,1,0,3:0:0:0:
258,257,189646,1,0,3:0:0:0:
258,257,189727,1,0,3:0:0:0:
258,257,189809,1,8,2:0:0:0:
290,104,189972,1,8,2:0:0:0:
394,232,190135,2,0,L|381:310,1,79.1999975830079,0|0,3:0|3:0,2:0:0:0:
411,358,190380,1,0,3:0:0:0:
411,358,190462,6,0,P|336:339|273:384,1,158.399995166016,6|0,3:1|3:0,2:0:0:0:
94,299,190951,1,0,3:0:0:0:
94,299,191032,1,0,3:0:0:0:
94,299,191114,1,8,2:0:0:0:
225,172,191277,1,8,2:0:0:0:
150,381,191440,1,0,3:0:0:0:
67,196,191603,5,8,2:0:0:0:
67,196,191684,1,8,2:0:0:0:
67,196,191766,2,0,L|144:213,1,79.1999975830079,0|8,3:0|2:0,2:0:0:0:
197,58,192092,2,0,L|312:32,1,118.799996374512,2|0,3:2|3:0,2:0:0:0:
354,48,192418,5,8,2:0:0:0:
225,172,192581,1,8,2:0:0:0:
406,217,192744,1,0,3:0:0:0:
336,140,192907,5,0,3:0:0:0:
336,140,192989,1,0,3:0:0:0:
336,140,193070,2,0,B|406:169|403:261|336:291|336:291|295:284|295:284|319:271|327:251,1,281.6,6|2,3:1|3:1,2:0:0:0:
364,371,194864,5,8,2:3:0:0:
229,340,195190,1,4,2:3:0:0:
229,340,195353,1,4,2:3:0:0:
326,251,195679,5,2,2:1:0:0:
112,99,206114,6,0,B|62:12|211:-52|261:81|189:165|135:120|95:178|114:239,1,369.599988720703,2|0,2:0|2:0,2:0:0:0:
256,384,207418,5,14,3:1:0:0:
256,384,208070,1,0,3:0:0:0:
460,231,208233,1,8,2:0:0:0:
445,196,208314,1,8,2:0:0:0:
421,169,208396,1,8,2:0:0:0:
389,151,208477,1,8,2:0:0:0:
353,146,208559,1,8,2:0:0:0:
317,153,208640,1,8,2:0:0:0:
285,170,208722,5,6,3:1:0:0:
460,231,208885,1,0,2:0:0:0:
381,39,209049,1,10,2:0:0:0:
206,225,209212,6,0,B|191:162|191:162|209:123|209:123|192:57,1,176,4|0,3:2|3:0,2:0:0:0:
180,8,209619,1,0,3:0:0:0:
180,8,209701,1,10,2:0:0:0:
285,170,209864,1,2,3:2:0:0:
70,283,210027,6,0,B|170:256|138:336|244:308,1,184.799994360352,6|10,3:1|2:0,2:0:0:0:
389,151,210516,1,0,3:0:0:0:
389,151,210597,1,0,3:0:0:0:
389,151,210679,1,2,3:2:0:0:
206,225,210842,1,2,3:2:0:0:
355,325,211005,1,10,2:0:0:0:
285,170,211168,6,0,P|197:187|129:129,1,184.799994360352,6|0,3:1|3:0,2:0:0:0:
260,12,211657,1,10,2:0:0:0:
389,151,211820,1,0,3:0:0:0:
389,151,211902,1,0,3:0:0:0:
389,151,211983,2,0,P|395:105|402:59,1,92.3999971801759,2|0,3:1|3:0,2:0:0:0:
185,143,212309,2,0,P|195:211|205:280,1,138.599995770264,10|0,2:0|2:0,2:0:0:0:
243,307,212635,6,0,B|138:289|171:355|67:341,1,184.799994360352,6|10,3:1|2:0,2:0:0:0:
285,170,213125,1,0,3:0:0:0:
285,170,213206,1,0,3:0:0:0:
285,170,213288,1,2,3:2:0:0:
100,114,213451,1,2,3:2:0:0:
205,280,213614,1,10,2:0:0:0:
342,60,213777,6,0,P|296:70|252:81,1,92.3999971801759,6|0,3:1|2:0,2:0:0:0:
460,231,214103,2,0,P|470:185|481:141,1,92.3999971801759,0|10,3:0|2:0,2:0:0:0:
252,81,214429,1,0,3:0:0:0:
252,81,214510,1,0,3:0:0:0:
252,81,214592,1,2,3:2:0:0:
348,237,214755,1,0,3:0:0:0:
136,235,214918,2,0,P|194:200|260:214,1,138.599995770264,10|0,2:0|3:0,2:0:0:0:
205,280,215244,6,0,P|217:188|229:96,1,184.799994360352,6|10,3:1|2:0,2:0:0:0:
348,237,215733,1,0,3:0:0:0:
348,237,215815,1,0,3:0:0:0:
348,237,215896,1,2,3:2:0:0:
122,339,216059,1,2,3:2:0:0:
160,118,216222,1,10,2:0:0:0:
292,358,216385,6,0,P|364:304|453:318,1,184.799994360352,6|0,3:1|3:0,2:0:0:0:
453,318,216793,1,0,3:0:0:0:
453,318,216875,1,10,2:0:0:0:
342,60,217038,6,0,B|292:30|292:30|311:154,1,184.799994360352,6|8,3:1|2:0,2:0:0:0:
321,191,217445,1,8,2:0:0:0:
321,191,217527,2,0,L|366:201,1,46.1999985900879,0|0,3:0|3:0,2:0:0:0:
478,103,217690,2,0,L|433:113,1,46.1999985900879,0|0,3:0|3:0,2:0:0:0:
178,35,217853,6,0,B|230:13|284:13|284:13|306:48|342:60,1,184.799994360352,6|10,2:1|2:0,2:0:0:0:
136,235,218342,1,2,3:2:0:0:
136,235,218424,1,0,3:0:0:0:
136,235,218505,1,8,3:2:0:0:
366,296,218668,1,2,3:2:0:0:
275,130,218831,1,8,2:0:0:0:
219,375,218994,1,2,3:2:0:0:
28,297,219157,5,14,3:1:0:0:
328,214,219320,1,0,3:0:0:0:
106,48,219483,1,8,2:0:0:0:
234,277,219646,5,2,3:1:0:0:
234,277,219728,1,0,3:0:0:0:
234,277,219809,1,8,2:0:0:0:
280,18,219972,1,0,3:0:0:0:
83,202,220135,1,8,2:0:0:0:
366,135,220299,1,2,3:2:0:0:
366,135,220380,1,2,3:2:0:0:
366,135,220462,6,0,B|434:102|487:153|487:153|470:204,1,184.799994360352,14|8,2:1|2:0,2:0:0:0:
428,375,220951,1,0,3:0:0:0:
428,375,221032,1,0,3:0:0:0:
428,375,221114,1,8,3:2:0:0:
212,318,221277,1,2,3:2:0:0:
366,135,221440,1,8,2:0:0:0:
322,380,221603,5,2,3:1:0:0:
322,380,221684,1,0,3:0:0:0:
322,380,221766,1,8,2:0:0:0:
208,167,221929,1,0,3:0:0:0:
470,203,222092,1,10,2:0:0:0:
212,318,222255,5,0,3:0:0:0:
212,318,222337,1,0,3:0:0:0:
212,318,222418,2,0,L|120:304,1,92.3999971801759,10|0,2:1|3:0,2:0:0:0:
75,294,222663,1,2,3:2:0:0:
75,294,222744,1,8,2:0:0:0:
298,211,222907,1,2,2:0:0:0:
130,20,223070,6,0,B|144:59|121:94|121:94|137:124|137:124|121:157|132:195,1,184.799994360352,14|8,2:1|2:0,2:0:0:0:
306,297,223559,1,0,3:0:0:0:
306,297,223641,1,0,3:0:0:0:
306,297,223722,1,10,3:2:0:0:
132,195,223885,1,2,3:2:0:0:
311,102,224049,1,8,2:0:0:0:
207,282,224212,5,2,3:1:0:0:
207,282,224293,1,0,3:0:0:0:
207,282,224375,2,0,P|216:327|220:373,1,92.3999971801759,8|0,2:0|3:0,2:0:0:0:
384,240,224701,1,8,2:0:0:0:
132,195,224864,5,0,3:0:0:0:
132,195,224945,1,0,3:0:0:0:
132,195,225027,1,8,3:2:0:0:
323,25,225190,1,2,3:2:0:0:
306,297,225353,1,10,2:0:0:0:
160,41,225516,1,0,2:0:0:0:
411,153,225679,6,0,B|452:117|503:128|503:128|521:82|494:46,1,184.799994360352,6|10,3:1|2:0,2:0:0:0:
484,215,226168,1,2,3:2:0:0:
484,215,226250,1,0,3:0:0:0:
484,215,226331,1,2,3:2:0:0:
326,128,226494,1,2,3:2:0:0:
404,342,226657,1,10,2:0:0:0:
116,300,226820,6,0,L|207:282,1,92.3999971801759,2|2,3:2|3:1,2:0:0:0:
326,128,227146,1,0,2:0:0:0:
163,48,227309,1,10,2:0:0:0:
208,193,227472,1,2,3:1:0:0:
208,193,227554,1,0,3:0:0:0:
208,193,227635,2,0,L|226:102,1,92.3999971801759,2|0,3:2|3:0,2:0:0:0:
324,344,227962,1,10,2:0:0:0:
116,300,228125,1,2,2:0:0:0:
225,102,228288,6,0,B|237:171|237:171|217:206|217:206|230:280,1,184.799994360352,6|10,3:1|2:0,2:0:0:0:
346,46,228777,1,0,3:0:0:0:
346,46,228858,1,0,3:0:0:0:
346,46,228940,1,2,3:2:0:0:
133,10,229103,1,2,3:2:0:0:
208,193,229266,1,10,2:0:0:0:
0,156,229429,6,0,P|67:97|155:112,1,184.799994360352,6|0,3:1|3:0,2:0:0:0:
308,227,229918,2,0,P|353:218|399:212,1,92.3999971801759,10|0,2:0|3:0,2:0:0:0:
233,350,230244,1,2,3:1:0:0:
204,314,230325,1,0,3:0:0:0:
162,296,230407,1,0,3:0:0:0:
116,300,230488,1,0,3:0:0:0:
78,325,230570,1,10,2:0:0:0:
308,227,230733,1,0,3:0:0:0:
96,72,230896,1,14,2:1:0:0:
96,72,231222,5,8,2:0:0:0:
162,296,231385,1,8,2:0:0:0:
352,120,231549,1,8,2:0:0:0:
84,240,231712,1,8,2:0:0:0:
220,0,231875,1,8,2:0:0:0:
247,280,232038,1,8,2:0:0:0:
383,40,232201,5,10,2:1:0:0:
123,160,232364,1,8,2:0:0:0:
388,236,232527,1,8,2:0:0:0:
220,0,232690,1,8,2:0:0:0:
248,301,232853,5,8,2:0:0:0:
493,114,233016,1,8,2:0:0:0:
179,232,233179,1,8,2:0:0:0:
479,325,233342,1,8,2:0:0:0:
406,27,233505,5,12,2:0:0:0:
256,192,233587,12,2,234809,2:1:0:0:
383,40,235951,6,0,P|315:58|247:77,1,140.8,2|2,2:0|2:0,2:0:0:0:
105,23,236440,1,2,2:0:0:0:
105,23,236766,6,0,L|114:66,1,44,8|8,2:0|2:0,2:0:0:0:
238,120,236929,2,0,L|247:76,1,44,0|0,3:0|3:0,2:0:0:0:
72,219,237092,1,8,2:0:0:0:
108,194,237173,1,8,2:0:0:0:
150,192,237255,1,8,2:0:0:0:
189,212,237336,1,8,2:0:0:0:
212,249,237418,6,0,L|300:231,1,88,6|0,3:1|2:0,2:0:0:0:
336,49,237744,2,0,L|465:75,1,132,10|0,2:0|3:0,2:0:0:0:
508,65,238070,2,0,P|514:108|501:149,1,88,2|0,3:2|3:0,2:0:0:0:
298,231,238396,1,10,2:0:0:0:
407,365,238559,5,2,3:2:0:0:
407,365,238641,1,0,3:0:0:0:
407,364,238722,2,0,P|460:298|441:215,1,176,2|10,3:1|2:0,2:0:0:0:
249,66,239212,1,0,3:0:0:0:
249,66,239293,1,0,3:0:0:0:
249,66,239375,2,0,L|337:48,1,88,2|0,3:1|3:0,2:0:0:0:
371,278,239701,2,0,P|315:245|252:261,1,132,10|0,2:0|3:0,2:0:0:0:
212,244,240027,6,0,B|108:225|151:292|45:275,1,176,2|10,3:1|2:0,2:0:0:0:
231,152,240516,1,0,3:0:0:0:
231,152,240597,1,0,3:0:0:0:
231,152,240679,2,0,L|249:64,1,88,2|0,3:2|2:0,2:0:0:0:
133,167,241005,1,10,2:0:0:0:
311,207,241168,6,0,P|375:150|460:162,1,176,2|0,3:1|2:0,2:0:0:0:
302,326,241657,1,10,2:0:0:0:
133,167,241820,1,2,2:0:0:0:
133,167,241902,1,2,2:0:0:0:
133,167,241983,2,0,L|151:255,1,88,2|0,3:1|3:0,2:0:0:0:
365,84,242309,2,0,P|302:99|248:65,1,132,10|0,2:0|2:0,2:0:0:0:
428,7,242635,6,0,P|411:93|395:180,1,176,6|8,3:1|2:0,2:0:0:0:
239,256,243125,1,2,2:0:0:0:
239,256,243206,1,2,2:0:0:0:
239,256,243288,1,2,3:2:0:0:
475,286,243451,1,2,3:2:0:0:
365,84,243614,1,10,2:0:0:0:
302,326,243777,6,0,L|390:308,1,88,2|0,3:1|2:0,2:0:0:0:
248,65,244103,2,0,L|230:153,1,88,2|8,3:2|2:0,2:0:0:0:
65,274,244429,1,2,2:0:0:0:
65,274,244510,1,2,2:0:0:0:
65,274,244592,2,0,P|107:261|150:253,1,88,2|0,3:2|3:0,2:0:0:0:
248,65,244918,2,0,L|376:96,1,132,10|0,2:0|3:0,2:0:0:0:
415,76,245244,5,2,3:1:0:0:
305,200,245407,1,0,2:0:0:0:
505,334,245570,2,0,P|451:297|387:308,1,132,8|0,2:0|3:0,2:0:0:0:
346,292,245896,2,0,P|337:335|329:378,1,88,2|0,3:2|3:0,2:0:0:0:
236,267,246222,1,8,2:0:0:0:
376,96,246385,6,0,B|271:75|315:143|208:124,1,176,6|10,2:1|2:0,2:0:0:0:
174,106,246793,1,10,2:0:0:0:
174,106,246875,1,10,2:0:0:0:
15,294,247038,6,0,P|74:232|158:243,1,176,6|8,2:1|2:0,2:0:0:0:
193,276,247445,1,8,2:0:0:0:
193,276,247527,2,0,L|235:266,1,44,8|8,2:0|2:0,2:0:0:0:
326,174,247690,2,0,L|283:164,1,44,8|8,2:0|2:0,2:0:0:0:
387,308,247853,6,0,L|406:222,1,88,14|0,2:1|3:0,2:0:0:0:
174,106,248179,1,10,2:0:0:0:
398,0,248342,1,0,3:0:0:0:
311,256,248505,5,10,3:2:0:0:
237,8,248668,1,0,3:0:0:0:
237,8,248750,1,0,3:0:0:0:
237,8,248831,1,10,2:0:0:0:
477,148,248994,1,2,2:0:0:0:
192,275,249157,6,0,P|122:227|40:251,1,176,10|10,3:1|2:0,2:0:0:0:
326,174,249646,1,0,3:0:0:0:
326,174,249728,1,0,3:0:0:0:
326,174,249809,1,10,3:1:0:0:
86,127,249972,1,0,3:0:0:0:
178,361,250135,2,0,P|184:318|192:275,1,88,10|0,2:0|3:0,2:0:0:0:
237,22,250462,6,0,B|335:40|335:40|358:8|399:3,1,176,14|10,2:1|2:0,2:0:0:0:
231,190,250951,1,0,3:0:0:0:
456,251,251114,1,10,3:2:0:0:
412,91,251277,1,0,3:0:0:0:
412,91,251358,1,0,3:0:0:0:
412,91,251440,1,10,2:0:0:0:
319,311,251603,1,2,2:1:0:0:
144,176,251766,6,0,P|187:182|230:189,1,88,12|0,3:2|2:0,2:0:0:0:
433,0,252092,2,0,P|389:6|346:13,1,88,10|2,2:0|3:2,2:0:0:0:
137,62,252418,1,10,3:1:0:0:
344,215,252581,1,0,3:0:0:0:
344,215,252663,1,0,3:0:0:0:
344,215,252744,2,0,P|337:171|330:128,1,88,10|0,2:0|3:0,2:0:0:0:
24,329,253070,6,0,P|108:312|178:361,1,176,14|8,3:1|2:0,2:0:0:0:
330,128,253559,1,2,3:2:0:0:
330,128,253641,1,2,3:2:0:0:
330,128,253722,1,10,2:0:0:0:
80,228,253885,1,2,3:2:0:0:
319,311,254049,1,10,2:0:0:0:
257,57,254212,1,2,3:1:0:0:
178,361,254375,5,8,2:0:0:0:
429,193,254538,2,0,P|386:203|343:214,1,88,2|8,3:2|2:0,2:0:0:0:
139,108,254864,1,2,3:2:0:0:
139,108,254945,1,2,3:2:0:0:
139,108,255027,1,10,3:2:0:0:
317,13,255190,1,0,3:0:0:0:
241,206,255353,2,0,L|262:337,1,132,10|0,2:0|2:0,2:0:0:0:
269,379,255679,6,0,P|338:322|417:336,1,176,14|8,3:1|2:0,2:0:0:0:
169,278,256168,1,0,3:0:0:0:
169,278,256250,1,0,3:0:0:0:
169,278,256331,1,10,2:0:0:0:
372,106,256494,1,0,3:0:0:0:
269,379,256657,1,8,2:0:0:0:
63,208,256820,6,0,P|147:222|213:168,1,176,6|10,2:1|2:0,2:0:0:0:
226,128,257228,1,10,2:0:0:0:
226,128,257309,1,10,2:0:0:0:
417,336,257472,6,0,P|374:326|331:315,1,88,6|2,2:1|2:0,2:0:0:0:
380,114,257799,1,8,2:0:0:0:
380,114,257880,1,8,2:0:0:0:
380,114,257962,2,0,P|375:135|369:157,1,44,8|8,2:0|2:0,2:0:0:0:
235,219,258125,2,0,P|239:240|245:261,1,44,8|8,2:0|2:0,2:0:0:0:
330,314,258288,6,0,B|455:267|471:78|306:-5|182:66|160:168|160:168|149:219|110:257|46:268|-13:216|-23:154|17:119|70:119|84:164,1,844.8,14|0,2:1|2:0,2:0:0:0:
