osu file format v14

[General]
AudioFilename: audio.mp3
AudioLeadIn: 0
PreviewTime: 49588
Countdown: 0
SampleSet: Soft
StackLeniency: 0.4
Mode: 0
LetterboxInBreaks: 0
WidescreenStoryboard: 1

[Editor]
DistanceSpacing: 1
BeatDivisor: 2
GridSize: 16
TimelineZoom: 1

[Metadata]
Title:Have a live day
TitleUnicode:Have a live day
Artist:Ceui
ArtistUnicode:Ceui
Creator:Dored
Version:Easy
Source:白恋サクラ*グラム
Tags:Shirokoi Sakura*Gram Nanawind Opening Short Version Japanese Eroge Visual Novel Galgame Rage Quit Silky Kanau Mamayu fuyuyu- joker- Eir Shizuku- Lafayla Asuka_- Eternal snow blooming season of love SONO MAKERS 小高光太郎 石倉誉之 永原さくら Sakura Nagahara Ishikura Takayuki Kotaro Odaka
BeatmapID:2301528
BeatmapSetID:1101687

[Difficulty]
HPDrainRate:3
CircleSize:3
OverallDifficulty:3
ApproachRate:4
SliderMultiplier:0.85
SliderTickRate:1

[Events]
//Background and Video events
0,0,"Asahi.jpg",0,0
//Break Periods
2,75982,78255
//Storyboard Layer 0 (Background)
//Storyboard Layer 1 (Fail)
//Storyboard Layer 2 (Pass)
//Storyboard Layer 3 (Foreground)
//Storyboard Layer 4 (Overlay)
//Storyboard Sound Samples

[TimingPoints]
2739,326.086956521739,4,2,0,60,1,0
7956,-100,4,2,1,55,0,0
10565,-100,4,2,1,65,0,0
13173,-100,4,2,1,60,0,0
14478,-100,4,2,1,55,0,0
15782,-100,4,2,1,40,0,0
17738,-100,4,2,1,60,0,0
18391,-100,4,2,1,40,0,0
25728,-100,4,2,1,50,0,0
26217,-100,4,2,1,55,0,0
34043,-100,4,2,1,60,0,0
36652,-100,4,2,1,55,0,0
43173,-100,4,2,1,45,0,0
44478,-100,4,2,1,65,0,0
47086,-100,4,2,1,70,0,0
48391,-100,4,2,1,45,0,0
49695,-100,4,2,1,75,0,1
59478,-100,4,2,1,75,0,0
60130,-100,4,2,1,75,0,1
73173,-100,4,2,1,80,0,1
75782,-100,4,2,1,80,0,0
79695,-100,4,2,1,70,0,0
100728,-100,4,2,1,60,0,0
104478,-100,4,2,1,25,0,0

[Colours]
Combo1 : 255,255,185
Combo2 : 215,215,215
Combo3 : 193,221,255
Combo4 : 255,208,255

[HitObjects]
448,304,7956,5,6,0:0:0:0:
384,57,8934,1,2,0:0:0:0:
328,121,9260,2,0,P|286:112|244:106,1,85,6|2,3:2|0:0,0:0:0:0:
182,47,9912,2,0,P|140:55|98:61,1,85,2|2,0:0|3:2,0:0:0:0:
48,131,10565,6,0,P|60:193|70:256,1,127.5,14|8,3:2|0:0,0:0:0:0:
128,318,11380,1,2,3:2:0:0:
190,260,11706,2,0,P|239:222|301:229,1,127.5,2|2,3:2|3:2,0:0:0:0:
364,289,12521,2,0,P|406:294|447:303,1,85,10|10,0:0|0:0,0:0:0:0:
511,359,13173,5,6,0:0:0:0:
190,260,14478,1,2,0:0:0:0:
506,137,15782,6,0,P|391:174|309:85,1,255,2|2,0:0|0:0,0:0:0:0:
283,4,17086,1,2,0:0:0:0:
224,164,17738,1,0,0:0:0:0:
71,87,18391,6,0,P|133:77|196:64,2,127.5,2|0|2,0:0|0:0|0:0,0:0:0:0:
12,148,19695,1,2,0:0:0:0:
107,288,20347,1,2,0:0:0:0:
224,164,20999,6,0,P|338:126|420:215,1,255,2|2,0:0|0:0,0:0:0:0:
502,239,22304,2,0,P|494:280|488:322,1,85,2|2,0:0|0:0,0:0:0:0:
416,369,22956,2,0,P|375:361|333:355,1,85,2|2,0:0|0:0,0:0:0:0:
260,309,23608,6,0,P|211:347|149:340,1,127.5,2|0,0:0|0:0,0:0:0:0:
86,282,24423,1,0,0:0:0:0:
174,189,24912,2,0,P|186:127|196:64,1,127.5,2|2,0:0|0:0,0:0:0:0:
268,18,25728,2,0,P|288:22|309:25,1,42.5,2|8,3:2|3:2,0:0:0:0:
373,81,26217,6,0,P|432:25|512:42,1,170,6|0,3:2|3:0,0:0:0:0:
454,108,27195,1,2,3:2:0:0:
480,192,27521,2,0,P|437:197|396:206,1,85,2|2,3:2|3:2,0:0:0:0:
325,154,28173,2,0,P|282:148|241:139,1,85,0|0,3:0|3:0,0:0:0:0:
196,63,28825,6,0,P|112:78|28:91,1,170,2|0,3:2|3:0,0:0:0:0:
64,170,29804,1,2,3:2:0:0:
13,236,30130,2,0,P|6:278|0:319,1,85,2|2,3:2|3:2,0:0:0:0:
64,373,30782,2,0,P|105:363|147:359,1,85,0|0,3:0|3:0,0:0:0:0:
230,384,31434,5,6,3:2:0:0:
175,223,32086,2,0,P|217:218|258:209,1,85,2|2,3:2|3:2,0:0:0:0:
325,154,32738,2,0,P|320:111|311:70,2,85,2|2|0,3:2|3:2|3:0,0:0:0:0:
337,238,33717,1,0,3:0:0:0:
270,292,34043,6,0,P|330:279|383:313,1,127.5,6|2,3:2|3:2,0:0:0:0:
436,380,34858,1,2,3:2:0:0:
503,327,35184,2,0,P|491:265|481:202,1,127.5,6|8,3:2|0:0,0:0:0:0:
412,151,35999,1,0,3:0:0:0:
462,83,36325,1,8,0:0:0:0:
394,33,36652,6,0,P|310:19|226:4,1,170,6|8,3:2|0:0,0:0:0:0:
114,131,37956,2,0,P|193:112|253:167,1,170,2|8,3:2|0:0,0:0:0:0:
93,223,39260,6,0,P|79:139|64:55,1,170,6|8,3:2|0:0,0:0:0:0:
190,82,40402,1,2,3:2:0:0:
226,4,40728,2,0,P|288:16|351:26,1,127.5,8|8,0:0|0:0,0:0:0:0:
403,92,41543,1,2,0:0:0:0:
469,40,41869,5,6,0:0:0:0:
190,82,43173,1,2,0:0:0:0:
425,217,44478,6,0,P|412:154|402:91,2,127.5,14|8|8,3:2|0:0|0:0,0:0:0:0:
464,338,45945,1,8,0:0:0:0:
339,301,46434,2,0,P|298:294|256:288,1,85,10|8,0:0|3:2,0:0:0:0:
175,256,47086,5,14,3:2:0:0:
244,202,47412,2,0,P|286:195|327:188,2,85,10|10|2,0:0|0:0|3:2,0:0:0:0:
164,171,48391,1,2,0:0:0:0:
164,171,49695,6,0,P|157:128|149:87,1,85,6|10,3:2|0:0,0:0:0:0:
215,34,50347,2,0,P|257:27|298:19,1,85,0|8,3:0|0:0,0:0:0:0:
342,91,50999,2,0,P|391:129|453:122,1,127.5,0|2,3:0|3:2,0:0:0:0:
506,188,51815,2,0,P|502:208|499:229,1,42.5,2|8,3:2|0:0,0:0:0:0:
478,312,52304,6,0,P|435:318|394:326,1,85,2|8,3:2|0:0,0:0:0:0:
320,284,52956,2,0,P|278:292|236:298,1,85,0|10,3:0|0:0,0:0:0:0:
208,330,53445,2,0,P|158:291|96:299,1,127.5,2|10,3:2|0:0,0:0:0:0:
24,255,54260,1,2,3:2:0:0:
82,193,54586,1,10,0:0:0:0:
9,149,54912,6,0,P|17:107|22:65,1,85,6|8,3:2|0:0,0:0:0:0:
93,16,55565,2,0,P|155:28|218:38,1,127.5,2|2,3:2|3:2,0:0:0:0:
295,0,56380,2,0,P|256:48|263:110,1,127.5,2|0,3:2|3:2,0:0:0:0:
313,179,57195,1,10,0:0:0:0:
280,258,57521,6,0,P|217:245|154:235,1,127.5,2|2,3:2|3:2,0:0:0:0:
82,193,58336,1,2,3:2:0:0:
24,255,58662,2,0,P|32:296|37:338,1,85,6|2,3:2|3:2,0:0:0:0:
110,382,59315,1,6,3:2:0:0:
280,258,60130,6,0,P|321:264|363:272,1,85,14|10,3:2|0:0,0:0:0:0:
428,218,60782,2,0,P|434:176|442:134,1,85,8|8,3:2|0:0,0:0:0:0:
399,60,61434,2,0,P|459:47|511:82,2,127.5,8|2|8,0:0|3:2|0:0,0:0:0:0:
357,135,62738,6,0,P|315:128|273:120,1,85,14|8,0:0|0:0,0:0:0:0:
214,58,63391,2,0,P|172:66|130:72,1,85,8|10,0:0|0:0,0:0:0:0:
112,111,63880,2,0,P|51:98|0:133,1,127.5,2|10,3:2|0:0,0:0:0:0:
67,185,64695,1,10,3:2:0:0:
15,252,65021,1,8,0:0:0:0:
82,304,65347,6,0,P|123:295|165:289,1,85,14|8,0:0|0:0,0:0:0:0:
238,332,65999,2,0,P|279:338|321:346,1,85,10|10,3:2|0:0,0:0:0:0:
355,372,66488,2,0,P|368:309|378:246,1,127.5,2|8,3:2|0:0,0:0:0:0:
457,218,67304,2,0,P|448:176|442:134,1,85,8|10,3:2|0:0,0:0:0:0:
498,70,67956,5,6,0:0:0:0:
445,1,68282,2,0,P|382:13|319:23,1,127.5,10|2,0:0|3:2,0:0:0:0:
236,43,69097,2,0,P|201:94|213:155,1,127.5,2|8,3:2|0:0,0:0:0:0:
296,175,69912,2,0,P|287:217|281:259,1,85,0|10,3:0|0:0,0:0:0:0:
238,332,70565,5,6,0:0:0:0:
165,288,70891,2,0,P|102:276|39:266,1,127.5,10|2,0:0|3:2,0:0:0:0:
2,189,71706,2,0,P|64:178|127:167,1,127.5,2|8,3:2|0:0,0:0:0:0:
162,88,72521,2,0,P|204:97|246:103,1,85,0|10,3:0|0:0,0:0:0:0:
296,175,73173,5,14,0:0:0:0:
348,103,73499,2,0,P|341:60|333:19,2,85,10|8|10,0:0|0:0|0:0,0:0:0:0:
397,176,74478,1,10,0:0:0:0:
446,249,74804,2,0,P|437:290|431:332,2,85,8|8|10,0:0|0:0|0:0,0:0:0:0:
498,178,75782,5,14,0:0:0:0:
349,367,79695,6,0,P|307:358|265:352,2,85,6|10|2,3:2|0:0|3:2,0:0:0:0:
430,332,80673,1,10,0:0:0:0:
359,279,80999,2,0,P|316:272|275:265,1,85,2|10,3:2|0:0,0:0:0:0:
195,300,81652,2,0,P|152:306|111:313,1,85,2|10,0:0|0:0,0:0:0:0:
29,292,82304,6,0,P|22:249|15:208,1,85,2|10,3:2|0:0,0:0:0:0:
72,145,82956,2,0,P|78:102|85:61,1,85,2|10,3:2|0:0,0:0:0:0:
118,33,83445,2,0,P|167:71|229:64,1,127.5,2|10,3:2|0:0,0:0:0:0:
288,125,84260,2,0,P|329:117|371:112,1,85,2|10,3:2|0:0,0:0:0:0:
439,60,84912,5,6,3:2:0:0:
483,224,85565,2,0,P|490:265|495:307,1,85,2|10,3:2|0:0,0:0:0:0:
480,347,86054,2,0,P|438:339|396:334,1,85,2|2,3:2|3:2,0:0:0:0:
323,381,86706,2,0,P|307:320|338:266,1,127.5,2|10,3:2|0:0,0:0:0:0:
384,195,87521,6,0,P|378:152|371:111,1,85,2|8,3:2|0:0,0:0:0:0:
351,28,88173,1,2,3:2:0:0:
229,63,88662,2,0,P|187:55|145:50,1,85,6|2,3:2|3:2,0:0:0:0:
60,72,89315,1,6,3:2:0:0:
145,266,90130,6,0,P|153:308|158:350,2,85,14|10|10,3:2|0:0|3:2,0:0:0:0:
208,209,91108,1,10,3:2:0:0:
254,281,91434,2,0,P|296:274|337:266,1,85,10|10,0:0|0:0,0:0:0:0:
396,334,92086,2,0,P|438:340|479:348,1,85,10|10,3:2|0:0,0:0:0:0:
497,265,92738,6,0,P|503:222|511:181,1,85,14|10,0:0|0:0,0:0:0:0:
440,135,93391,2,0,P|431:93|426:51,1,85,10|10,3:2|3:2,0:0:0:0:
388,31,93880,2,0,P|327:18|274:52,1,127.5,2|10,3:2|0:0,0:0:0:0:
222,125,94695,2,0,P|213:166|208:208,1,85,10|10,0:0|3:2,0:0:0:0:
254,281,95347,5,14,0:0:0:0:
102,357,95999,2,0,P|96:314|87:273,1,85,10|10,3:2|0:0,0:0:0:0:
52,249,96488,2,0,P|61:207|66:165,1,85,2|2,3:2|0:0,0:0:0:0:
22,92,97141,2,0,P|74:125|135:112,1,127.5,2|10,3:2|0:0,0:0:0:0:
221,125,97956,6,0,P|263:133|305:139,1,85,6|8,0:0|0:0,0:0:0:0:
342,216,98608,1,10,3:2:0:0:
217,254,99097,2,0,P|225:296|231:338,1,85,6|2,3:2|3:2,0:0:0:0:
308,374,99749,2,0,P|357:336|419:343,1,127.5,6|10,3:2|3:2,0:0:0:0:
496,378,100565,5,6,3:2:0:0:
256,192,100728,12,0,104478,0:0:0:0:
