osu file format v14

[General]
AudioFilename: audio.mp3
AudioLeadIn: 0
PreviewTime: 59614
Countdown: 0
SampleSet: Normal
StackLeniency: 0.7
Mode: 1
LetterboxInBreaks: 0
WidescreenStoryboard: 0

[Editor]
Bookmarks: 63656
DistanceSpacing: 1.5
BeatDivisor: 4
GridSize: 16
TimelineZoom: 3

[Metadata]
Title:Haruoto*Veil
TitleUnicode:春音*ベール
Artist:Ceui
ArtistUnicode:Ceui
Creator:_kotachi_
Version:Yuni's Oni
Source:春音アリス*グラム
Tags:Haruoto Alice * Gram opening
BeatmapID:1612082
BeatmapSetID:764971

[Difficulty]
HPDrainRate:5.7
CircleSize:3.8
OverallDifficulty:5.7
ApproachRate:9.3
SliderMultiplier:1.4
SliderTickRate:1

[Events]
//Background and Video events
0,0,"BG.jpg",0,0
//Break Periods
//Storyboard Layer 0 (Background)
//Storyboard Layer 1 (Fail)
//Storyboard Layer 2 (Pass)
//Storyboard Layer 3 (Foreground)
//Storyboard Sound Samples

[TimingPoints]
-10,333.333333333333,4,1,0,100,1,0
1073,-100,4,1,0,70,0,0
13239,-100,4,1,0,100,0,0
24239,-100,4,1,0,70,0,0
33406,-100,4,1,0,80,0,0
33906,-100,4,1,0,90,0,0
34739,-100,4,1,0,100,0,0
59573,-133.333333333333,4,1,0,100,0,0
59989,-100,4,1,0,100,0,1
83989,-100,4,1,0,100,0,0
98573,-100,4,1,0,80,0,0
99906,-100,4,1,0,60,0,0
101239,-100,4,1,0,40,0,0
102573,-100,4,1,0,20,0,0

[HitObjects]
96,16,1156,5,0,0:0:0:0:
96,32,1239,1,0,0:0:0:0:
144,112,1323,5,2,0:0:0:0:
96,144,1489,1,0,0:0:0:0:
176,208,1656,1,2,0:0:0:0:
112,192,1823,1,2,0:0:0:0:
96,144,2323,1,2,0:0:0:0:
96,144,2656,1,0,0:0:0:0:
96,144,2823,1,0,0:0:0:0:
96,144,2989,1,2,0:0:0:0:
96,144,3156,1,2,0:0:0:0:
96,144,3489,1,2,0:0:0:0:
96,144,3656,1,0,0:0:0:0:
96,144,3823,1,0,0:0:0:0:
96,144,3989,1,2,0:0:0:0:
96,144,4156,1,0,0:0:0:0:
96,144,4323,1,2,0:0:0:0:
80,160,4489,1,2,0:0:0:0:
80,176,4989,1,0,0:0:0:0:
80,176,5156,1,2,0:0:0:0:
80,176,5323,1,2,0:0:0:0:
80,176,5489,1,0,0:0:0:0:
80,176,5656,1,0,0:0:0:0:
80,176,5823,1,2,0:0:0:0:
128,144,6156,1,2,0:0:0:0:
128,144,6323,1,0,0:0:0:0:
128,144,6489,1,2,0:0:0:0:
128,144,6656,1,0,0:0:0:0:
128,144,6823,1,0,0:0:0:0:
128,144,6989,1,2,0:0:0:0:
128,144,7156,1,2,0:0:0:0:
144,80,7489,1,0,0:0:0:0:
128,144,7656,1,0,0:0:0:0:
128,144,7823,1,2,0:0:0:0:
144,80,7989,1,2,0:0:0:0:
128,144,8489,1,2,0:0:0:0:
144,144,8989,1,0,0:0:0:0:
144,144,9323,1,0,0:0:0:0:
144,144,9823,1,2,0:0:0:0:
48,64,9989,1,0,0:0:0:0:
144,64,10156,1,0,0:0:0:0:
144,144,10323,1,2,0:0:0:0:
144,144,10489,1,0,0:0:0:0:
160,128,10823,1,0,0:0:0:0:
160,128,10989,1,0,0:0:0:0:
160,128,11156,1,0,0:0:0:0:
160,128,11323,1,2,0:0:0:0:
160,128,11489,1,2,0:0:0:0:
160,128,11656,1,0,0:0:0:0:
160,128,11823,1,0,0:0:0:0:
256,192,11989,12,0,13156,0:0:0:0:
144,176,13323,5,4,0:0:0:0:
208,160,13823,1,0,0:0:0:0:
176,80,14156,1,0,0:0:0:0:
208,160,14323,1,2,0:0:0:0:
192,112,14489,1,2,0:0:0:0:
192,112,14823,1,0,0:0:0:0:
192,112,15323,1,0,0:0:0:0:
192,112,15656,1,0,0:0:0:0:
192,112,15823,1,2,0:0:0:0:
192,112,15989,1,4,0:0:0:0:
192,112,16489,1,0,0:0:0:0:
144,48,16823,1,0,0:0:0:0:
160,96,16989,1,2,0:0:0:0:
160,96,17156,1,2,0:0:0:0:
160,96,17239,1,2,0:0:0:0:
160,96,17323,1,0,0:0:0:0:
160,96,17656,1,0,0:0:0:0:
160,96,17823,1,2,0:0:0:0:
160,96,18156,1,2,0:0:0:0:
160,96,18323,1,0,0:0:0:0:
160,96,18406,1,0,0:0:0:0:
160,96,18489,1,2,0:0:0:0:
176,128,18656,1,4,0:0:0:0:
160,96,18823,1,0,0:0:0:0:
160,96,18989,1,2,0:0:0:0:
160,96,19156,1,2,0:0:0:0:
160,96,19489,1,2,0:0:0:0:
160,96,19656,1,0,0:0:0:0:
160,96,19823,1,2,0:0:0:0:
192,160,19906,1,2,0:0:0:0:
160,96,19989,1,0,0:0:0:0:
160,96,20323,1,2,0:0:0:0:
160,96,20489,1,2,0:0:0:0:
160,96,20656,1,0,0:0:0:0:
160,112,20823,1,0,0:0:0:0:
160,128,20906,1,0,0:0:0:0:
160,96,20989,1,2,0:0:0:0:
160,128,21156,1,2,0:0:0:0:
160,128,21323,1,0,0:0:0:0:
160,128,21489,1,2,0:0:0:0:
160,128,21573,1,2,0:0:0:0:
160,128,21656,1,0,0:0:0:0:
160,128,21823,1,2,0:0:0:0:
160,128,21989,1,0,0:0:0:0:
176,48,22073,1,0,0:0:0:0:
144,80,22156,1,2,0:0:0:0:
144,80,22239,1,2,0:0:0:0:
144,80,22323,1,0,0:0:0:0:
144,80,22489,1,2,0:0:0:0:
112,64,22823,5,2,0:0:0:0:
176,48,22989,1,0,0:0:0:0:
176,48,23156,1,0,0:0:0:0:
176,48,23323,1,2,0:0:0:0:
176,48,23489,1,2,0:0:0:0:
176,48,23573,1,0,0:0:0:0:
176,48,23656,1,2,0:0:0:0:
176,48,23739,1,2,0:0:0:0:
176,48,23823,1,0,0:0:0:0:
224,80,23989,1,4,0:0:0:0:
160,96,24323,1,2,0:0:0:0:
176,64,24656,1,0,0:0:0:0:
176,128,24823,1,2,0:0:0:0:
128,16,24989,1,2,0:0:0:0:
176,64,25156,1,0,0:0:0:0:
128,16,25489,1,0,0:0:0:0:
128,16,25656,1,2,0:0:0:0:
128,64,25823,1,0,0:0:0:0:
176,32,26156,1,0,0:0:0:0:
176,48,26323,1,2,0:0:0:0:
176,64,26489,1,2,0:0:0:0:
176,64,26656,1,0,0:0:0:0:
176,64,26989,1,2,0:0:0:0:
176,64,27323,1,0,0:0:0:0:
160,96,27656,1,0,0:0:0:0:
96,48,27823,1,2,0:0:0:0:
160,96,28156,1,2,0:0:0:0:
160,96,28323,1,0,0:0:0:0:
160,112,28489,1,0,0:0:0:0:
144,80,28823,1,2,0:0:0:0:
144,80,28989,1,0,0:0:0:0:
144,80,29156,1,2,0:0:0:0:
160,64,29323,1,0,0:0:0:0:
128,48,29489,1,0,0:0:0:0:
128,48,29656,1,2,0:0:0:0:
128,48,29823,1,0,0:0:0:0:
160,48,30156,1,0,0:0:0:0:
160,48,30323,1,2,0:0:0:0:
160,80,30489,1,0,0:0:0:0:
160,96,30656,1,2,0:0:0:0:
160,80,30823,1,2,0:0:0:0:
160,96,30989,1,0,0:0:0:0:
160,96,31156,1,0,0:0:0:0:
192,80,31489,1,0,0:0:0:0:
144,80,31656,1,2,0:0:0:0:
144,80,31989,1,0,0:0:0:0:
144,176,32323,1,0,0:0:0:0:
144,192,32489,1,2,0:0:0:0:
160,128,32656,1,0,0:0:0:0:
192,64,32989,1,2,0:0:0:0:
208,64,33156,1,0,0:0:0:0:
160,96,33323,1,0,0:0:0:0:
160,128,33489,1,0,0:0:0:0:
160,128,33573,1,0,0:0:0:0:
160,128,33656,1,2,0:0:0:0:
160,128,33823,1,0,0:0:0:0:
160,128,33989,1,2,0:0:0:0:
160,128,34073,1,0,0:0:0:0:
160,128,34156,1,2,0:0:0:0:
144,96,34239,1,2,0:0:0:0:
160,128,34323,1,0,0:0:0:0:
160,128,34489,1,2,0:0:0:0:
128,96,34573,1,2,0:0:0:0:
144,96,34656,1,0,0:0:0:0:
144,64,34989,1,2,0:0:0:0:
144,64,35156,1,2,0:0:0:0:
144,64,35239,1,2,0:0:0:0:
144,64,35323,1,0,0:0:0:0:
144,64,35489,1,0,0:0:0:0:
144,64,35656,1,2,0:0:0:0:
192,192,35823,1,0,0:0:0:0:
144,64,36156,1,0,0:0:0:0:
144,64,36239,1,0,0:0:0:0:
144,64,36323,1,2,0:0:0:0:
144,64,36489,1,0,0:0:0:0:
144,64,36656,1,0,0:0:0:0:
144,64,36739,1,0,0:0:0:0:
144,64,36823,1,2,0:0:0:0:
144,64,36906,1,2,0:0:0:0:
144,64,36989,1,0,0:0:0:0:
144,64,37073,1,0,0:0:0:0:
144,64,37156,1,2,0:0:0:0:
208,144,37323,1,0,0:0:0:0:
144,64,37656,1,2,0:0:0:0:
144,64,37823,1,0,0:0:0:0:
144,64,37906,1,0,0:0:0:0:
144,64,37989,1,2,0:0:0:0:
144,64,38156,1,0,0:0:0:0:
144,64,38323,1,0,0:0:0:0:
144,80,38489,1,2,0:0:0:0:
144,80,38823,1,0,0:0:0:0:
144,80,38989,1,2,0:0:0:0:
144,80,39156,1,2,0:0:0:0:
144,80,39239,1,2,0:0:0:0:
144,80,39323,1,0,0:0:0:0:
144,80,39406,1,2,0:0:0:0:
144,80,39489,1,0,0:0:0:0:
144,80,39656,1,0,0:0:0:0:
112,64,39823,1,2,0:0:0:0:
208,144,39989,1,0,0:0:0:0:
112,64,40323,1,2,0:0:0:0:
112,64,40489,1,2,0:0:0:0:
112,64,40573,1,2,0:0:0:0:
112,64,40656,1,0,0:0:0:0:
112,64,40823,1,0,0:0:0:0:
112,64,40989,1,2,0:0:0:0:
112,64,41156,1,2,0:0:0:0:
112,64,41489,1,0,0:0:0:0:
112,64,41656,1,2,0:0:0:0:
128,96,41823,1,2,0:0:0:0:
128,96,41906,1,0,0:0:0:0:
128,96,41989,1,0,0:0:0:0:
128,96,42156,1,0,0:0:0:0:
128,96,42239,1,0,0:0:0:0:
128,96,42323,1,2,0:0:0:0:
128,96,42489,1,0,0:0:0:0:
128,96,42656,1,0,0:0:0:0:
128,96,42989,1,2,0:0:0:0:
128,96,43156,1,4,0:0:0:0:
128,96,43656,1,4,0:0:0:0:
128,96,44156,1,0,0:0:0:0:
128,96,44489,1,0,0:0:0:0:
128,96,44573,1,0,0:0:0:0:
128,96,44656,1,2,0:0:0:0:
128,96,44823,1,0,0:0:0:0:
128,96,44989,1,2,0:0:0:0:
128,96,45156,1,0,0:0:0:0:
128,96,45323,1,4,0:0:0:0:
112,112,45656,1,0,0:0:0:0:
112,112,45823,1,0,0:0:0:0:
176,64,45989,1,2,0:0:0:0:
176,64,46156,1,0,0:0:0:0:
176,256,46239,1,0,0:0:0:0:
192,176,46323,1,0,0:0:0:0:
192,176,46489,1,2,0:0:0:0:
176,80,46823,1,0,0:0:0:0:
176,80,47156,1,0,0:0:0:0:
176,80,47239,1,0,0:0:0:0:
176,80,47323,1,2,0:0:0:0:
176,80,47489,1,0,0:0:0:0:
176,80,47656,1,2,0:0:0:0:
176,80,47823,1,2,0:0:0:0:
176,80,47989,1,0,0:0:0:0:
176,80,48323,1,0,0:0:0:0:
176,80,48489,1,0,0:0:0:0:
176,80,48573,1,0,0:0:0:0:
176,80,48656,1,2,0:0:0:0:
176,80,48823,1,0,0:0:0:0:
176,80,48989,1,2,0:0:0:0:
176,80,49073,1,0,0:0:0:0:
176,80,49156,1,2,0:0:0:0:
176,80,49239,1,2,0:0:0:0:
176,80,49323,1,0,0:0:0:0:
176,80,49489,1,0,0:0:0:0:
176,80,49573,1,0,0:0:0:0:
176,80,49656,1,2,0:0:0:0:
176,80,49823,1,0,0:0:0:0:
176,80,49989,1,0,0:0:0:0:
176,80,50323,1,2,0:0:0:0:
176,80,50489,1,0,0:0:0:0:
176,80,50656,1,4,0:0:0:0:
144,80,50989,1,0,0:0:0:0:
144,80,51323,1,0,0:0:0:0:
160,64,51489,1,2,0:0:0:0:
160,64,51656,1,0,0:0:0:0:
160,64,51823,1,0,0:0:0:0:
176,80,51989,1,2,0:0:0:0:
128,64,52323,1,0,0:0:0:0:
176,112,52489,1,2,0:0:0:0:
176,112,52656,1,2,0:0:0:0:
160,64,52823,1,0,0:0:0:0:
176,80,52989,1,2,0:0:0:0:
176,80,53323,1,0,0:0:0:0:
176,112,53489,1,0,0:0:0:0:
176,112,53573,1,0,0:0:0:0:
176,112,53656,1,0,0:0:0:0:
176,112,53823,1,2,0:0:0:0:
176,112,53989,1,0,0:0:0:0:
176,112,54073,1,0,0:0:0:0:
176,112,54156,1,2,0:0:0:0:
176,112,54323,1,0,0:0:0:0:
176,112,54489,1,0,0:0:0:0:
176,112,54573,1,0,0:0:0:0:
176,112,54656,1,2,0:0:0:0:
176,112,54739,1,2,0:0:0:0:
176,112,54823,1,0,0:0:0:0:
176,112,54906,1,0,0:0:0:0:
176,112,54989,1,2,0:0:0:0:
176,112,55156,1,2,0:0:0:0:
176,112,55239,1,2,0:0:0:0:
176,112,55323,1,0,0:0:0:0:
176,112,55489,1,0,0:0:0:0:
176,112,55573,1,0,0:0:0:0:
176,112,55656,1,2,0:0:0:0:
176,112,55739,1,0,0:0:0:0:
176,112,55823,1,2,0:0:0:0:
176,112,55906,1,2,0:0:0:0:
176,112,55989,1,0,0:0:0:0:
176,112,56156,1,0,0:0:0:0:
176,112,56239,1,0,0:0:0:0:
176,112,56323,1,2,0:0:0:0:
176,112,56406,1,0,0:0:0:0:
176,112,56489,1,0,0:0:0:0:
176,112,56573,1,2,0:0:0:0:
176,112,56656,1,2,0:0:0:0:
176,112,56739,1,0,0:0:0:0:
176,112,56823,1,0,0:0:0:0:
176,112,56906,1,0,0:0:0:0:
176,112,56989,1,2,0:0:0:0:
176,112,57073,1,2,0:0:0:0:
176,112,57156,1,0,0:0:0:0:
176,112,57239,1,0,0:0:0:0:
176,112,57323,1,2,0:0:0:0:
160,16,59656,1,0,0:0:0:0:
176,112,59989,1,4,0:0:0:0:
176,96,60156,1,0,0:0:0:0:
176,96,60239,1,0,0:0:0:0:
176,96,60323,1,2,0:0:0:0:
176,32,60406,1,0,0:0:0:0:
176,96,60489,1,0,0:0:0:0:
160,80,60656,1,0,0:0:0:0:
160,80,60739,1,2,0:0:0:0:
176,96,60823,1,0,0:0:0:0:
208,80,60906,1,0,0:0:0:0:
176,96,60989,1,2,0:0:0:0:
160,48,61073,1,0,0:0:0:0:
160,48,61156,1,2,0:0:0:0:
160,64,61239,1,2,0:0:0:0:
160,64,61323,1,0,0:0:0:0:
192,176,61489,1,0,0:0:0:0:
192,176,61573,1,0,0:0:0:0:
192,176,61656,1,2,0:0:0:0:
192,176,61739,1,2,0:0:0:0:
192,176,61823,1,0,0:0:0:0:
192,160,61906,1,2,0:0:0:0:
192,160,61989,1,0,0:0:0:0:
192,176,62156,1,2,0:0:0:0:
192,176,62239,1,0,0:0:0:0:
192,176,62323,1,0,0:0:0:0:
192,176,62406,1,0,0:0:0:0:
192,176,62489,1,2,0:0:0:0:
192,176,62573,1,2,0:0:0:0:
192,176,62656,1,0,0:0:0:0:
176,96,62823,1,0,0:0:0:0:
176,96,62906,1,0,0:0:0:0:
176,96,62989,1,2,0:0:0:0:
176,96,63073,1,0,0:0:0:0:
176,96,63156,1,0,0:0:0:0:
208,80,63323,1,2,0:0:0:0:
128,64,63406,1,2,0:0:0:0:
176,96,63489,1,0,0:0:0:0:
176,96,63573,1,0,0:0:0:0:
176,96,63656,1,2,0:0:0:0:
208,80,63739,1,0,0:0:0:0:
208,80,63823,1,2,0:0:0:0:
144,128,63989,1,2,0:0:0:0:
176,80,64073,1,0,0:0:0:0:
176,80,64156,1,0,0:0:0:0:
176,80,64323,1,2,0:0:0:0:
176,80,64406,1,2,0:0:0:0:
144,128,64489,1,0,0:0:0:0:
144,128,64573,1,2,0:0:0:0:
176,80,64656,1,0,0:0:0:0:
176,80,64739,1,0,0:0:0:0:
176,80,64823,1,2,0:0:0:0:
176,80,64906,1,0,0:0:0:0:
176,80,64989,1,2,0:0:0:0:
176,80,65073,1,2,0:0:0:0:
176,80,65156,1,0,0:0:0:0:
176,80,65239,1,0,0:0:0:0:
176,80,65323,1,2,0:0:0:0:
128,80,65489,1,0,0:0:0:0:
128,80,65573,1,0,0:0:0:0:
128,80,65656,1,2,0:0:0:0:
128,80,65739,1,0,0:0:0:0:
128,80,65823,1,2,0:0:0:0:
128,80,65989,1,0,0:0:0:0:
176,64,66073,1,2,0:0:0:0:
176,64,66156,1,0,0:0:0:0:
176,64,66323,1,2,0:0:0:0:
176,64,66489,1,2,0:0:0:0:
176,64,66573,1,2,0:0:0:0:
160,32,66656,1,0,0:0:0:0:
160,32,66823,1,0,0:0:0:0:
160,32,66906,1,0,0:0:0:0:
144,32,66989,1,2,0:0:0:0:
192,80,67073,1,2,0:0:0:0:
144,32,67156,1,0,0:0:0:0:
192,176,67239,1,2,0:0:0:0:
192,176,67323,1,0,0:0:0:0:
144,48,67489,1,2,0:0:0:0:
176,48,67573,1,0,0:0:0:0:
160,96,67656,1,0,0:0:0:0:
144,64,67823,1,0,0:0:0:0:
160,96,67906,1,0,0:0:0:0:
176,64,67989,1,2,0:0:0:0:
176,64,68073,1,2,0:0:0:0:
160,80,68156,1,0,0:0:0:0:
160,80,68239,1,0,0:0:0:0:
160,80,68323,1,2,0:0:0:0:
160,80,68406,1,0,0:0:0:0:
160,80,68489,1,2,0:0:0:0:
176,64,68573,1,2,0:0:0:0:
160,80,68656,1,0,0:0:0:0:
160,80,68739,1,0,0:0:0:0:
160,80,68823,1,2,0:0:0:0:
160,80,68906,1,0,0:0:0:0:
144,64,68989,1,2,0:0:0:0:
144,64,69073,1,2,0:0:0:0:
160,80,69156,1,0,0:0:0:0:
160,80,69323,1,0,0:0:0:0:
160,80,69489,1,0,0:0:0:0:
160,80,69573,1,0,0:0:0:0:
160,80,69656,1,2,0:0:0:0:
160,80,69739,1,0,0:0:0:0:
160,80,69823,1,2,0:0:0:0:
144,64,69906,1,2,0:0:0:0:
160,80,69989,1,0,0:0:0:0:
144,64,70073,1,0,0:0:0:0:
144,64,70156,1,2,0:0:0:0:
160,80,70239,1,0,0:0:0:0:
160,80,70323,1,2,0:0:0:0:
160,80,70406,1,2,0:0:0:0:
160,80,70489,1,0,0:0:0:0:
144,64,70573,1,2,0:0:0:0:
144,64,70656,1,0,0:0:0:0:
192,160,70823,1,0,0:0:0:0:
192,160,70906,1,0,0:0:0:0:
192,160,70989,1,2,0:0:0:0:
192,160,71073,1,2,0:0:0:0:
192,160,71156,1,0,0:0:0:0:
192,160,71323,1,0,0:0:0:0:
192,64,71406,1,2,0:0:0:0:
160,64,71489,1,0,0:0:0:0:
160,64,71573,1,0,0:0:0:0:
192,160,71656,1,2,0:0:0:0:
256,160,71739,1,0,0:0:0:0:
192,160,71823,1,2,0:0:0:0:
256,160,71906,1,2,0:0:0:0:
192,160,71989,1,0,0:0:0:0:
240,128,72239,1,0,0:0:0:0:
192,160,72323,1,2,0:0:0:0:
144,64,72489,1,0,0:0:0:0:
144,96,72573,1,0,0:0:0:0:
144,64,72656,1,2,0:0:0:0:
144,112,72739,1,2,0:0:0:0:
144,112,72823,1,0,0:0:0:0:
144,112,72989,1,2,0:0:0:0:
144,112,73156,1,2,0:0:0:0:
144,112,73239,1,2,0:0:0:0:
144,112,73323,1,0,0:0:0:0:
144,112,73489,1,0,0:0:0:0:
160,96,73573,1,0,0:0:0:0:
160,96,73656,1,2,0:0:0:0:
208,96,73739,1,0,0:0:0:0:
160,96,73823,1,0,0:0:0:0:
208,96,73906,1,0,0:0:0:0:
208,96,73989,1,2,0:0:0:0:
160,96,74073,1,2,0:0:0:0:
160,96,74156,1,0,0:0:0:0:
160,96,74323,1,0,0:0:0:0:
160,96,74489,1,12,0:0:0:0:
160,96,74823,1,0,0:0:0:0:
160,32,74906,1,0,0:0:0:0:
160,32,74989,1,2,0:0:0:0:
160,96,75073,1,0,0:0:0:0:
160,96,75156,1,2,0:0:0:0:
160,32,75239,1,2,0:0:0:0:
160,32,75323,1,0,0:0:0:0:
208,96,75406,1,2,0:0:0:0:
208,96,75489,1,0,0:0:0:0:
240,112,75573,1,0,0:0:0:0:
240,112,75656,1,2,0:0:0:0:
160,96,75739,1,2,0:0:0:0:
240,112,75823,1,0,0:0:0:0:
240,112,75906,1,0,0:0:0:0:
240,112,75989,1,2,0:0:0:0:
160,96,76156,1,0,0:0:0:0:
160,96,76239,1,0,0:0:0:0:
160,96,76323,1,2,0:0:0:0:
160,96,76489,1,0,0:0:0:0:
160,96,76573,1,0,0:0:0:0:
160,96,76656,1,2,0:0:0:0:
176,16,76823,1,2,0:0:0:0:
176,16,76906,1,2,0:0:0:0:
176,16,76989,1,0,0:0:0:0:
160,96,77073,1,0,0:0:0:0:
160,96,77156,1,2,0:0:0:0:
160,96,77239,1,2,0:0:0:0:
160,96,77323,1,0,0:0:0:0:
144,64,77489,1,0,0:0:0:0:
144,64,77573,1,0,0:0:0:0:
144,64,77656,1,2,0:0:0:0:
144,64,77823,1,0,0:0:0:0:
144,80,77906,1,0,0:0:0:0:
144,80,77989,1,2,0:0:0:0:
144,64,78156,1,2,0:0:0:0:
144,80,78239,1,0,0:0:0:0:
144,64,78323,1,2,0:0:0:0:
144,64,78406,1,2,0:0:0:0:
144,64,78489,1,0,0:0:0:0:
144,80,78573,1,2,0:0:0:0:
144,80,78656,1,0,0:0:0:0:
160,32,78823,1,0,0:0:0:0:
160,32,78906,1,0,0:0:0:0:
160,32,78989,1,2,0:0:0:0:
160,32,79156,1,0,0:0:0:0:
160,32,79239,1,0,0:0:0:0:
160,32,79323,1,2,0:0:0:0:
160,48,79406,1,0,0:0:0:0:
160,48,79489,1,2,0:0:0:0:
160,48,79573,1,2,0:0:0:0:
160,48,79656,1,0,0:0:0:0:
160,64,79823,1,2,0:0:0:0:
160,64,79906,1,2,0:0:0:0:
160,32,79989,1,0,0:0:0:0:
160,32,80073,1,0,0:0:0:0:
160,48,80156,1,2,0:0:0:0:
160,48,80239,1,0,0:0:0:0:
160,48,80323,1,2,0:0:0:0:
160,64,80406,1,2,0:0:0:0:
160,64,80489,1,0,0:0:0:0:
160,64,80573,1,0,0:0:0:0:
160,64,80656,1,2,0:0:0:0:
160,64,80823,1,2,0:0:0:0:
160,64,80906,1,2,0:0:0:0:
160,64,80989,1,0,0:0:0:0:
256,96,81156,1,0,0:0:0:0:
288,288,81323,1,2,0:0:0:0:
240,224,81406,1,0,0:0:0:0:
240,224,81489,1,0,0:0:0:0:
256,96,81656,1,0,0:0:0:0:
240,224,81823,1,2,0:0:0:0:
224,208,82156,1,0,0:0:0:0:
224,208,82239,1,0,0:0:0:0:
224,208,82323,1,2,0:0:0:0:
224,208,82489,1,0,0:0:0:0:
224,208,82656,1,2,0:0:0:0:
192,96,82823,1,2,0:0:0:0:
192,96,82906,1,0,0:0:0:0:
192,96,82989,1,0,0:0:0:0:
192,96,83156,1,0,0:0:0:0:
192,96,83489,1,0,0:0:0:0:
192,96,83573,1,0,0:0:0:0:
192,96,83656,1,2,0:0:0:0:
192,96,83823,1,0,0:0:0:0:
192,96,83989,1,2,0:0:0:0:
192,96,84489,1,0,0:0:0:0:
192,96,84573,1,0,0:0:0:0:
192,96,84656,1,2,0:0:0:0:
192,96,85156,1,0,0:0:0:0:
192,96,85239,1,0,0:0:0:0:
192,96,85323,1,0,0:0:0:0:
192,96,85489,1,0,0:0:0:0:
192,96,85823,1,0,0:0:0:0:
192,96,85989,1,2,0:0:0:0:
208,80,86323,1,2,0:0:0:0:
208,80,86489,1,2,0:0:0:0:
144,176,86656,5,4,0:0:0:0:
208,160,87156,1,0,0:0:0:0:
176,80,87489,1,0,0:0:0:0:
208,160,87656,1,2,0:0:0:0:
192,112,87822,1,2,0:0:0:0:
192,112,88156,1,0,0:0:0:0:
192,80,88489,1,0,0:0:0:0:
192,80,88656,1,2,0:0:0:0:
192,112,88989,1,0,0:0:0:0:
192,112,89156,1,2,0:0:0:0:
192,112,89322,1,4,0:0:0:0:
192,112,89822,1,0,0:0:0:0:
144,48,90156,1,0,0:0:0:0:
160,96,90322,1,2,0:0:0:0:
160,96,90489,1,2,0:0:0:0:
160,96,90572,1,2,0:0:0:0:
160,96,90656,1,0,0:0:0:0:
192,80,90823,1,0,0:0:0:0:
192,80,90989,1,2,0:0:0:0:
160,96,91156,1,2,0:0:0:0:
160,96,91489,1,2,0:0:0:0:
160,96,91656,1,0,0:0:0:0:
160,96,91739,1,0,0:0:0:0:
160,96,91822,1,2,0:0:0:0:
160,96,91906,1,2,0:0:0:0:
160,96,91989,1,0,0:0:0:0:
160,96,92156,1,0,0:0:0:0:
160,96,92322,1,2,0:0:0:0:
160,96,92489,1,2,0:0:0:0:
192,64,92656,1,0,0:0:0:0:
160,96,92822,1,2,0:0:0:0:
160,96,92989,1,0,0:0:0:0:
160,96,93156,1,2,0:0:0:0:
192,160,93239,1,2,0:0:0:0:
160,96,93322,1,0,0:0:0:0:
192,64,93489,1,0,0:0:0:0:
192,80,93573,1,0,0:0:0:0:
160,96,93656,1,2,0:0:0:0:
160,96,93822,1,2,0:0:0:0:
160,96,93989,1,0,0:0:0:0:
192,80,94073,1,0,0:0:0:0:
160,112,94156,1,0,0:0:0:0:
160,128,94239,1,0,0:0:0:0:
160,96,94322,1,2,0:0:0:0:
160,128,94489,1,2,0:0:0:0:
192,80,94573,1,2,0:0:0:0:
160,128,94656,1,0,0:0:0:0:
160,128,94822,1,2,0:0:0:0:
160,128,94906,1,2,0:0:0:0:
160,128,94989,1,0,0:0:0:0:
160,128,95156,1,2,0:0:0:0:
160,128,95322,1,0,0:0:0:0:
176,48,95406,1,0,0:0:0:0:
144,80,95489,1,2,0:0:0:0:
144,80,95572,1,2,0:0:0:0:
144,80,95656,1,0,0:0:0:0:
192,96,95823,1,4,0:0:0:0:
256,192,95906,12,0,102656,0:0:0:0:
