osu file format v14

[General]
AudioFilename: audio.mp3
AudioLeadIn: 0
PreviewTime: 59489
Countdown: 1
SampleSet: Soft
StackLeniency: 0.2
Mode: 0
LetterboxInBreaks: 0
WidescreenStoryboard: 1

[Editor]
Bookmarks: 34656,83989
DistanceSpacing: 1.2
BeatDivisor: 4
GridSize: 16
TimelineZoom: 2.8

[Metadata]
Title:Haruoto*Veil
TitleUnicode:春音*ベール
Artist:Ceui
ArtistUnicode:Ceui
Creator:Lasse
Version:_83's Expert
Source:春音アリス*グラム
Tags:Haruoto Alice * Gram opening short version spring is just around the corner eroge visual novel NanaWind _83 bor
BeatmapID:1404304
BeatmapSetID:660512

[Difficulty]
HPDrainRate:6
CircleSize:4
OverallDifficulty:8
ApproachRate:9
SliderMultiplier:1.8
SliderTickRate:1

[Events]
//Background and Video events
0,0,"bg.jpg",0,0
//Break Periods
//Storyboard Layer 0 (Background)
//Storyboard Layer 1 (Fail)
//Storyboard Layer 2 (Pass)
//Storyboard Layer 3 (Foreground)
//Storyboard Sound Samples

[TimingPoints]
-10,333.333333333333,4,2,11,30,1,0
1156,-100,4,2,11,30,0,0
2323,-100,4,2,11,34,0,0
2656,-100,4,2,11,30,0,0
3489,-100,4,2,11,34,0,0
3656,-100,4,2,11,30,0,0
5323,-100,4,2,11,34,0,0
6156,-100,4,2,11,30,0,0
6656,-100,4,2,11,32,0,0
7323,-100,4,2,11,28,0,0
7656,-100,4,2,11,30,0,0
7823,-100,4,2,11,32,0,0
7989,-100,4,2,11,34,0,0
8156,-100,4,2,11,24,0,0
8489,-100,4,2,11,32,0,0
8989,-100,4,2,11,32,0,0
9323,-100,4,2,11,30,0,0
9489,-100,4,2,11,28,0,0
9823,-100,4,2,11,32,0,0
9989,-100,4,2,11,24,0,0
10489,-100,4,2,11,28,0,0
10823,-100,4,2,11,20,0,0
10989,-100,4,2,11,18,0,0
11156,-100,4,2,11,16,0,0
11323,-100,4,2,11,14,0,0
11489,-100,4,2,11,12,0,0
11656,-100,4,2,11,18,0,0
11823,-100,4,2,11,16,0,0
11989,-100,4,2,11,14,0,0
12323,-100,4,2,1,30,0,0
12656,-100,4,2,1,36,0,0
12989,-100,4,2,1,42,0,0
13156,-100,4,2,1,5,0,0
13323,-83.3333333333333,4,2,1,52,0,0
15156,-83.3333333333333,4,2,1,44,0,0
15323,-83.3333333333333,4,2,1,52,0,0
15989,-83.3333333333333,4,2,1,56,0,0
16323,-83.3333333333333,4,2,1,44,0,0
16489,-83.3333333333333,4,2,1,50,0,0
16823,-83.3333333333333,4,2,1,52,0,0
17156,-83.3333333333333,4,2,1,56,0,0
17323,-83.3333333333333,4,2,1,52,0,0
17823,-83.3333333333333,4,2,1,56,0,0
17989,-83.3333333333333,4,2,1,54,0,0
18323,-83.3333333333333,4,2,1,50,0,0
18489,-83.3333333333333,4,2,1,52,0,0
18656,-83.3333333333333,4,2,1,54,0,0
19989,-83.3333333333333,4,2,1,54,0,0
20989,-83.3333333333333,4,2,1,56,0,0
21323,-83.3333333333333,4,2,1,58,0,0
21823,-83.3333333333333,4,2,1,60,0,0
22323,-83.3333333333333,4,2,22,62,0,0
22489,-83.3333333333333,4,2,1,62,0,0
22656,-100,4,2,1,62,0,0
22823,-100,4,2,1,44,0,0
22989,-100,4,2,1,46,0,0
23156,-100,4,2,1,48,0,0
23323,-100,4,2,1,54,0,0
23489,-100,4,2,1,53,0,0
23573,-100,4,2,1,52,0,0
23656,-100,4,2,1,51,0,0
23739,-100,4,2,1,50,0,0
23823,-100,4,2,1,49,0,0
23906,-100,4,2,1,48,0,0
23989,-133.333333333333,4,2,1,50,0,0
34656,-80,4,2,1,52,0,0
36906,-80,4,2,1,44,0,0
36989,-80,4,2,1,52,0,0
37073,-80,4,2,22,44,0,0
37156,-80,4,2,22,52,0,0
37323,-80,4,2,1,52,0,0
42989,-80,4,2,22,56,0,0
43156,-80,4,2,1,56,0,0
43656,-80,4,2,1,50,0,0
43989,-80,4,2,1,44,0,0
44156,-80,4,2,1,55,0,0
44656,-80,4,2,22,55,0,0
44823,-80,4,2,22,44,0,0
44989,-80,4,2,22,55,0,0
45073,-80,4,2,22,50,0,0
45323,-80,4,2,1,60,0,0
49073,-80,4,2,1,40,0,0
49156,-80,4,2,1,60,0,0
49573,-80,4,2,1,40,0,0
49656,-80,4,2,22,60,0,0
50656,-80,4,2,1,60,0,0
52739,-80,4,2,1,52,0,0
52823,-80,4,2,1,60,0,0
52906,-80,4,2,1,52,0,0
52989,-80,4,2,1,60,0,0
53323,-80,4,2,1,62,0,0
54656,-80,4,2,1,64,0,0
55906,-80,4,2,1,40,0,0
55989,-80,4,2,1,60,0,0
56156,-80,4,2,1,50,0,0
56323,-80,4,2,1,54,0,0
56656,-80,4,2,1,56,0,0
56989,-80,4,2,1,60,0,0
57406,-80,4,2,1,20,0,0
58656,-80,4,2,1,30,0,0
58989,-80,4,2,1,40,0,0
59323,-80,4,2,1,50,0,0
59656,-80,4,2,1,60,0,0
59989,-71.4285714285714,4,2,1,70,0,1
61656,-71.4285714285714,4,2,1,70,0,1
66656,-71.4285714285714,4,2,1,70,0,1
67906,-71.4285714285714,4,2,1,70,0,0
67989,-71.4285714285714,4,2,1,74,0,1
68156,-71.4285714285714,4,2,1,68,0,0
68489,-71.4285714285714,4,2,1,74,0,1
68656,-71.4285714285714,4,2,1,68,0,0
68989,-71.4285714285714,4,2,1,72,0,1
69156,-71.4285714285714,4,2,22,68,0,1
69323,-71.4285714285714,4,2,1,68,0,1
69489,-71.4285714285714,4,2,1,68,0,1
69823,-71.4285714285714,4,2,1,68,0,1
70156,-71.4285714285714,4,2,1,70,0,0
70656,-71.4285714285714,4,2,1,70,0,1
83156,-71.4285714285714,4,2,22,70,0,1
83989,-100,4,2,1,66,0,0
84156,-100,4,2,1,60,0,0
84489,-100,4,2,22,60,0,0
85489,-100,4,2,1,60,0,0
85989,-100,4,2,1,60,0,0
86156,-100,4,2,1,52,0,0
86656,-83.3333333333333,4,2,1,64,0,0
91767,-83.3333333333333,4,2,1,56,0,0
91823,-83.3333333333333,4,2,1,60,0,0
91906,-83.3333333333333,4,2,1,54,0,0
91989,-83.3333333333333,4,2,1,64,0,0
94156,-83.3333333333333,4,2,1,60,0,0
94239,-83.3333333333333,4,2,1,56,0,0
94323,-83.3333333333333,4,2,1,64,0,0
94489,-83.3333333333333,4,2,1,60,0,0
94572,-83.3333333333333,4,2,1,56,0,0
94656,-83.3333333333333,4,2,1,62,0,0
95989,-83.3333333333333,4,2,1,40,0,0
97323,-83.3333333333333,4,2,1,30,0,0
98656,-83.3333333333333,4,2,1,20,0,0
99989,-83.3333333333333,4,2,1,10,0,0
101323,-83.3333333333333,4,2,1,5,0,0

[Colours]
Combo1 : 250,190,230
Combo2 : 130,200,230
Combo3 : 255,230,140
Combo4 : 170,245,170

[HitObjects]
90,99,1156,5,2,0:0:0:0:
84,118,1239,1,2,0:0:0:0:
79,137,1323,2,0,P|80:182|102:239,1,90,2|2,0:3|0:0,0:0:0:0:
202,228,1656,2,0,P|162:206|102:196,1,90,2|2,0:0|0:0,0:0:0:0:
118,197,2323,1,2,0:3:0:0:
323,367,2656,6,0,P|324:322|346:265,1,90,2|2,0:0|0:0,0:0:0:0:
446,276,2989,2,0,P|406:298|346:308,1,90,2|2,0:0|0:0,0:0:0:0:
362,307,3489,1,2,0:3:0:0:
386,220,3656,2,0,L|373:118,1,90,2|2,0:0|0:0,0:0:0:0:
422,34,3989,6,0,P|421:79|399:136,1,90,2|2,0:0|0:0,0:0:0:0:
299,125,4322,2,0,P|339:103|399:93,1,90,2|2,0:0|0:0,0:0:0:0:
382,93,4989,2,0,P|337:88|274:53,1,90,2|2,0:0|0:0,0:0:0:0:
219,0,5323,6,0,P|218:45|196:102,1,90,2|2,0:3|0:0,0:0:0:0:
96,91,5656,2,0,P|57:71|-3:56,1,90,2|2,0:0|0:0,0:0:0:0:
12,58,6156,1,2,0:0:0:0:
51,151,6323,2,0,P|37:189|30:254,1,90,2|2,0:0|0:0,0:0:0:0:
54,322,6656,6,0,P|29:278|-10:248,2,90,2|2|2,0:3|0:0|0:0,0:0:0:0:
123,380,7156,1,2,0:0:0:0:
123,380,7323,2,0,P|84:346|66:287,1,90,2|2,0:0|0:0,0:0:0:0:
180,203,7656,2,0,P|171:253|142:301,1,90,2|2,0:0|0:3,0:0:0:0:
261,373,7989,6,0,L|235:278,2,90,2|2|2,0:3|0:0|0:0,0:0:0:0:
297,220,8489,1,2,0:3:0:0:
297,220,8989,1,2,0:3:0:0:
297,220,9323,6,0,P|365:238|400:251,2,90,2|2|2,0:3|0:0|0:0,0:0:0:0:
304,227,9823,1,2,0:3:0:0:
304,227,9989,2,0,P|262:237|190:270,1,90,2|2,0:0|0:0,0:0:0:0:
206,260,10323,2,0,P|164:250|92:217,1,90,2|2,0:0|0:0,0:0:0:0:
108,234,10823,6,0,P|40:240|15:247,2,90,2|2|2,0:0|0:0|0:0,0:0:0:0:
120,232,11323,2,0,P|149:199|184:138,2,90,2|2|0,0:0|0:3|0:0,0:0:0:0:
108,234,11823,2,0,P|94:277|91:327,1,90,2|0,0:0|0:0,0:0:0:0:
256,192,12073,12,0,13156,1:0:0:0:
358,41,13323,6,0,P|275:20|223:28,1,107.999996704102,14|2,0:0|0:0,0:0:0:0:
142,93,13656,1,2,0:0:0:0:
188,218,13823,2,0,P|195:158|164:97,1,107.999996704102,2|0,0:0|0:0,0:0:0:0:
41,84,14156,1,2,0:0:0:0:
0,219,14323,1,2,0:0:0:0:
119,294,14489,6,0,P|172:331|201:386,1,107.999996704102,2|0,0:0|0:0,0:0:0:0:
0,359,14823,2,0,L|29:223,1,107.999996704102,2|0,0:0|0:0,0:0:0:0:
314,364,15323,1,2,0:0:0:0:
406,335,15489,1,2,0:0:0:0:
450,224,15656,1,10,0:3:0:0:
444,104,15823,1,10,0:3:0:0:
512,8,15989,6,0,P|405:25|260:36,1,215.999993408203,12|0,0:0|0:0,0:0:0:0:
134,0,16489,1,2,0:0:0:0:
40,65,16656,2,0,P|101:174|95:185,1,107.999996704102,2|2,0:0|0:0,0:0:0:0:
10,126,16989,2,0,L|37:-5,1,107.999996704102,2|2,0:0|0:0,0:0:0:0:
200,57,17323,6,0,P|199:116|159:177,1,107.999996704102,2|2,0:0|0:0,0:0:0:0:
83,220,17656,1,2,0:0:0:0:
0,111,17823,1,2,0:0:0:0:
118,118,17989,1,2,0:0:0:0:
188,252,18156,1,2,0:0:0:0:
23,334,18323,1,2,0:0:0:0:
66,270,18489,1,2,0:3:0:0:
97,291,18573,1,2,0:3:0:0:
127,312,18656,6,0,P|175:329|250:338,1,107.999996704102,14|10,0:0|0:3,0:0:0:0:
311,384,18989,2,0,P|356:362|416:315,1,107.999996704102,10|2,0:3|0:3,0:0:0:0:
487,358,19323,2,0,P|503:310|512:235,1,107.999996704102,2|0,0:0|0:0,0:0:0:0:
457,81,19656,2,0,P|422:135|419:212,1,107.999996704102,10|10,0:3|0:3,0:0:0:0:
445,199,19906,1,10,0:3:0:0:
477,180,19989,6,0,P|408:159|347:168,1,107.999996704102,10|8,0:0|0:3,0:0:0:0:
268,97,20323,2,0,P|204:130|167:180,1,107.999996704102,10|10,0:3|0:3,0:0:0:0:
61,186,20656,2,0,P|39:255|48:316,1,107.999996704102,10|10,0:3|0:0,0:0:0:0:
72,341,20906,1,8,0:0:0:0:
124,367,20989,1,10,0:3:0:0:
241,345,21156,1,10,0:0:0:0:
358,326,21323,5,10,0:3:0:0:
245,363,21489,1,10,0:2:0:0:
105,347,21656,1,10,0:2:0:0:
48,194,21823,1,10,0:3:0:0:
177,64,21989,1,10,0:2:0:0:
178,183,22156,1,10,0:2:0:0:
105,118,22323,1,10,0:3:0:0:
149,57,22489,1,14,0:0:0:0:
149,57,22656,6,0,P|194:60|244:80,3,90,0|10|10|2,0:0|0:3|0:3|0:3,0:0:0:0:
344,127,23323,5,10,0:3:0:0:
388,129,23406,1,2,0:0:0:0:
431,119,23489,1,10,0:3:0:0:
464,88,23573,1,2,0:0:0:0:
447,32,23656,5,10,0:3:0:0:
442,90,23739,1,2,0:0:0:0:
437,148,23823,1,2,0:0:0:0:
432,206,23906,1,2,0:0:0:0:
426,265,23989,6,0,B|433:307|465:337|465:337|502:319|503:287,1,135.000005149842,14|10,0:3|0:3,0:0:0:0:
282,375,24656,2,0,P|245:378|201:390,2,67.5000025749208,10|2|10,0:3|0:0|0:3,0:0:0:0:
355,311,25156,2,0,P|285:300|222:258,1,135.000005149842,2|2,0:0|0:0,0:0:0:0:
234,172,25656,2,0,P|236:210|226:248,1,67.5000025749208,10|2,0:3|0:0,0:0:0:0:
43,335,26156,1,2,0:0:0:0:
127,366,26323,2,0,L|119:289,1,67.5000025749208,10|2,0:3|0:0,0:0:0:0:
120,298,26656,5,8,0:3:0:0:
65,116,26989,2,0,P|38:179|29:257,2,135.000005149842,10|10|10,0:3|0:3|0:3,0:0:0:0:
146,91,27823,2,0,P|158:48|73:7,1,135.000005149842,2|2,0:0|0:0,0:0:0:0:
0,60,28323,2,0,P|35:71|66:114,1,67.5000025749208,10|2,0:3|0:0,0:0:0:0:
445,0,28989,1,10,0:3:0:0:
229,51,29323,5,10,0:3:0:0:
317,0,29489,2,0,P|310:60|341:137,2,135.000005149842,2|2|2,0:0|0:0|0:0,0:0:0:0:
362,140,30489,1,2,0:0:0:0:
421,202,30656,2,0,P|454:205|500:217,1,67.5000025749208,10|2,0:3|0:0,0:0:0:0:
512,276,30989,2,0,P|494:261|470:217,1,67.5000025749208,10|2,0:3|0:0,0:0:0:0:
166,338,31656,2,0,P|199:349|249:351,1,67.5000025749208,10|0,0:3|0:0,0:0:0:0:
174,265,31989,6,0,P|93:284|30:315,1,135.000005149842,10|8,0:3|0:3,0:0:0:0:
93,375,32489,1,2,0:0:0:0:
166,338,32656,2,0,P|190:258|194:188,1,135.000005149842,10|8,0:3|0:3,0:0:0:0:
138,129,33156,1,2,0:3:0:0:
61,184,33323,6,0,P|72:218|97:251,1,67.5000025749208,10|2,0:3|0:3,0:0:0:0:
228,205,33656,2,0,L|321:209,1,67.5000025749208,10|10,0:3|0:2,0:0:0:0:
497,337,34156,1,8,0:0:0:0:
467,321,34239,1,8,0:0:0:0:
450,291,34323,1,8,0:0:0:0:
455,257,34406,1,8,0:3:0:0:
474,229,34489,1,8,0:3:0:0:
481,195,34573,1,8,0:3:0:0:
467,159,34656,6,0,P|372:89|241:104,2,225,14|10|10,0:3|0:0|0:3,0:0:0:0:
390,245,35489,2,0,P|379:294|394:367,1,112.5,10|10,0:0|0:3,0:0:0:0:
501,338,35823,6,0,P|434:293|290:295,1,225,14|10,0:3|0:3,0:0:0:0:
177,353,36323,1,10,0:0:0:0:
128,235,36489,2,0,P|148:169|204:114,1,112.5,2|8,0:0|0:3,0:0:0:0:
297,56,36823,1,10,0:3:0:0:
287,6,36906,1,8,0:0:0:0:
237,0,36989,1,10,0:0:0:0:
215,46,37073,1,8,0:3:0:0:
252,80,37156,1,14,0:3:0:0:
374,149,37323,6,0,P|465:111|510:-17,2,225,12|10|10,0:3|0:0|0:3,0:0:0:0:
272,69,38156,1,10,0:3:0:0:
144,86,38323,1,8,0:0:0:0:
48,2,38489,6,0,P|97:67|73:221,1,225,6|2,0:3|0:0,0:0:0:0:
143,318,38989,2,0,P|112:261|124:187,1,112.5,10|0,0:0|0:0,0:0:0:0:
362,345,39489,2,0,P|346:280|356:216,1,112.5,10|10,0:3|0:0,0:0:0:0:
466,286,39823,6,0,P|377:290|310:157,1,225,10|2,0:3|0:3,0:0:0:0:
359,63,40323,1,10,0:0:0:0:
463,144,40489,2,0,P|483:195|486:260,1,112.5,2|8,0:0|0:3,0:0:0:0:
486,252,40823,2,0,P|466:199|463:144,1,112.5,10|10,0:3|0:0,0:0:0:0:
492,17,41156,6,0,P|369:40|275:121,1,225,14|8,0:3|0:3,0:0:0:0:
238,231,41656,1,10,0:0:0:0:
351,319,41823,2,0,P|358:255|346:178,1,112.5,2|8,0:0|0:3,0:0:0:0:
466,365,42156,1,0,0:0:0:0:
481,311,42239,1,8,0:0:0:0:
477,254,42323,1,8,0:3:0:0:
371,177,42489,1,2,0:0:0:0:
238,231,42656,6,0,P|257:316|334:350,1,168.75,14|0,0:3|0:0,0:0:0:0:
377,329,42989,2,0,L|419:205,1,112.5,10|12,0:3|0:3,0:0:0:0:
413,222,43656,1,12,0:3:0:0:
413,222,44156,5,8,0:3:0:0:
369,147,44323,2,0,P|317:186|251:202,1,112.5,10|8,0:3|0:3,0:0:0:0:
136,138,44656,1,10,0:3:0:0:
115,85,44739,1,8,0:3:0:0:
121,28,44823,1,6,0:3:0:0:
278,9,44989,2,0,P|244:59|181:86,1,112.5,10|10,0:3|0:3,0:0:0:0:
10,95,45323,6,0,L|259:136,1,225,14|10,0:3|0:3,0:0:0:0:
350,88,45823,2,0,L|489:64,1,112.5,2|8,0:0|0:0,0:0:0:0:
460,68,46156,1,10,0:3:0:0:
430,153,46489,1,10,0:3:0:0:
460,238,46823,1,2,0:0:0:0:
430,323,47156,1,10,0:3:0:0:
483,248,47323,2,0,P|390:252|355:277,1,112.5,8|8,0:0|0:3,0:0:0:0:
364,269,47656,2,0,P|320:351|325:394,1,112.5,0|2,0:0|0:3,0:0:0:0:
336,373,47989,6,0,L|88:357,1,225,10|10,0:3|0:3,0:0:0:0:
55,119,48656,2,0,P|112:144|154:191,2,112.5,10|8|2,0:0|0:3|0:0,0:0:0:0:
0,52,49156,2,0,P|118:82|238:78,1,225,10|10,0:3|0:0,0:0:0:0:
368,11,49656,1,8,0:3:0:0:
314,28,49739,1,8,0:3:0:0:
292,80,49823,1,8,0:3:0:0:
428,131,49989,2,0,P|429:75|401:18,1,112.5,14|0,0:3|0:0,0:0:0:0:
335,189,50323,2,0,L|313:335,1,112.5,10|10,0:3|0:3,0:0:0:0:
468,379,50656,6,0,P|421:245|342:210,1,225,14|10,0:3|0:3,0:0:0:0:
213,275,51156,2,0,L|83:291,1,112.5,2|8,0:0|0:3,0:0:0:0:
101,288,51489,1,2,0:0:0:0:
189,247,51656,2,0,P|209:180|202:97,1,112.5,10|2,0:3|0:0,0:0:0:0:
135,24,51989,5,8,0:0:0:0:
135,24,52489,1,2,0:0:0:0:
193,93,52656,2,0,P|295:120|326:109,1,112.5,10|2,0:3|0:0,0:0:0:0:
216,23,52989,2,0,P|203:107|148:217,1,168.75,10|0,0:3|0:0,0:0:0:0:
137,210,53323,6,0,P|72:186|37:141,1,112.5,14|8,0:0|0:3,0:0:0:0:
64,43,53656,1,8,0:2:0:0:
173,18,53823,1,8,0:3:0:0:
237,109,53989,1,8,0:2:0:0:
173,201,54156,1,8,0:3:0:0:
129,96,54323,1,8,0:2:0:0:
201,10,54489,1,10,0:3:0:0:
309,39,54656,5,14,0:0:0:0:
361,187,54823,1,8,0:3:0:0:
239,286,54989,1,8,0:2:0:0:
112,191,55156,1,8,0:3:0:0:
260,138,55323,1,8,0:2:0:0:
333,276,55489,1,8,0:3:0:0:
205,368,55656,1,8,0:2:0:0:
73,280,55823,1,8,0:3:0:0:
103,126,55989,6,0,P|135:166|153:246,1,112.5,10|8,0:0|0:0,0:0:0:0:
131,288,56239,1,8,0:0:0:0:
64,300,56323,2,0,P|155:292|206:318,1,112.5,10|8,0:2|0:0,0:0:0:0:
234,327,56573,1,8,0:0:0:0:
294,355,56656,6,0,P|358:352|414:329,1,112.5,10|8,0:0|0:0,0:0:0:0:
464,285,56906,1,8,0:0:0:0:
483,209,56989,2,0,P|480:181|469:144,1,56.25,10|8,0:0|0:0,0:0:0:0:
441,81,57156,2,0,P|415:57|380:40,1,56.25,8|8,0:0|0:0,0:0:0:0:
320,24,57323,5,6,0:0:0:0:
320,24,59656,5,8,1:1:0:0:
83,66,59989,6,0,P|146:88|165:209,1,188.999994232178,14|0,0:3|1:0,0:0:0:0:
142,248,60323,2,0,P|140:312|179:380,1,125.999996154785,8|0,0:0|0:0,0:0:0:0:
369,307,60656,1,10,0:3:0:0:
347,254,60739,1,2,0:3:0:0:
291,258,60823,1,10,0:3:0:0:
277,313,60906,1,2,0:3:0:0:
325,343,60989,2,0,P|414:336|497:366,1,125.999996154785,10|0,0:0|0:0,0:0:0:0:
470,170,61323,6,0,P|442:266|355:308,1,188.999994232178,14|0,0:3|0:0,0:0:0:0:
318,278,61656,2,0,P|290:231|315:142,1,125.999996154785,10|10,0:0|0:3,0:0:0:0:
348,133,61906,1,8,0:0:0:0:
348,133,61989,1,0,0:0:0:0:
512,28,62156,2,0,P|481:64|379:81,1,125.999996154785,10|8,0:3|0:0,0:0:0:0:
177,57,62489,1,2,0:0:0:0:
122,37,62573,1,2,0:0:0:0:
78,0,62656,5,8,0:3:0:0:
47,321,62989,2,0,P|111:254|232:223,1,188.999994232178,10|0,0:0|0:0,0:0:0:0:
257,230,63323,2,0,P|316:274|347:345,1,125.999996154785,10|8,0:3|0:3,0:0:0:0:
339,375,63573,1,8,0:3:0:0:
339,375,63656,1,12,0:0:0:0:
156,316,63823,6,0,P|211:233|218:40,1,251.999992309571,10|8,0:3|0:3,0:0:0:0:
43,14,64323,2,0,P|77:46|168:79,1,125.999996154785,8|8,0:0|0:3,0:0:0:0:
205,67,64573,1,8,0:0:0:0:
205,67,64656,1,2,0:0:0:0:
343,11,64823,1,10,0:3:0:0:
470,87,64989,2,0,P|471:189|440:249,1,125.999996154785,8|10,0:2|0:2,0:0:0:0:
268,339,65323,6,0,P|328:258|412:260,1,188.999994232178,14|0,0:3|1:0,0:0:0:0:
439,306,65656,2,0,P|400:358|336:384,1,125.999996154785,10|2,0:0|0:0,0:0:0:0:
184,313,65989,2,0,P|112:318|52:364,1,125.999996154785,8|8,0:3|0:3,0:0:0:0:
206,382,66323,2,0,P|222:309|135:205,1,188.999994232178,10|8,0:0|0:3,0:0:0:0:
111,192,66656,6,0,P|66:127|52:53,1,125.999996154785,2|8,0:0|0:3,0:0:0:0:
263,34,66989,2,0,P|188:82|130:81,1,125.999996154785,10|8,0:0|0:3,0:0:0:0:
100,62,67239,1,8,0:0:0:0:
100,62,67323,1,2,0:3:0:0:
6,185,67489,1,8,0:3:0:0:
75,324,67656,2,0,P|177:351|226:337,1,125.999996154785,10|8,0:0|0:3,0:0:0:0:
248,327,67906,1,8,0:0:0:0:
296,297,67989,6,0,P|359:296|449:328,1,125.999996154785,14|0,0:0|0:0,0:0:0:0:
508,142,68323,1,8,0:3:0:0:
322,209,68489,2,0,P|255:166|219:80,1,125.999996154785,14|0,0:2|0:0,0:0:0:0:
75,4,68823,1,8,0:3:0:0:
118,193,68989,2,0,P|189:122|211:78,1,125.999996154785,14|8,0:0|0:3,0:0:0:0:
22,17,69323,5,8,0:3:0:0:
29,207,69489,1,8,0:3:0:0:
69,262,69573,1,8,0:3:0:0:
129,290,69656,1,8,0:0:0:0:
170,160,69823,1,8,0:0:0:0:
116,196,69906,1,8,0:0:0:0:
79,253,69989,5,10,0:0:0:0:
193,363,70156,1,10,0:2:0:0:
306,256,70323,1,10,0:2:0:0:
295,189,70406,1,8,0:2:0:0:
252,135,70489,1,10,0:2:0:0:
190,105,70573,1,8,0:2:0:0:
122,99,70656,6,0,P|214:94|292:33,1,188.999994232178,14|0,0:3|1:0,0:0:0:0:
334,3,70989,2,0,P|393:14|467:67,1,125.999996154785,8|0,0:0|0:0,0:0:0:0:
420,202,71323,1,10,0:3:0:0:
442,255,71406,1,2,0:0:0:0:
498,251,71490,1,2,0:0:0:0:
512,196,71573,1,2,0:0:0:0:
464,166,71656,2,0,P|385:191|330:193,1,125.999996154785,10|0,0:0|0:0,0:0:0:0:
180,278,71989,6,0,P|254:205|245:99,1,188.999994232178,14|0,0:3|0:0,0:0:0:0:
229,73,72323,2,0,P|159:38|72:62,1,125.999996154785,10|2,0:0|0:0,0:0:0:0:
58,58,72573,1,8,0:3:0:0:
58,58,72656,1,8,0:3:0:0:
0,199,72823,2,0,P|35:252|99:291,1,125.999996154785,2|8,0:0|0:0,0:0:0:0:
312,306,73156,1,2,0:0:0:0:
361,333,73239,1,2,0:0:0:0:
391,381,73323,5,8,0:3:0:0:
260,93,73656,2,0,P|332:23|455:38,1,188.999994232178,10|0,0:0|0:0,0:0:0:0:
468,41,73989,2,0,P|507:142|497:182,1,125.999996154785,10|8,0:3|0:3,0:0:0:0:
477,205,74239,1,0,0:0:0:0:
477,205,74323,1,14,0:0:0:0:
250,67,74489,6,0,P|121:74|2:182,1,251.999992309571,6|8,0:0|0:3,0:0:0:0:
13,200,74906,1,0,0:0:0:0:
13,200,74989,1,8,0:0:0:0:
240,141,75156,1,12,0:0:0:0:
13,200,75323,2,0,P|35:260|90:307,1,125.999996154785,2|8,0:0|0:3,0:0:0:0:
136,310,75573,1,0,0:0:0:0:
191,300,75656,1,10,0:0:0:0:
243,278,75739,1,8,0:0:0:0:
300,279,75823,1,10,0:0:0:0:
344,314,75906,1,8,0:0:0:0:
326,367,75989,6,0,P|332:308|372:228,2,125.999996154785,14|8|8,0:3|0:3|0:0,0:0:0:0:
328,172,76489,1,10,0:3:0:0:
506,114,76656,2,0,P|439:178|395:187,1,125.999996154785,8|10,0:0|0:3,0:0:0:0:
327,0,76989,1,10,0:0:0:0:
398,74,77156,1,10,0:3:0:0:
303,158,77323,5,10,0:0:0:0:
192,98,77489,1,10,0:3:0:0:
69,129,77656,1,10,0:0:0:0:
22,246,77823,2,0,P|62:311|135:338,1,125.999996154785,10|8,0:3|0:0,0:0:0:0:
268,286,78156,1,10,0:3:0:0:
327,305,78239,1,8,0:3:0:0:
371,350,78323,1,10,0:0:0:0:
246,363,78489,1,10,0:3:0:0:
196,206,78656,5,8,0:0:0:0:
250,51,78823,1,10,0:3:0:0:
411,27,78989,1,10,0:0:0:0:
488,171,79156,1,10,0:3:0:0:
391,303,79323,1,10,0:0:0:0:
228,286,79489,2,0,P|159:322|139:374,1,125.999996154785,10|8,0:3|0:0,0:0:0:0:
380,384,79823,1,10,0:3:0:0:
406,327,79906,1,8,0:3:0:0:
403,264,79989,5,10,0:0:0:0:
342,111,80156,1,10,0:3:0:0:
178,101,80323,1,10,0:0:0:0:
95,241,80489,2,0,P|137:318|185:355,1,125.999996154785,10|8,0:3|0:0,0:0:0:0:
388,243,80823,1,10,0:3:0:0:
331,251,80906,1,8,0:3:0:0:
281,278,80989,1,8,0:0:0:0:
144,368,81156,1,10,0:3:0:0:
0,288,81323,6,0,P|22:165|129:77,1,251.999992309571,12|8,0:0|0:3,0:0:0:0:
274,51,81823,1,8,0:3:0:0:
274,51,81989,1,2,0:0:0:0:
362,188,82156,1,10,0:3:0:0:
445,46,82323,2,0,P|434:144|450:193,2,125.999996154785,2|10|8,0:0|0:3|0:0,0:0:0:0:
362,188,82823,1,10,0:0:0:0:
275,326,82989,2,0,P|286:228|270:179,2,125.999996154785,2|10|0,0:0|0:3|0:0,0:0:0:0:
362,188,83489,1,10,0:3:0:0:
445,46,83656,2,0,P|434:144|450:193,1,125.999996154785,14|10,0:3|0:3,0:0:0:0:
512,306,83989,5,6,0:0:0:0:
512,306,84489,1,8,0:3:0:0:
453,315,84573,1,8,0:3:0:0:
395,324,84656,1,12,0:3:0:0:
86,271,84989,2,0,P|124:326|132:358,1,90,2|2,0:0|0:0,0:0:0:0:
21,209,85239,1,2,0:0:0:0:
21,209,85323,6,0,P|101:257|212:270,1,180,10|2,0:3|0:0,0:0:0:0:
303,165,85823,2,0,P|240:150|168:228,1,180,2|0,0:0|0:3,0:0:0:0:
369,109,86323,2,0,P|355:64|357:7,1,90,10|10,0:3|0:3,0:0:0:0:
499,133,86656,6,0,P|446:105|384:98,1,107.999996704102,14|2,0:0|0:0,0:0:0:0:
266,146,86989,1,10,0:3:0:0:
160,239,87156,2,0,P|107:267|45:274,1,107.999996704102,2|8,0:0|0:3,0:0:0:0:
14,118,87489,1,2,0:0:0:0:
130,5,87656,1,10,0:3:0:0:
278,69,87823,6,0,P|308:118|314:194,1,107.999996704102,2|8,0:0|0:3,0:0:0:0:
201,280,88156,2,0,P|214:223|263:166,1,107.999996704102,2|8,0:0|0:3,0:0:0:0:
387,110,88489,1,2,0:0:0:0:
333,263,88656,2,0,P|252:186|123:186,1,215.999993408203,10|10,0:3|0:3,0:0:0:0:
15,263,89156,1,10,0:3:0:0:
139,367,89323,6,0,P|195:280|158:148,1,215.999993408203,14|10,0:0|0:3,0:0:0:0:
76,91,89823,1,2,0:0:0:0:
168,0,89989,2,0,P|187:60|218:96,1,107.999996704102,10|2,0:3|0:0,0:0:0:0:
408,10,90323,2,0,P|347:6|285:38,1,107.999996704102,10|2,0:3|0:0,0:0:0:0:
183,96,90656,6,0,P|197:188|336:202,1,215.999993408203,10|10,0:3|0:3,0:0:0:0:
438,129,91156,2,0,P|351:139|307:174,1,107.999996704102,2|10,0:0|0:3,0:0:0:0:
366,360,91489,2,0,P|387:278|374:232,1,107.999996704102,2|10,0:0|0:3,0:0:0:0:
361,206,91739,1,8,0:0:0:0:
328,162,91823,1,10,0:0:0:0:
275,150,91906,1,8,0:0:0:0:
223,164,91989,6,0,P|150:148|102:116,1,107.999996704102,14|10,0:2|0:3,0:0:0:0:
99,9,92323,2,0,P|135:107|132:131,1,107.999996704102,10|2,0:3|0:0,0:0:0:0:
72,222,92656,1,8,0:3:0:0:
123,341,92823,1,2,0:0:0:0:
250,358,92989,1,10,0:3:0:0:
377,335,93156,1,10,0:3:0:0:
371,281,93239,1,8,0:3:0:0:
334,240,93323,6,0,P|308:191|309:128,2,107.999996704102,8|2|10,0:0|0:0|0:3,0:0:0:0:
437,271,93823,2,0,P|492:226|512:182,1,107.999996704102,10|8,0:3|0:3,0:0:0:0:
485,46,94156,1,10,0:0:0:0:
431,39,94239,1,8,0:0:0:0:
380,60,94323,1,10,0:2:0:0:
241,98,94489,1,10,0:0:0:0:
187,89,94573,1,8,0:0:0:0:
138,64,94656,6,0,P|71:44|13:54,1,107.999996704102,14|10,0:3|0:0,0:0:0:0:
3,183,94989,2,0,P|36:137|52:69,1,107.999996704102,10|10,0:0|0:0,0:0:0:0:
194,0,95323,2,0,P|167:51|170:138,1,107.999996704102,10|10,0:0|0:0,0:0:0:0:
256,192,95656,2,0,P|312:205|395:181,1,107.999996704102,10|8,0:0|0:2,0:0:0:0:
368,190,95878,1,2,0:0:0:0:
375,182,95934,1,2,0:0:0:0:
382,174,95989,5,6,0:0:0:0:
256,192,96073,12,0,98656,1:0:0:0:
