osu file format v14

[General]
AudioFilename: audio.mp3
AudioLeadIn: 0
PreviewTime: 59489
Countdown: 1
SampleSet: Soft
StackLeniency: 0.7
Mode: 0
LetterboxInBreaks: 0
WidescreenStoryboard: 1

[Editor]
DistanceSpacing: 1
BeatDivisor: 4
GridSize: 16
TimelineZoom: 1.300001

[Metadata]
Title:Haruoto*Veil
TitleUnicode:春音*ベール
Artist:Ceui
ArtistUnicode:Ceui
Creator:Lasse
Version:Hard
Source:春音アリス*グラム
Tags:Haruoto Alice * Gram opening short version spring is just around the corner eroge visual novel NanaWind _83 bor
BeatmapID:1399913
BeatmapSetID:660512

[Difficulty]
HPDrainRate:5
CircleSize:3.8
OverallDifficulty:6.5
ApproachRate:7.5
SliderMultiplier:1.38
SliderTickRate:1

[Events]
//Background and Video events
0,0,"bg.jpg",0,0
//Break Periods
//Storyboard Layer 0 (Background)
//Storyboard Layer 1 (Fail)
//Storyboard Layer 2 (Pass)
//Storyboard Layer 3 (Foreground)
//Storyboard Sound Samples

[TimingPoints]
-10,333.333333333333,4,2,11,30,1,0
1156,-142.857142857143,4,2,11,30,0,0
2323,-142.857142857143,4,2,11,34,0,0
2656,-142.857142857143,4,2,11,30,0,0
3489,-142.857142857143,4,2,11,34,0,0
3656,-142.857142857143,4,2,11,30,0,0
5323,-142.857142857143,4,2,11,34,0,0
6156,-142.857142857143,4,2,11,30,0,0
6656,-142.857142857143,4,2,11,32,0,0
7323,-142.857142857143,4,2,11,28,0,0
7656,-142.857142857143,4,2,11,30,0,0
7823,-142.857142857143,4,2,11,32,0,0
7989,-142.857142857143,4,2,11,34,0,0
8156,-142.857142857143,4,2,11,24,0,0
8489,-142.857142857143,4,2,11,32,0,0
8989,-142.857142857143,4,2,11,32,0,0
9323,-142.857142857143,4,2,11,30,0,0
9489,-142.857142857143,4,2,11,28,0,0
9823,-142.857142857143,4,2,11,32,0,0
9989,-142.857142857143,4,2,11,24,0,0
10489,-142.857142857143,4,2,11,28,0,0
10823,-142.857142857143,4,2,11,20,0,0
10989,-142.857142857143,4,2,11,18,0,0
11156,-142.857142857143,4,2,11,16,0,0
11323,-142.857142857143,4,2,11,14,0,0
11489,-142.857142857143,4,2,11,12,0,0
11656,-142.857142857143,4,2,1,18,0,0
11989,-142.857142857143,4,2,1,24,0,0
12323,-142.857142857143,4,2,1,30,0,0
12656,-142.857142857143,4,2,1,36,0,0
12989,-142.857142857143,4,2,1,42,0,0
13156,-142.857142857143,4,2,1,5,0,0
13323,-100,4,2,1,52,0,0
15156,-100,4,2,1,44,0,0
15323,-100,4,2,1,52,0,0
15989,-100,4,2,1,56,0,0
16323,-100,4,2,1,44,0,0
16489,-100,4,2,1,50,0,0
16823,-100,4,2,1,52,0,0
17156,-100,4,2,1,56,0,0
17323,-100,4,2,1,52,0,0
17823,-100,4,2,1,56,0,0
17989,-100,4,2,1,54,0,0
18323,-100,4,2,1,50,0,0
18489,-100,4,2,1,52,0,0
18656,-125,4,2,1,54,0,0
19989,-142.857142857143,4,2,1,54,0,0
20989,-142.857142857143,4,2,1,56,0,0
21323,-142.857142857143,4,2,1,58,0,0
21823,-142.857142857143,4,2,1,60,0,0
22323,-142.857142857143,4,2,22,62,0,0
22489,-142.857142857143,4,2,1,62,0,0
22823,-142.857142857143,4,2,1,44,0,0
22989,-142.857142857143,4,2,1,46,0,0
23156,-142.857142857143,4,2,1,48,0,0
23323,-142.857142857143,4,2,1,54,0,0
23489,-142.857142857143,4,2,1,53,0,0
23573,-142.857142857143,4,2,1,52,0,0
23656,-142.857142857143,4,2,1,51,0,0
23739,-142.857142857143,4,2,1,50,0,0
23823,-142.857142857143,4,2,1,49,0,0
23906,-142.857142857143,4,2,1,48,0,0
23989,-166.666666666667,4,2,1,50,0,0
33989,-166.666666666667,4,2,1,36,0,0
34156,-166.666666666667,4,2,1,50,0,0
34656,-133.333333333333,4,2,1,52,0,0
36906,-133.333333333333,4,2,1,44,0,0
36989,-133.333333333333,4,2,1,52,0,0
37073,-133.333333333333,4,2,22,44,0,0
37156,-133.333333333333,4,2,22,52,0,0
37323,-133.333333333333,4,2,1,52,0,0
42989,-133.333333333333,4,2,22,56,0,0
43156,-133.333333333333,4,2,1,56,0,0
43656,-133.333333333333,4,2,1,50,0,0
43989,-133.333333333333,4,2,1,44,0,0
44156,-133.333333333333,4,2,1,55,0,0
44656,-133.333333333333,4,2,22,55,0,0
44823,-133.333333333333,4,2,22,44,0,0
44989,-133.333333333333,4,2,22,55,0,0
45073,-133.333333333333,4,2,22,50,0,0
45323,-111.111111111111,4,2,1,60,0,0
49073,-111.111111111111,4,2,1,40,0,0
49156,-111.111111111111,4,2,1,60,0,0
49573,-111.111111111111,4,2,1,40,0,0
49656,-111.111111111111,4,2,22,60,0,0
50656,-111.111111111111,4,2,1,60,0,0
52739,-111.111111111111,4,2,1,52,0,0
52823,-111.111111111111,4,2,1,60,0,0
52906,-111.111111111111,4,2,1,52,0,0
52989,-111.111111111111,4,2,1,60,0,0
53323,-111.111111111111,4,2,1,62,0,0
54656,-111.111111111111,4,2,1,64,0,0
55906,-111.111111111111,4,2,1,40,0,0
55989,-111.111111111111,4,2,1,60,0,0
56156,-111.111111111111,4,2,1,50,0,0
56323,-111.111111111111,4,2,1,54,0,0
56656,-111.111111111111,4,2,1,56,0,0
56989,-111.111111111111,4,2,1,60,0,0
57406,-111.111111111111,4,2,1,20,0,0
58656,-111.111111111111,4,2,1,30,0,0
58989,-111.111111111111,4,2,1,40,0,0
59323,-111.111111111111,4,2,1,50,0,0
59656,-111.111111111111,4,2,1,60,0,0
59989,-90.9090909090909,4,2,1,70,0,1
60239,-90.9090909090909,4,2,1,5,0,1
60323,-90.9090909090909,4,2,1,70,0,1
65573,-90.9090909090909,4,2,1,5,0,1
65656,-90.9090909090909,4,2,1,70,0,1
66656,-90.9090909090909,4,2,1,70,0,1
67906,-90.9090909090909,4,2,1,70,0,0
67989,-76.9230769230769,4,2,1,74,0,1
68156,-76.9230769230769,4,2,1,68,0,0
68489,-76.9230769230769,4,2,1,74,0,1
68656,-76.9230769230769,4,2,1,68,0,0
68989,-76.9230769230769,4,2,1,72,0,1
69156,-76.9230769230769,4,2,22,68,0,1
69323,-76.9230769230769,4,2,1,68,0,1
69489,-90.9090909090909,4,2,1,68,0,1
69823,-90.9090909090909,4,2,1,68,0,1
70156,-90.9090909090909,4,2,1,70,0,0
70656,-90.9090909090909,4,2,1,70,0,1
70906,-90.9090909090909,4,2,1,5,0,1
70989,-90.9090909090909,4,2,1,70,0,1
83156,-90.9090909090909,4,2,22,70,0,1
83989,-100,4,2,1,66,0,0
84156,-100,4,2,1,60,0,0
84489,-100,4,2,22,60,0,0
85489,-100,4,2,1,60,0,0
85989,-100,4,2,1,60,0,0
86156,-100,4,2,1,52,0,0
86656,-95.2380952380952,4,2,1,64,0,0
91767,-95.2380952380952,4,2,1,56,0,0
91823,-95.2380952380952,4,2,1,60,0,0
91906,-95.2380952380952,4,2,1,54,0,0
91989,-95.2380952380952,4,2,1,64,0,0
94156,-95.2380952380952,4,2,1,60,0,0
94239,-95.2380952380952,4,2,1,56,0,0
94323,-95.2380952380952,4,2,1,64,0,0
94489,-95.2380952380952,4,2,1,60,0,0
94572,-95.2380952380952,4,2,1,56,0,0
94656,-95.2380952380952,4,2,1,62,0,0
95989,-95.2380952380952,4,2,1,40,0,0
97323,-95.2380952380952,4,2,1,30,0,0
98656,-95.2380952380952,4,2,1,20,0,0
99989,-95.2380952380952,4,2,1,10,0,0
101323,-95.2380952380952,4,2,1,5,0,0

[Colours]
Combo1 : 250,190,230
Combo2 : 130,200,230
Combo3 : 255,230,140
Combo4 : 170,245,170

[HitObjects]
68,150,1156,6,0,L|67:109,1,24.1499992630005,2|2,0:0|0:0,0:0:0:0:
76,164,1323,2,0,L|138:159,1,48.299998526001,2|2,0:3|0:0,0:0:0:0:
200,172,1656,2,0,L|262:167,1,48.299998526001,2|2,0:0|0:0,0:0:0:0:
458,266,2323,1,2,0:3:0:0:
504,118,2656,6,0,L|506:55,1,48.299998526001,2|2,0:0|0:0,0:0:0:0:
448,17,2989,1,2,0:0:0:0:
448,17,3156,2,0,L|385:14,1,48.299998526001,2|0,0:0|0:0,0:0:0:0:
326,38,3489,2,0,L|263:35,2,48.299998526001,2|2|2,0:3|0:0|0:0,0:0:0:0:
386,85,3989,6,0,P|391:108|392:149,3,48.299998526001,2|2|2|2,0:0|0:0|0:0|0:0,0:0:0:0:
180,226,4989,2,0,L|110:221,1,48.299998526001,2|2,0:0|0:0,0:0:0:0:
73,170,5323,2,0,P|68:147|67:106,3,48.299998526001,2|2|2|2,0:3|0:0|0:0|0:0,0:0:0:0:
209,64,6156,2,0,P|214:41|215:0,2,48.299998526001,2|2|2,0:0|0:0|0:0,0:0:0:0:
261,120,6656,6,0,L|331:115,3,48.299998526001,2|2|2|2,0:3|0:0|0:0|0:0,0:0:0:0:
385,129,7323,2,0,L|455:124,3,48.299998526001,2|2|2|2,0:0|0:0|0:0|0:3,0:0:0:0:
491,176,7989,2,0,P|497:206|495:238,2,48.299998526001,2|2|2,0:3|0:0|0:0,0:0:0:0:
433,125,8489,1,2,0:3:0:0:
328,332,8989,1,2,0:3:0:0:
221,219,9323,6,0,L|217:157,2,48.299998526001,2|2|2,0:3|0:0|0:0,0:0:0:0:
163,270,9823,2,0,L|98:261,3,48.299998526001,2|2|2|2,0:3|0:0|0:0|0:0,0:0:0:0:
47,299,10489,1,2,0:0:0:0:
4,150,10823,2,0,L|0:85,4,48.299998526001,2|2|2|2|2,0:0|0:0|0:0|0:0|0:3,0:0:0:0:
256,192,11656,12,0,12989,1:0:0:0:
253,99,13323,6,0,P|292:89|328:89,2,69,14|2|2,0:0|0:0|0:0,0:0:0:0:
156,108,13823,2,0,P|122:98|88:97,1,69,2|0,0:0|0:0,0:0:0:0:
44,196,14156,2,0,P|77:186|111:185,1,69,2|2,0:0|0:0,0:0:0:0:
190,240,14489,1,2,0:0:0:0:
190,240,14823,6,0,P|246:248|321:305,1,138,2|2,0:0|0:0,0:0:0:0:
404,356,15323,2,0,P|397:322|397:287,1,69,2|2,0:0|0:0,0:0:0:0:
455,210,15656,2,0,P|462:176|462:141,1,69,10|10,0:3|0:3,0:0:0:0:
398,60,15989,6,0,P|342:52|267:-5,1,138,12|0,0:0|0:0,0:0:0:0:
209,76,16489,2,0,P|199:45|169:9,2,69,2|2|2,0:0|0:0|0:0,0:0:0:0:
194,171,16989,2,0,P|180:202|157:228,1,69,2|2,0:0|0:0,0:0:0:0:
66,262,17323,6,0,P|32:265|-1:258,2,69,2|2|2,0:0|0:0|0:0,0:0:0:0:
157,228,17823,1,2,0:0:0:0:
247,256,17989,2,0,P|280:252|314:259,1,69,2|2,0:0|0:0,0:0:0:0:
415,235,18323,2,0,P|448:239|482:232,1,69,2|2,0:0|0:3,0:0:0:0:
482,231,18573,1,2,0:3:0:0:
482,231,18656,6,0,L|489:288,2,55.2,14|10|10,0:0|0:3|0:3,0:0:0:0:
439,147,19156,2,0,P|411:143|380:131,1,55.2,2|2,0:3|0:0,0:0:0:0:
204,160,19656,2,0,P|230:149|257:131,1,55.2,10|10,0:3|0:3,0:0:0:0:
260,39,19989,6,0,L|252:152,1,96.599997052002,10|10,0:0|0:3,0:0:0:0:
202,193,20489,2,0,P|165:174|96:164,1,96.599997052002,10|10,0:3|0:0,0:0:0:0:
111,163,20906,1,8,0:0:0:0:
111,163,20989,2,0,L|104:227,1,48.299998526001,10|10,0:3|0:0,0:0:0:0:
69,301,21323,5,10,0:3:0:0:
164,286,21489,2,0,L|214:287,1,48.299998526001,10|10,0:2|0:2,0:0:0:0:
306,260,21823,2,0,P|313:228|313:196,2,48.299998526001,10|10|10,0:3|0:2|0:2,0:0:0:0:
281,353,22323,1,10,0:3:0:0:
216,291,22489,1,14,0:0:0:0:
216,291,22823,6,0,L|212:228,2,48.299998526001,10|10|2,0:3|0:3|0:3,0:0:0:0:
281,353,23323,2,0,P|347:346|345:233,1,193.199994104004,10|14,0:3|0:3,0:0:0:0:
257,149,24323,5,10,0:3:0:0:
136,202,24656,2,0,L|81:197,2,41.3999987365723,10|2|10,0:3|0:0|0:3,0:0:0:0:
203,242,25156,2,0,L|244:245,1,41.3999987365723,2|8,0:0|0:3,0:0:0:0:
313,284,25489,5,2,0:0:0:0:
317,288,25656,1,10,0:3:0:0:
321,291,25823,2,0,L|362:294,1,41.3999987365723,2|8,0:0|0:3,0:0:0:0:
433,330,26156,2,0,L|474:333,2,41.3999987365723,2|10|2,0:0|0:3|0:0,0:0:0:0:
365,371,26656,5,8,0:3:0:0:
434,251,26989,1,10,0:3:0:0:
365,132,27323,1,10,0:3:0:0:
227,132,27656,1,10,0:3:0:0:
223,136,27823,2,0,L|168:133,1,41.3999987365723,2|8,0:0|0:3,0:0:0:0:
105,152,28156,5,2,0:0:0:0:
101,156,28323,1,10,0:3:0:0:
97,160,28489,2,0,L|42:157,1,41.3999987365723,2|8,0:0|0:3,0:0:0:0:
3,35,28989,1,10,0:3:0:0:
136,27,29323,5,10,0:3:0:0:
140,31,29489,2,0,L|195:28,1,41.3999987365723,2|8,0:0|0:3,0:0:0:0:
257,51,29823,2,0,L|312:48,1,41.3999987365723,2|8,0:0|0:3,0:0:0:0:
374,71,30156,2,0,L|429:68,1,41.3999987365723,2|8,0:0|0:3,0:0:0:0:
481,111,30489,6,0,P|489:141|485:166,2,41.3999987365723,2|10|2,0:0|0:3|0:0,0:0:0:0:
412,150,30989,1,10,0:3:0:0:
408,154,31156,2,0,L|353:157,1,41.3999987365723,2|8,0:0|0:3,0:0:0:0:
299,270,31656,1,10,0:3:0:0:
189,195,31989,6,0,L|182:97,1,82.7999974731446,10|8,0:3|0:3,0:0:0:0:
133,52,32489,1,2,0:0:0:0:
129,48,32656,2,0,P|83:40|42:56,1,82.7999974731446,10|8,0:3|0:3,0:0:0:0:
18,124,33156,6,0,L|13:181,2,41.3999987365723,2|10|2,0:3|0:3|0:3,0:0:0:0:
96,117,33656,2,0,L|98:158,2,41.3999987365723,10|10|4,0:3|0:2|0:3,0:0:0:0:
49,51,34156,2,0,L|47:19,2,20.6999993682862,8|8|8,0:0|0:0|0:0,0:0:0:0:
18,124,34489,1,8,0:3:0:0:
16,144,34572,1,8,0:3:0:0:
14,165,34656,6,0,B|10:206|10:206|18:234|18:234|-1:268,2,103.500003948212,14|10|10,0:3|0:0|0:3,0:0:0:0:
59,96,35489,1,10,0:0:0:0:
59,96,35656,1,10,0:3:0:0:
139,120,35823,6,0,B|259:115,1,103.500003948212,14|10,0:3|0:3,0:0:0:0:
325,146,36323,1,10,0:0:0:0:
325,146,36489,2,0,B|334:74,1,51.7500019741059,2|8,0:0|0:3,0:0:0:0:
386,30,36823,1,10,0:3:0:0:
397,28,36906,1,8,0:0:0:0:
409,27,36989,2,0,L|473:15,1,51.7500019741059,10|14,0:0|0:3,0:0:0:0:
512,96,37323,5,12,0:3:0:0:
424,236,37656,2,0,P|395:226|359:224,1,51.7500019741059,10|8,0:0|0:3,0:0:0:0:
293,241,37989,1,10,0:3:0:0:
224,287,38156,2,0,P|198:283|174:274,1,51.7500019741059,10|8,0:3|0:0,0:0:0:0:
176,171,38489,6,0,B|173:298,1,103.500003948212,6|2,0:3|0:0,0:0:0:0:
91,328,38989,2,0,B|82:206,1,103.500003948212,10|8,0:0|0:3,0:0:0:0:
25,165,39489,2,0,L|12:107,1,51.7500019741059,10|10,0:3|0:0,0:0:0:0:
102,127,39823,6,0,L|109:76,2,51.7500019741059,10|12|2,0:3|0:3|0:3,0:0:0:0:
168,184,40323,1,10,0:0:0:0:
238,132,40489,2,0,P|284:110|334:116,1,103.500003948212,2|10,0:0|0:3,0:0:0:0:
416,152,40989,1,10,0:0:0:0:
350,213,41156,6,0,P|328:167|335:117,1,103.500003948212,14|8,0:3|0:3,0:0:0:0:
409,69,41656,1,10,0:0:0:0:
331,26,41823,2,0,B|277:19,1,51.7500019741059,2|8,0:0|0:3,0:0:0:0:
182,166,42323,2,0,L|125:157,1,51.7500019741059,8|2,0:3|0:0,0:0:0:0:
43,208,42656,5,14,0:3:0:0:
43,208,42989,1,10,0:3:0:0:
7,88,43156,2,0,L|6:36,1,51.7500019741059,12|2,0:3|0:0,0:0:0:0:
6,36,43656,6,0,P|52:40|124:23,1,103.500003948212,12|0,0:3|0:0,0:0:0:0:
186,68,44156,2,0,P|236:57|288:61,1,103.500003948212,8|8,0:3|0:3,0:0:0:0:
368,97,44656,2,0,P|393:96|418:90,1,51.7500019741059,10|6,0:3|0:3,0:0:0:0:
491,140,44989,2,0,P|479:162|472:186,1,51.7500019741059,10|10,0:3|0:3,0:0:0:0:
494,296,45323,6,0,P|439:266|378:263,1,124.199996209717,14|10,0:3|0:3,0:0:0:0:
288,305,45823,2,0,B|219:300,1,62.0999981048585,2|8,0:0|0:0,0:0:0:0:
134,363,46156,2,0,B|129:218,1,124.199996209717,10|10,0:3|0:3,0:0:0:0:
129,238,46656,5,2,0:0:0:0:
217,192,46823,2,0,B|222:47,1,124.199996209717,2|10,0:0|0:3,0:0:0:0:
221,67,47323,1,8,0:0:0:0:
308,113,47489,2,0,P|376:114|438:96,1,124.199996209717,8|2,0:3|0:3,0:0:0:0:
512,196,47989,6,0,P|444:195|382:213,1,124.199996209717,10|10,0:3|0:3,0:0:0:0:
205,283,48656,2,0,L|136:275,1,62.0999981048585,10|8,0:0|0:3,0:0:0:0:
43,282,48989,1,2,0:0:0:0:
43,282,49156,2,0,P|55:246|56:211,1,62.0999981048585,10|0,0:3|0:0,0:0:0:0:
136,163,49489,5,10,0:0:0:0:
136,163,49656,2,0,P|124:127|123:92,1,62.0999981048585,8|8,0:3|0:3,0:0:0:0:
205,48,49989,2,0,L|287:40,1,62.0999981048585,14|0,0:3|0:0,0:0:0:0:
364,18,50323,2,0,L|446:10,1,62.0999981048585,10|10,0:3|0:3,0:0:0:0:
512,72,50656,6,0,B|489:110|489:110|481:209,1,124.199996209717,14|10,0:3|0:3,0:0:0:0:
400,246,51156,2,0,B|390:180,1,62.0999981048585,2|8,0:0|0:3,0:0:0:0:
291,180,51489,2,0,B|301:114,2,62.0999981048585,2|10|2,0:0|0:3|0:0,0:0:0:0:
217,246,51989,2,0,B|142:210|142:210|75:229,1,124.199996209717,8|8,0:0|0:3,0:0:0:0:
29,288,52489,2,0,B|26:361,2,62.0999981048585,2|10|2,0:0|0:3|0:0,0:0:0:0:
11,194,52989,1,10,0:3:0:0:
11,194,53323,6,0,B|14:121,1,62.0999981048585,14|8,0:0|0:3,0:0:0:0:
112,126,53656,2,0,B|151:64,1,62.0999981048585,8|8,0:2|0:3,0:0:0:0:
233,117,53989,2,0,B|297:83,1,62.0999981048585,8|8,0:2|0:3,0:0:0:0:
342,170,54323,2,0,B|415:173,1,62.0999981048585,8|10,0:2|0:3,0:0:0:0:
422,310,54656,6,0,B|455:245,1,62.0999981048585,14|8,0:0|0:3,0:0:0:0:
344,232,54989,2,0,B|341:159,1,62.0999981048585,8|8,0:2|0:3,0:0:0:0:
237,203,55323,2,0,B|197:141,1,62.0999981048585,8|8,0:2|0:3,0:0:0:0:
129,231,55656,2,0,B|64:197,1,62.0999981048585,8|8,0:2|0:3,0:0:0:0:
29,103,55989,6,0,P|22:71|36:22,1,62.0999981048585,10|8,0:0|0:0,0:0:0:0:
124,21,56323,2,0,L|201:27,1,62.0999981048585,10|8,0:2|0:0,0:0:0:0:
208,36,56573,1,8,0:0:0:0:
227,50,56656,2,0,L|304:56,1,62.0999981048585,10|8,0:0|0:0,0:0:0:0:
311,64,56906,1,8,0:0:0:0:
330,78,56989,2,0,L|366:80,4,31.0499990524292,10|8|8|8|6,0:0|0:0|0:0|0:0|0:0,0:0:0:0:
256,192,57406,12,8,59656,1:1:0:0:
99,151,59989,6,0,B|83:-9,2,151.800004632568,14|8|10,0:3|0:0|0:3,0:0:0:0:
161,238,60823,1,10,0:3:0:0:
253,186,60989,2,0,P|292:177|336:183,1,75.9000023162842,10|0,0:0|0:0,0:0:0:0:
326,310,61323,6,0,P|294:257|342:172,1,151.800004632568,14|10,0:3|0:0,0:0:0:0:
412,116,61823,2,0,L|432:62,2,37.9500011581421,10|8|0,0:3|0:0|0:0,0:0:0:0:
313,75,62156,2,0,L|232:62,1,75.9000023162842,10|8,0:3|0:0,0:0:0:0:
131,68,62489,6,0,L|50:55,2,75.9000023162842,2|8|0,0:0|0:3|0:0,0:0:0:0:
192,153,62989,2,0,P|202:190|199:228,1,75.9000023162842,10|0,0:0|0:0,0:0:0:0:
101,272,63323,2,0,P|91:235|94:197,1,75.9000023162842,10|8,0:3|0:3,0:0:0:0:
135,72,63656,1,12,0:0:0:0:
135,72,63823,1,10,0:3:0:0:
192,153,63989,6,0,B|368:140,1,151.800004632568,10|8,0:3|0:0,0:0:0:0:
429,79,64489,2,0,L|432:31,2,37.9500011581421,8|8|0,0:3|0:0|0:0,0:0:0:0:
466,179,64823,2,0,P|458:213|458:256,1,75.9000023162842,10|8,0:3|0:2,0:0:0:0:
499,343,65156,1,10,0:2:0:0:
378,312,65323,6,0,P|305:291|229:292,1,151.800004632568,14|10,0:3|0:0,0:0:0:0:
137,338,65823,1,2,0:0:0:0:
126,349,65906,1,2,0:0:0:0:
117,361,65989,2,0,L|110:268,1,75.9000023162842,8|8,0:3|0:3,0:0:0:0:
12,198,66323,1,10,0:0:0:0:
12,198,66489,6,0,L|28:30,1,151.800004632568,8|8,0:3|0:3,0:0:0:0:
120,126,66989,2,0,P|158:130|194:120,1,75.9000023162842,10|8,0:0|0:3,0:0:0:0:
250,211,67323,2,0,P|278:186|297:153,1,75.9000023162842,2|8,0:3|0:3,0:0:0:0:
403,178,67656,2,0,P|405:139|395:104,1,75.9000023162842,10|8,0:0|0:3,0:0:0:0:
291,32,67989,6,0,P|205:59|113:42,1,179.39999178772,14|8,0:0|0:3,0:0:0:0:
50,169,68489,2,0,P|136:142|228:159,1,179.39999178772,14|8,0:2|0:3,0:0:0:0:
326,227,68989,2,0,L|444:217,2,89.69999589386,14|8|8,0:0|0:3|0:3,0:0:0:0:
262,298,69489,2,0,L|263:345,2,37.9500011581421,8|8|8,0:3|0:3|0:0,0:0:0:0:
183,241,69823,1,8,0:0:0:0:
168,236,69906,1,8,0:0:0:0:
153,231,69989,2,0,L|67:219,1,75.9000023162842,10|10,0:0|0:2,0:0:0:0:
3,168,70323,2,0,L|0:119,1,37.9500011581421,10|8,0:2|0:2,0:0:0:0:
34,99,70489,2,0,L|31:50,1,37.9500011581421,10|8,0:2|0:2,0:0:0:0:
65,30,70656,6,0,P|132:45|221:28,2,151.800004632568,14|8|10,0:3|0:0|0:3,0:0:0:0:
0,130,71489,1,2,0:0:0:0:
99,170,71656,2,0,P|133:151|189:149,1,75.9000023162842,10|0,0:0|0:0,0:0:0:0:
321,158,71989,6,0,B|158:146,1,151.800004632568,14|10,0:3|0:0,0:0:0:0:
135,257,72489,2,0,B|157:242|157:242|219:246,1,75.9000023162842,2|8,0:0|0:3,0:0:0:0:
303,289,72823,2,0,B|325:304|325:304|387:299,1,75.9000023162842,2|8,0:0|0:0,0:0:0:0:
457,233,73156,6,0,B|468:141,2,75.9000023162842,2|8|0,0:0|0:3|0:0,0:0:0:0:
361,186,73656,2,0,B|314:170|314:170|289:179,1,75.9000023162842,10|0,0:0|0:3,0:0:0:0:
206,245,73989,2,0,B|159:260|159:260|134:251,1,75.9000023162842,10|8,0:3|0:3,0:0:0:0:
42,306,74323,1,14,0:0:0:0:
9,189,74489,6,0,L|1:31,1,151.800004632568,6|8,0:0|0:3,0:0:0:0:
1,37,74989,1,8,0:0:0:0:
103,9,75156,1,12,0:0:0:0:
198,56,75323,2,0,B|287:65,1,75.9000023162842,2|8,0:0|0:3,0:0:0:0:
379,53,75656,2,0,B|468:62,1,75.9000023162842,10|10,0:0|0:0,0:0:0:0:
468,73,75906,1,8,0:0:0:0:
478,88,75989,6,0,P|465:167|462:256,1,151.800004632568,14|8,0:3|0:0,0:0:0:0:
470,354,76489,2,0,P|434:332|391:323,1,75.9000023162842,10|8,0:3|0:0,0:0:0:0:
294,332,76823,2,0,L|214:324,2,75.9000023162842,10|10|10,0:3|0:0|0:3,0:0:0:0:
351,241,77323,6,0,L|361:160,1,75.9000023162842,10|10,0:0|0:3,0:0:0:0:
392,64,77656,1,10,0:0:0:0:
287,84,77823,2,0,L|207:76,1,75.9000023162842,10|8,0:3|0:0,0:0:0:0:
105,89,78156,2,0,L|25:81,1,75.9000023162842,10|10,0:3|0:0,0:0:0:0:
1,180,78489,5,10,0:3:0:0:
15,185,78573,1,8,0:3:0:0:
27,193,78656,2,0,P|43:228|45:280,1,75.9000023162842,8|10,0:0|0:3,0:0:0:0:
115,346,78989,2,0,P|119:308|134:274,1,75.9000023162842,10|10,0:0|0:3,0:0:0:0:
212,200,79323,1,10,0:0:0:0:
308,243,79489,2,0,L|402:237,1,75.9000023162842,10|8,0:3|0:0,0:0:0:0:
456,159,79823,6,0,L|463:68,2,75.9000023162842,10|10|10,0:3|0:0|0:3,0:0:0:0:
482,262,80323,1,10,0:0:0:0:
409,339,80489,2,0,L|308:327,1,75.9000023162842,10|8,0:3|0:0,0:0:0:0:
229,354,80823,2,0,L|128:342,1,75.9000023162842,10|8,0:3|0:0,0:0:0:0:
48,362,81156,5,10,0:3:0:0:
37,351,81239,1,8,0:3:0:0:
27,339,81323,2,0,L|34:248,1,75.9000023162842,12|8,0:0|0:3,0:0:0:0:
96,197,81656,2,0,P|173:200|252:142,1,151.800004632568,8|2,0:3|0:0,0:0:0:0:
283,70,82156,5,10,0:3:0:0:
283,70,82323,1,2,0:0:0:0:
182,36,82489,2,0,L|73:28,1,75.9000023162842,10|8,0:3|0:0,0:0:0:0:
5,57,82823,1,10,0:0:0:0:
5,57,82990,1,2,0:0:0:0:
75,135,83156,2,0,P|84:171|84:209,1,75.9000023162842,10|0,0:3|0:0,0:0:0:0:
16,291,83489,2,0,P|6:331|8:374,2,75.9000023162842,10|14|10,0:3|0:3|0:3,0:0:0:0:
84,209,83989,6,0,P|138:209|219:175,1,138,6|2,0:0|0:0,0:0:0:0:
290,117,84489,1,8,0:3:0:0:
303,113,84573,1,8,0:3:0:0:
316,111,84656,2,0,L|410:113,1,69,12|0,0:3|0:0,0:0:0:0:
476,169,84989,2,0,P|450:205|440:248,1,69,2|2,0:0|0:0,0:0:0:0:
447,240,85239,1,2,0:0:0:0:
454,251,85323,6,0,P|465:282|469:317,2,69,10|8|2,0:3|0:3|0:0,0:0:0:0:
371,300,85823,1,2,0:0:0:0:
358,304,85906,1,2,0:0:0:0:
345,309,85989,2,0,L|250:302,1,69,10|0,0:0|0:3,0:0:0:0:
195,339,86323,1,10,0:3:0:0:
195,339,86489,1,10,0:3:0:0:
203,244,86656,6,0,L|208:162,2,72.4499977890015,14|2|10,0:0|0:0|0:3,0:0:0:0:
117,284,87156,2,0,P|85:273|38:274,1,72.4499977890015,2|8,0:0|0:3,0:0:0:0:
1,189,87489,2,0,L|1:106,1,72.4499977890015,2|10,0:0|0:3,0:0:0:0:
83,69,87823,6,0,P|156:57|223:8,1,144.899995578003,2|2,0:0|0:0,0:0:0:0:
295,64,88323,2,0,P|333:60|386:69,1,72.4499977890015,8|2,0:3|0:0,0:0:0:0:
444,117,88656,2,0,L|454:201,1,72.4499977890015,10|0,0:3|0:0,0:0:0:0:
490,275,88989,1,10,0:3:0:0:
490,275,89156,1,10,0:3:0:0:
404,358,89323,6,0,P|344:318|273:307,1,144.899995578003,14|10,0:0|0:3,0:0:0:0:
182,334,89823,2,0,L|86:344,2,72.4499977890015,2|10|2,0:0|0:3|0:0,0:0:0:0:
273,306,90323,2,0,P|279:269|272:215,1,72.4499977890015,10|2,0:3|0:0,0:0:0:0:
215,162,90656,6,0,P|209:125|216:71,1,72.4499977890015,10|2,0:3|0:0,0:0:0:0:
164,8,90989,1,10,0:3:0:0:
76,44,91156,2,0,L|-20:34,1,72.4499977890015,2|10,0:0|0:3,0:0:0:0:
48,129,91489,2,0,P|54:166|47:220,1,72.4499977890015,2|10,0:0|0:3,0:0:0:0:
2,282,91823,1,10,0:0:0:0:
67,348,91989,6,0,L|163:358,1,72.4499977890015,14|10,0:2|0:3,0:0:0:0:
223,312,92323,1,10,0:3:0:0:
312,338,92489,2,0,L|384:346,1,72.4499977890015,2|8,0:0|0:3,0:0:0:0:
457,286,92823,2,0,P|456:250|469:215,1,72.4499977890015,2|10,0:0|0:3,0:0:0:0:
420,135,93156,6,0,L|348:127,1,72.4499977890015,10|8,0:3|0:0,0:0:0:0:
269,179,93489,1,2,0:0:0:0:
269,179,93656,1,10,0:3:0:0:
183,138,93823,6,0,P|170:104|171:68,1,72.4499977890015,10|8,0:3|0:3,0:0:0:0:
248,13,94156,1,10,0:0:0:0:
260,19,94239,1,8,0:0:0:0:
272,26,94323,2,0,L|344:18,1,72.4499977890015,10|10,0:2|0:0,0:0:0:0:
486,43,94656,5,14,0:3:0:0:
402,101,94823,2,0,P|389:135|390:171,1,72.4499977890015,10|10,0:0|0:0,0:0:0:0:
433,262,95156,2,0,L|526:280,2,72.4499977890015,10|10|10,0:0|0:0|0:0,0:0:0:0:
359,332,95656,1,10,0:0:0:0:
269,283,95823,2,0,L|239:278,3,24.1499992630005,8|2|2|4,0:2|0:0|0:2|0:0,0:0:0:0:
256,192,96073,12,0,98656,1:0:0:0:
