osu file format v14

[General]
AudioFilename: audio.mp3
AudioLeadIn: 0
PreviewTime: 59489
Countdown: 1
SampleSet: Soft
StackLeniency: 0.7
Mode: 0
LetterboxInBreaks: 0
WidescreenStoryboard: 1

[Editor]
DistanceSpacing: 1.05
BeatDivisor: 4
GridSize: 16
TimelineZoom: 1.700001

[Metadata]
Title:Haruoto*Veil
TitleUnicode:春音*ベール
Artist:Ceui
ArtistUnicode:Ceui
Creator:Lasse
Version:Easy
Source:春音アリス*グラム
Tags:Haruoto Alice * Gram opening short version spring is just around the corner eroge visual novel NanaWind _83 bor
BeatmapID:1401866
BeatmapSetID:660512

[Difficulty]
HPDrainRate:3
CircleSize:3
OverallDifficulty:3
ApproachRate:4
SliderMultiplier:1
SliderTickRate:1

[Events]
//Background and Video events
0,0,"bg.jpg",0,0
//Break Periods
//Storyboard Layer 0 (Background)
//Storyboard Layer 1 (Fail)
//Storyboard Layer 2 (Pass)
//Storyboard Layer 3 (Foreground)
//Storyboard Sound Samples

[TimingPoints]
-10,333.333333333333,4,2,11,30,1,0
1156,-142.857142857143,4,2,11,30,0,0
2323,-142.857142857143,4,2,11,34,0,0
2656,-142.857142857143,4,2,11,30,0,0
3489,-142.857142857143,4,2,11,34,0,0
3656,-142.857142857143,4,2,11,30,0,0
5323,-142.857142857143,4,2,11,34,0,0
6156,-142.857142857143,4,2,11,30,0,0
6656,-142.857142857143,4,2,11,32,0,0
7323,-142.857142857143,4,2,11,28,0,0
7656,-142.857142857143,4,2,11,30,0,0
7823,-142.857142857143,4,2,11,32,0,0
7989,-142.857142857143,4,2,11,34,0,0
8156,-142.857142857143,4,2,11,24,0,0
8489,-142.857142857143,4,2,11,32,0,0
9323,-142.857142857143,4,2,11,30,0,0
9489,-142.857142857143,4,2,11,28,0,0
9823,-142.857142857143,4,2,11,32,0,0
9989,-142.857142857143,4,2,11,24,0,0
10489,-142.857142857143,4,2,11,28,0,0
10823,-142.857142857143,4,2,11,20,0,0
10989,-142.857142857143,4,2,11,18,0,0
11156,-142.857142857143,4,2,11,16,0,0
11323,-142.857142857143,4,2,11,14,0,0
11489,-142.857142857143,4,2,11,12,0,0
11656,-142.857142857143,4,2,1,18,0,0
11989,-142.857142857143,4,2,1,24,0,0
12323,-142.857142857143,4,2,1,30,0,0
12656,-142.857142857143,4,2,1,36,0,0
12989,-142.857142857143,4,2,1,42,0,0
13156,-142.857142857143,4,2,1,5,0,0
13323,-121.951219512195,4,2,1,52,0,0
15156,-121.951219512195,4,2,1,44,0,0
15323,-121.951219512195,4,2,1,52,0,0
15989,-121.951219512195,4,2,1,56,0,0
16323,-121.951219512195,4,2,1,44,0,0
16489,-121.951219512195,4,2,1,50,0,0
16823,-121.951219512195,4,2,1,52,0,0
17156,-121.951219512195,4,2,1,56,0,0
17323,-121.951219512195,4,2,1,52,0,0
17823,-121.951219512195,4,2,1,56,0,0
17989,-121.951219512195,4,2,1,54,0,0
18323,-121.951219512195,4,2,1,50,0,0
18489,-121.951219512195,4,2,1,52,0,0
18656,-121.951219512195,4,2,1,54,0,0
20989,-121.951219512195,4,2,1,56,0,0
21323,-121.951219512195,4,2,1,58,0,0
21823,-121.951219512195,4,2,1,60,0,0
22323,-121.951219512195,4,2,22,62,0,0
22489,-121.951219512195,4,2,1,62,0,0
22823,-121.951219512195,4,2,1,44,0,0
22989,-121.951219512195,4,2,1,46,0,0
23156,-121.951219512195,4,2,1,48,0,0
23323,-121.951219512195,4,2,1,54,0,0
23489,-121.951219512195,4,2,1,53,0,0
23573,-121.951219512195,4,2,1,52,0,0
23656,-121.951219512195,4,2,1,51,0,0
23739,-121.951219512195,4,2,1,50,0,0
23823,-121.951219512195,4,2,1,49,0,0
23906,-121.951219512195,4,2,1,48,0,0
23989,-125,4,2,1,50,0,0
34656,-125,4,2,1,52,0,0
36906,-125,4,2,1,44,0,0
36989,-125,4,2,1,52,0,0
37073,-125,4,2,22,44,0,0
37156,-125,4,2,22,52,0,0
37323,-125,4,2,1,52,0,0
42989,-125,4,2,22,56,0,0
43156,-125,4,2,1,56,0,0
43656,-125,4,2,1,50,0,0
43989,-125,4,2,1,44,0,0
44156,-125,4,2,1,55,0,0
44656,-125,4,2,22,55,0,0
44823,-125,4,2,22,44,0,0
44989,-125,4,2,22,55,0,0
45073,-125,4,2,22,50,0,0
45322,-125,4,2,1,60,0,0
45323,-111.111111111111,4,2,1,60,0,0
49073,-111.111111111111,4,2,1,40,0,0
49156,-111.111111111111,4,2,1,60,0,0
49573,-111.111111111111,4,2,1,40,0,0
49656,-111.111111111111,4,2,22,60,0,0
50656,-111.111111111111,4,2,1,60,0,0
52739,-111.111111111111,4,2,1,52,0,0
52823,-111.111111111111,4,2,1,60,0,0
52906,-111.111111111111,4,2,1,52,0,0
52989,-111.111111111111,4,2,1,60,0,0
53323,-111.111111111111,4,2,1,62,0,0
54656,-111.111111111111,4,2,1,64,0,0
55906,-111.111111111111,4,2,1,40,0,0
55989,-111.111111111111,4,2,1,60,0,0
56156,-111.111111111111,4,2,1,50,0,0
56323,-111.111111111111,4,2,1,54,0,0
56656,-111.111111111111,4,2,1,56,0,0
56989,-111.111111111111,4,2,1,60,0,0
57406,-111.111111111111,4,2,1,20,0,0
58656,-111.111111111111,4,2,1,30,0,0
58989,-111.111111111111,4,2,1,40,0,0
59323,-111.111111111111,4,2,1,50,0,0
59656,-111.111111111111,4,2,1,60,0,0
59989,-100,4,2,1,70,0,1
60239,-100,4,2,1,5,0,1
60323,-100,4,2,1,70,0,1
65573,-100,4,2,1,5,0,1
65656,-100,4,2,1,70,0,1
66656,-100,4,2,1,70,0,1
67906,-100,4,2,1,70,0,0
67989,-100,4,2,1,74,0,1
68156,-100,4,2,1,68,0,0
68489,-100,4,2,1,74,0,1
68656,-100,4,2,1,68,0,0
68989,-100,4,2,1,72,0,1
69156,-100,4,2,22,68,0,1
69323,-100,4,2,1,68,0,1
69489,-100,4,2,1,68,0,1
69823,-100,4,2,1,68,0,1
70156,-100,4,2,1,70,0,0
70656,-100,4,2,1,70,0,1
70906,-100,4,2,1,5,0,1
70989,-100,4,2,1,70,0,1
83156,-100,4,2,22,70,0,1
83989,-111.111111111111,4,2,1,66,0,0
84156,-111.111111111111,4,2,1,60,0,0
84489,-111.111111111111,4,2,22,60,0,0
85489,-111.111111111111,4,2,1,60,0,0
86156,-111.111111111111,4,2,1,52,0,0
86656,-104.166666666667,4,2,1,64,0,0
91767,-104.166666666667,4,2,1,56,0,0
91823,-104.166666666667,4,2,1,60,0,0
91906,-104.166666666667,4,2,1,54,0,0
91989,-104.166666666667,4,2,1,64,0,0
94156,-104.166666666667,4,2,1,60,0,0
94239,-104.166666666667,4,2,1,56,0,0
94323,-104.166666666667,4,2,1,64,0,0
94489,-104.166666666667,4,2,1,60,0,0
94572,-104.166666666667,4,2,1,56,0,0
94656,-104.166666666667,4,2,1,62,0,0
95989,-104.166666666667,4,2,1,40,0,0
97323,-104.166666666667,4,2,1,30,0,0
98656,-104.166666666667,4,2,1,20,0,0
99989,-104.166666666667,4,2,1,10,0,0
101323,-104.166666666667,4,2,1,5,0,0

[Colours]
Combo1 : 250,190,230
Combo2 : 130,200,230
Combo3 : 255,230,140
Combo4 : 170,245,170

[HitObjects]
190,41,1156,6,0,P|122:49|93:119,1,139.999995727539,2|2,0:0|0:0,0:0:0:0:
200,245,2323,1,2,0:3:0:0:
200,245,2656,2,0,L|305:235,1,104.999996795654,2|2,0:0|0:0,0:0:0:0:
369,261,3489,2,0,L|474:251,2,104.999996795654,2|2|2,0:3|0:0|0:0,0:0:0:0:
287,327,4989,5,2,0:0:0:0:
287,327,5323,2,0,L|182:337,1,104.999996795654,2|2,0:3|0:0,0:0:0:0:
33,245,6656,2,0,P|15:186|47:102,1,139.999995727539,2|2,0:3|0:0,0:0:0:0:
169,64,7989,2,0,L|274:54,2,104.999996795654,2|2|2,0:3|0:3|0:3,0:0:0:0:
105,33,9323,5,2,0:3:0:0:
37,113,9823,2,0,P|15:178|33:245,1,139.999995727539,2|2,0:3|0:0,0:0:0:0:
101,261,10823,2,0,P|162:230|230:240,1,139.999995727539,2|2,0:0|0:3,0:0:0:0:
410,341,13323,6,0,B|423:202,1,123.000001876831,14|2,0:0|0:0,0:0:0:0:
409,133,14156,2,0,P|359:96|249:101,1,164.000002502441,2|2,0:0|0:0,0:0:0:0:
171,189,15323,1,2,0:0:0:0:
23,102,15989,6,0,B|60:120|95:101|95:101|134:69|178:78,1,164.000002502441,12|2,0:0|0:0,0:0:0:0:
318,178,17323,1,2,0:0:0:0:
218,318,17989,1,2,0:0:0:0:
78,218,18656,6,0,L|68:80,2,123.000001876831,14|2|10,0:0|0:3|0:3,0:0:0:0:
218,317,20323,2,0,B|275:331|275:331|320:323|345:254,1,164.000002502441,10|10,0:3|0:3,0:0:0:0:
300,183,21323,6,0,B|274:172|242:182|242:182|209:184|182:154,1,123.000001876831,10|10,0:3|0:3,0:0:0:0:
95,64,22323,2,0,L|45:55,1,41.0000006256104,10|14,0:3|0:0,0:0:0:0:
12,293,23989,5,14,0:3:0:0:
171,346,24656,2,0,B|214:350|214:350|248:341|248:341|293:342,1,120,10|2,0:3|0:0,0:0:0:0:
370,364,25489,1,2,0:0:0:0:
482,238,26156,2,0,L|486:110,1,120,2|8,0:0|0:3,0:0:0:0:
441,46,26989,6,0,B|399:53|370:34|370:34|344:42|323:35|323:35|278:22|247:43,1,200,10|2,0:3|0:0,0:0:0:0:
217,122,28156,1,2,0:0:0:0:
147,320,28989,1,10,0:3:0:0:
147,320,29323,6,0,P|79:328|30:295,1,120,10|2,0:3|0:0,0:0:0:0:
123,158,30489,2,0,B|147:125|143:82|143:82|178:45|225:67,1,160,2|2,0:0|0:0,0:0:0:0:
361,213,31989,2,0,B|337:246|341:289|341:289|306:326|259:304,1,160,10|10,0:3|0:3,0:0:0:0:
142,304,33156,2,0,P|94:292|16:287,2,120,2|10|8,0:3|0:3|0:0,0:0:0:0:
260,350,34656,6,0,B|316:356|316:356|357:332|361:267,1,160,14|10,0:3|0:3,0:0:0:0:
267,183,35823,2,0,B|211:188|211:188|170:164|165:99,1,160,14|2,0:3|0:0,0:0:0:0:
225,41,36823,1,10,0:3:0:0:
347,68,37323,6,0,B|389:80|389:80|422:65|422:65|462:57|501:84,1,160,12|10,0:3|0:3,0:0:0:0:
497,208,38489,2,0,P|434:220|374:195,1,120,6|10,0:3|0:0,0:0:0:0:
314,152,39323,1,8,0:3:0:0:
200,209,39989,6,0,B|188:251|188:251|203:284|203:284|211:324|184:363,1,160,12|8,0:3|0:3,0:0:0:0:
68,313,41156,2,0,P|56:250|81:190,1,120,14|10,0:3|0:0,0:0:0:0:
208,97,42323,1,8,0:3:0:0:
208,97,42656,6,0,P|277:116|332:94,2,120,14|12|12,0:3|0:3|0:3,0:0:0:0:
68,313,44656,1,10,0:3:0:0:
254,343,45323,6,0,B|283:338|309:349|309:349|332:338|332:338|358:349|394:342,1,134.999995880127,14|2,0:3|0:0,0:0:0:0:
440,266,46156,2,0,L|446:162,2,89.9999972534181,10|10|2,0:3|0:3|0:0,0:0:0:0:
479,352,47156,1,10,0:3:0:0:
256,271,47989,6,0,L|159:261,1,89.9999972534181,10|10,0:3|0:3,0:0:0:0:
76,231,48656,2,0,P|45:165|87:108,2,134.999995880127,10|10|8,0:0|0:3|0:3,0:0:0:0:
166,261,49989,1,14,0:3:0:0:
328,163,50656,6,0,B|341:130|341:130|315:75|347:30,1,134.999995880127,14|2,0:3|0:0,0:0:0:0:
438,33,51489,2,0,B|466:72|440:127|440:127|453:160,1,134.999995880127,2|8,0:0|0:0,0:0:0:0:
511,289,52489,1,2,0:0:0:0:
282,347,53322,6,0,L|185:334,2,89.9999972534181,14|8|8,0:0|0:2|0:2,0:0:0:0:
354,285,54323,1,8,0:2:0:0:
354,285,54656,2,0,P|376:233|367:188,2,89.9999972534181,14|8|8,0:0|0:2|0:2,0:0:0:0:
277,229,55656,1,8,0:2:0:0:
277,229,55989,6,0,L|180:216,1,89.9999972534181,10|10,0:0|0:2,0:0:0:0:
128,142,56656,2,0,P|125:97|146:57,1,89.9999972534181,10|10,0:0|0:0,0:0:0:0:
235,27,57323,1,6,0:0:0:0:
415,53,59656,1,8,1:0:0:0:
415,53,59989,6,0,P|371:129|386:255,1,200,14|10,0:3|0:3,0:0:0:0:
454,310,60989,1,10,0:0:0:0:
454,310,61323,2,0,B|359:295|359:295|300:319|300:319|192:298,1,250,14|10,0:3|0:3,0:0:0:0:
116,346,62489,1,2,0:0:0:0:
29,223,62989,6,0,B|-3:170|-3:170|0:81|79:47,1,200,10|12,0:0|0:0,0:0:0:0:
166,40,63989,1,10,0:3:0:0:
256,229,64656,1,2,0:0:0:0:
463,196,65323,6,0,B|511:157|511:157|540:73|479:13,1,200,14|8,0:3|0:3,0:0:0:0:
404,85,66323,2,0,L|191:65,1,200,10|10,0:0|0:0,0:0:0:0:
108,109,67323,2,0,P|85:152|95:200,1,100,2|10,0:3|0:0,0:0:0:0:
181,261,67989,6,0,L|332:290,2,150,14|14|14,0:0|0:2|0:0,0:0:0:0:
0,75,69989,1,10,0:0:0:0:
205,119,70656,6,0,B|255:135|298:94|298:94|355:68|397:114,1,200,14|10,0:3|0:3,0:0:0:0:
418,213,71656,1,10,0:0:0:0:
418,213,71990,2,0,B|385:264|318:272|279:232|279:232|218:221|192:277,1,250,14|2,0:3|0:0,0:0:0:0:
144,349,73156,1,2,0:0:0:0:
66,211,73656,2,0,B|44:160|48:108|86:68|141:55|141:55|192:94,1,250,10|6,0:0|0:0,0:0:0:0:
304,316,75323,1,2,0:0:0:0:
486,212,75989,6,0,B|499:91|499:91|485:47|419:47,1,200,14|8,0:3|0:0,0:0:0:0:
368,126,76989,1,10,0:0:0:0:
368,126,77323,2,0,L|165:109,1,200,10|8,0:0|0:0,0:0:0:0:
112,311,78656,6,0,L|311:327,1,200,8|10,0:0|0:0,0:0:0:0:
486,212,79989,2,0,B|499:91|499:91|485:47|419:47,1,200,10|8,0:0|0:0,0:0:0:0:
367,125,80989,1,8,0:0:0:0:
367,125,81323,6,0,B|334:117|315:104|315:104|286:119|256:117|256:117|190:73|125:117,1,250,12|10,0:0|0:3,0:0:0:0:
213,306,82823,1,10,0:0:0:0:
11,364,83489,1,10,0:3:0:0:
41,225,83989,6,0,B|52:183|34:144|34:144|28:117|55:79,2,134.999995880127,6|8|2,0:0|0:3|0:0,0:0:0:0:
109,290,85323,2,0,B|175:274|175:274|229:307|282:284,1,179.999994506836,10|10,0:3|0:0,0:0:0:0:
364,237,86323,1,10,0:3:0:0:
364,237,86656,6,0,B|378:84,1,144.000003515625,14|2,0:0|0:0,0:0:0:0:
285,51,87489,2,0,B|241:41|200:78|200:78|141:86|112:40,1,192.0000046875,2|2,0:0|0:0,0:0:0:0:
16,158,88656,1,10,0:3:0:0:
140,316,89323,6,0,B|186:309|229:339|229:339|267:301|318:307,1,192.0000046875,14|10,0:0|0:3,0:0:0:0:
415,346,90323,1,10,0:3:0:0:
415,346,90656,2,0,B|456:291|456:291|477:184|395:143,1,240.000005859375,10|2,0:3|0:0,0:0:0:0:
256,197,91989,6,0,L|111:186,1,144.000003515625,14|2,0:2|0:0,0:0:0:0:
28,129,92823,1,2,0:0:0:0:
211,45,93489,2,0,B|254:43|254:43|291:56|291:56|320:41|320:41|386:33|442:75,1,240.000005859375,2|10,0:0|0:2,0:0:0:0:
413,170,94656,2,0,B|390:198|399:238|399:238|437:291|433:330|396:366|353:380|296:343|299:299|314:267,1,336.000008203125,14|14,0:3|0:2,0:0:0:0:
256,192,95989,12,0,98656,1:0:0:0:
