osu file format v14

[General]
AudioFilename: audio.mp3
AudioLeadIn: 0
PreviewTime: 59489
Countdown: 1
SampleSet: Soft
StackLeniency: 0.7
Mode: 0
LetterboxInBreaks: 0
WidescreenStoryboard: 1

[Editor]
DistanceSpacing: 1
BeatDivisor: 4
GridSize: 16
TimelineZoom: 2.4

[Metadata]
Title:Haruoto*Veil
TitleUnicode:春音*ベール
Artist:Ceui
ArtistUnicode:Ceui
Creator:Lasse
Version:Normal
Source:春音アリス*グラム
Tags:Haruoto Alice * Gram opening short version spring is just around the corner eroge visual novel NanaWind _83 bor
BeatmapID:1401867
BeatmapSetID:660512

[Difficulty]
HPDrainRate:4
CircleSize:3.4
OverallDifficulty:4
ApproachRate:5
SliderMultiplier:1.2
SliderTickRate:1

[Events]
//Background and Video events
0,0,"bg.jpg",0,0
//Break Periods
//Storyboard Layer 0 (Background)
//Storyboard Layer 1 (Fail)
//Storyboard Layer 2 (Pass)
//Storyboard Layer 3 (Foreground)
//Storyboard Sound Samples

[TimingPoints]
-10,333.333333333333,4,2,11,30,1,0
1156,-142.857142857143,4,2,11,30,0,0
2323,-142.857142857143,4,2,11,34,0,0
2656,-142.857142857143,4,2,11,30,0,0
3489,-142.857142857143,4,2,11,34,0,0
3656,-142.857142857143,4,2,11,30,0,0
5323,-142.857142857143,4,2,11,34,0,0
6156,-142.857142857143,4,2,11,30,0,0
6656,-142.857142857143,4,2,11,32,0,0
7323,-142.857142857143,4,2,11,28,0,0
7656,-142.857142857143,4,2,11,30,0,0
7823,-142.857142857143,4,2,11,32,0,0
7989,-142.857142857143,4,2,11,34,0,0
8156,-142.857142857143,4,2,11,24,0,0
8489,-142.857142857143,4,2,11,32,0,0
9323,-142.857142857143,4,2,11,30,0,0
9489,-142.857142857143,4,2,11,28,0,0
9823,-142.857142857143,4,2,11,32,0,0
9989,-142.857142857143,4,2,11,24,0,0
10489,-142.857142857143,4,2,11,28,0,0
10823,-142.857142857143,4,2,11,20,0,0
10989,-142.857142857143,4,2,11,18,0,0
11156,-142.857142857143,4,2,11,16,0,0
11323,-142.857142857143,4,2,11,14,0,0
11489,-142.857142857143,4,2,11,12,0,0
11656,-142.857142857143,4,2,1,18,0,0
11989,-142.857142857143,4,2,1,24,0,0
12323,-142.857142857143,4,2,1,30,0,0
12656,-142.857142857143,4,2,1,36,0,0
12989,-142.857142857143,4,2,1,42,0,0
13156,-142.857142857143,4,2,1,5,0,0
13323,-121.951219512195,4,2,1,52,0,0
15156,-121.951219512195,4,2,1,44,0,0
15323,-121.951219512195,4,2,1,52,0,0
15989,-121.951219512195,4,2,1,56,0,0
16323,-121.951219512195,4,2,1,44,0,0
16489,-121.951219512195,4,2,1,50,0,0
16823,-121.951219512195,4,2,1,52,0,0
17156,-121.951219512195,4,2,1,56,0,0
17323,-121.951219512195,4,2,1,52,0,0
17823,-121.951219512195,4,2,1,56,0,0
17989,-121.951219512195,4,2,1,54,0,0
18323,-121.951219512195,4,2,1,50,0,0
18489,-121.951219512195,4,2,1,52,0,0
18656,-121.951219512195,4,2,1,54,0,0
20989,-121.951219512195,4,2,1,56,0,0
21323,-121.951219512195,4,2,1,58,0,0
21823,-121.951219512195,4,2,1,60,0,0
22323,-121.951219512195,4,2,22,62,0,0
22489,-121.951219512195,4,2,1,62,0,0
22823,-121.951219512195,4,2,1,44,0,0
22989,-121.951219512195,4,2,1,46,0,0
23156,-121.951219512195,4,2,1,48,0,0
23323,-121.951219512195,4,2,1,54,0,0
23489,-121.951219512195,4,2,1,53,0,0
23573,-121.951219512195,4,2,1,52,0,0
23656,-121.951219512195,4,2,1,51,0,0
23739,-121.951219512195,4,2,1,50,0,0
23823,-121.951219512195,4,2,1,49,0,0
23906,-121.951219512195,4,2,1,48,0,0
23989,-125,4,2,1,50,0,0
34656,-125,4,2,1,52,0,0
36906,-125,4,2,1,44,0,0
36989,-125,4,2,1,52,0,0
37073,-125,4,2,22,44,0,0
37156,-125,4,2,22,52,0,0
37323,-125,4,2,1,52,0,0
42989,-125,4,2,22,56,0,0
43156,-125,4,2,1,56,0,0
43656,-125,4,2,1,50,0,0
43989,-125,4,2,1,44,0,0
44156,-125,4,2,1,55,0,0
44656,-125,4,2,22,55,0,0
44823,-125,4,2,22,44,0,0
44989,-125,4,2,22,55,0,0
45073,-125,4,2,22,50,0,0
45323,-111.111111111111,4,2,1,60,0,0
49073,-111.111111111111,4,2,1,40,0,0
49156,-111.111111111111,4,2,1,60,0,0
49573,-111.111111111111,4,2,1,40,0,0
49656,-111.111111111111,4,2,22,60,0,0
50656,-111.111111111111,4,2,1,60,0,0
52739,-111.111111111111,4,2,1,52,0,0
52823,-111.111111111111,4,2,1,60,0,0
52906,-111.111111111111,4,2,1,52,0,0
52989,-111.111111111111,4,2,1,60,0,0
53323,-111.111111111111,4,2,1,62,0,0
54656,-111.111111111111,4,2,1,64,0,0
55906,-111.111111111111,4,2,1,40,0,0
55989,-111.111111111111,4,2,1,60,0,0
56156,-111.111111111111,4,2,1,50,0,0
56323,-111.111111111111,4,2,1,54,0,0
56656,-111.111111111111,4,2,1,56,0,0
56989,-111.111111111111,4,2,1,60,0,0
57406,-111.111111111111,4,2,1,20,0,0
58656,-111.111111111111,4,2,1,30,0,0
58989,-111.111111111111,4,2,1,40,0,0
59323,-111.111111111111,4,2,1,50,0,0
59656,-111.111111111111,4,2,1,60,0,0
59989,-100,4,2,1,70,0,1
60239,-100,4,2,1,5,0,1
60323,-100,4,2,1,70,0,1
65573,-100,4,2,1,5,0,1
65656,-100,4,2,1,70,0,1
66656,-100,4,2,1,70,0,1
67906,-100,4,2,1,70,0,0
67989,-100,4,2,1,74,0,1
68156,-100,4,2,1,68,0,0
68489,-100,4,2,1,74,0,1
68656,-100,4,2,1,68,0,0
68989,-100,4,2,1,72,0,1
69156,-100,4,2,22,68,0,1
69323,-100,4,2,1,68,0,1
69489,-100,4,2,1,68,0,1
69823,-100,4,2,1,68,0,1
70156,-100,4,2,1,70,0,0
70656,-100,4,2,1,70,0,1
70906,-100,4,2,1,5,0,1
70989,-100,4,2,1,70,0,1
83156,-100,4,2,22,70,0,1
83989,-111.111111111111,4,2,1,66,0,0
84156,-111.111111111111,4,2,1,60,0,0
84489,-111.111111111111,4,2,22,60,0,0
85489,-111.111111111111,4,2,1,60,0,0
86156,-111.111111111111,4,2,1,52,0,0
86656,-104.166666666667,4,2,1,64,0,0
91767,-104.166666666667,4,2,1,56,0,0
91823,-104.166666666667,4,2,1,60,0,0
91906,-104.166666666667,4,2,1,54,0,0
91989,-104.166666666667,4,2,1,64,0,0
94156,-104.166666666667,4,2,1,60,0,0
94239,-104.166666666667,4,2,1,56,0,0
94323,-104.166666666667,4,2,1,64,0,0
94489,-104.166666666667,4,2,1,60,0,0
94572,-104.166666666667,4,2,1,56,0,0
94656,-104.166666666667,4,2,1,62,0,0
95989,-104.166666666667,4,2,1,40,0,0
97323,-104.166666666667,4,2,1,30,0,0
98656,-104.166666666667,4,2,1,20,0,0
99989,-104.166666666667,4,2,1,10,0,0
101323,-104.166666666667,4,2,1,5,0,0

[Colours]
Combo1 : 250,190,230
Combo2 : 130,200,230
Combo3 : 255,230,140
Combo4 : 170,245,170

[HitObjects]
111,66,1156,6,0,P|189:73|210:150,1,167.999994873047,2|2,0:0|0:0,0:0:0:0:
165,267,2323,1,2,0:3:0:0:
245,289,2656,2,0,L|375:279,1,125.999996154785,2|2,0:0|0:0,0:0:0:0:
453,296,3489,1,2,0:3:0:0:
493,176,3989,2,0,L|363:166,1,125.999996154785,2|2,0:0|0:0,0:0:0:0:
243,199,4989,1,2,0:0:0:0:
177,145,5323,6,0,B|164:107|164:107|187:69|168:17,1,125.999996154785,2|2,0:3|0:0,0:0:0:0:
86,16,6156,1,2,0:0:0:0:
16,121,6656,2,0,B|24:155|11:180|11:180|22:203|22:203|19:237|-3:260|-3:260|34:303|91:278,1,251.999992309571,2|2,0:3|0:0,0:0:0:0:
163,316,7989,2,0,P|219:287|281:295,1,125.999996154785,2|2,0:3|0:3,0:0:0:0:
388,364,8989,1,2,0:3:0:0:
452,310,9323,6,0,B|472:244|438:187|438:187|469:184|486:146|486:146|473:115|473:115|494:84|481:40,1,293.999991027832,2|2,0:3|0:0,0:0:0:0:
400,62,10823,2,0,B|356:44|318:72|318:72|265:77|235:40,1,167.999994873047,2|2,0:0|0:3,0:0:0:0:
242,48,13323,6,0,B|291:74|291:74|314:114|293:172,1,147.600002252197,14|2,0:0|0:0,0:0:0:0:
244,247,14156,2,0,L|127:238,1,98.4000015014649,2|2,0:0|0:0,0:0:0:0:
61,290,14823,1,2,0:0:0:0:
6,153,15323,2,0,L|4:46,1,98.4000015014649,2|10,0:0|0:3,0:0:0:0:
49,34,15823,1,10,0:3:0:0:
49,34,15989,6,0,B|88:31|111:55|111:55|154:73|193:36,2,147.600002252197,12|2|2,0:0|0:0|0:0,0:0:0:0:
19,128,17323,2,0,P|27:174|29:236,1,98.4000015014649,2|2,0:0|0:0,0:0:0:0:
123,253,17989,2,0,P|149:211|180:173,1,98.4000015014649,2|2,0:0|0:0,0:0:0:0:
274,143,18656,6,0,L|437:158,1,147.600002252197,14|2,0:0|0:3,0:0:0:0:
443,302,19656,2,0,P|399:277|339:268,1,98.4000015014649,10|10,0:3|0:0,0:0:0:0:
264,312,20323,2,0,P|202:335|76:283,1,196.80000300293,10|10,0:3|0:3,0:0:0:0:
36,294,21156,1,10,0:0:0:0:
36,294,21323,6,0,P|62:238|64:191,1,98.4000015014649,10|10,0:3|0:2,0:0:0:0:
35,162,21823,2,0,L|31:56,1,98.4000015014649,10|10,0:3|0:0,0:0:0:0:
72,35,22323,1,10,0:3:0:0:
72,35,22489,1,14,0:0:0:0:
236,160,23989,5,14,0:3:0:0:
285,77,24323,1,10,0:3:0:0:
379,58,24656,2,0,B|409:50|448:69|448:69|486:39|526:50,1,144,10|2,0:3|0:0,0:0:0:0:
509,143,25489,2,0,P|498:196|494:250,1,96,2|2,0:0|0:0,0:0:0:0:
420,299,26156,2,0,L|275:284,1,144,2|8,0:0|0:3,0:0:0:0:
196,337,26989,5,10,0:3:0:0:
135,260,27323,2,0,B|122:209|122:209|143:167|134:119,1,144,10|2,0:3|0:0,0:0:0:0:
84,38,28156,2,0,B|51:22|51:22|14:31|0:71,1,96,2|2,0:0|0:0,0:0:0:0:
47,195,28989,1,10,0:3:0:0:
137,162,29323,6,0,P|205:154|299:173,1,144,10|2,0:3|0:0,0:0:0:0:
354,225,30156,1,2,0:0:0:0:
439,181,30489,2,0,B|472:124|448:42|448:42|394:69,1,192,2|2,0:0|0:0,0:0:0:0:
286,147,31656,1,10,0:3:0:0:
203,98,31989,6,0,B|146:65|64:89|64:89|91:143,1,192,10|10,0:3|0:3,0:0:0:0:
193,228,33156,2,0,P|232:204|290:204,1,96,2|2,0:3|0:3,0:0:0:0:
327,213,33656,2,0,L|385:209,1,48,10|10,0:3|0:3,0:0:0:0:
462,248,34156,2,0,L|465:300,1,48,8|8,0:0|0:0,0:0:0:0:
384,348,34656,6,0,L|272:338,1,96,14|10,0:3|0:0,0:0:0:0:
197,368,35323,2,0,P|184:329|145:284,1,96,10|10,0:3|0:3,0:0:0:0:
108,254,35823,2,0,L|103:142,2,96,14|10|2,0:3|0:3|0:0,0:0:0:0:
46,327,36823,2,0,P|13:318|-12:320,2,48,10|10|14,0:3|0:0|0:3,0:0:0:0:
82,358,37323,6,0,L|185:347,1,96,12|10,0:3|0:0,0:0:0:0:
276,370,37989,1,10,0:3:0:0:
276,370,38156,1,10,0:3:0:0:
352,311,38489,2,0,L|364:158,1,144,6|10,0:3|0:0,0:0:0:0:
426,94,39323,2,0,P|378:89|334:46,1,96,8|10,0:3|0:0,0:0:0:0:
309,33,39823,1,10,0:3:0:0:
309,33,39989,6,0,L|162:21,1,144,12|2,0:3|0:0,0:0:0:0:
83,71,40823,1,10,0:3:0:0:
152,137,41156,2,0,P|160:168|154:233,1,96,14|8,0:3|0:3,0:0:0:0:
131,273,41656,1,10,0:0:0:0:
131,273,41823,1,2,0:0:0:0:
0,326,42323,2,0,P|22:321|46:325,1,48,8|2,0:3|0:0,0:0:0:0:
71,366,42656,5,14,0:3:0:0:
162,348,42989,2,0,P|185:338|208:336,1,48,10|12,0:3|0:3,0:0:0:0:
347,370,43656,2,0,L|365:217,1,144,12|8,0:3|0:3,0:0:0:0:
248,141,44656,2,0,P|201:118|176:64,1,96,10|10,0:3|0:3,0:0:0:0:
277,36,45323,6,0,L|404:32,2,107.999996704102,14|10|8,0:3|0:3|0:0,0:0:0:0:
233,68,46156,2,0,L|106:72,1,107.999996704102,10|10,0:3|0:3,0:0:0:0:
34,130,46823,1,2,0:0:0:0:
87,223,47156,1,10,0:3:0:0:
87,223,47323,2,0,P|130:203|252:205,1,161.999995056153,8|2,0:0|0:3,0:0:0:0:
289,229,47989,6,0,L|416:225,1,107.999996704102,10|10,0:3|0:3,0:0:0:0:
449,319,48656,1,10,0:0:0:0:
346,352,48989,1,2,0:0:0:0:
346,352,49156,2,0,B|308:351|308:351|281:336|281:336|220:335,1,107.999996704102,10|10,0:3|0:0,0:0:0:0:
198,303,49656,2,0,B|160:308|160:308|135:326|135:326|75:335,2,107.999996704102,8|14|10,0:3|0:3|0:3,0:0:0:0:
277,229,50656,6,0,L|283:98,2,107.999996704102,14|10|8,0:3|0:3|0:3,0:0:0:0:
323,257,51489,2,0,B|360:262|360:262|385:280|385:280|445:289,1,107.999996704102,2|2,0:0|0:0,0:0:0:0:
472,260,51989,2,0,L|496:131,1,107.999996704102,8|8,0:0|0:3,0:0:0:0:
470,47,52656,1,10,0:3:0:0:
363,35,52989,1,10,0:3:0:0:
318,133,53323,6,0,L|198:117,1,107.999996704102,14|8,0:0|0:2,0:0:0:0:
107,150,53989,2,0,L|-13:134,1,107.999996704102,8|8,0:2|0:2,0:0:0:0:
16,193,54489,1,10,0:3:0:0:
16,193,54656,2,0,L|21:317,1,107.999996704102,14|8,0:0|0:2,0:0:0:0:
120,343,55323,2,0,L|152:239,1,107.999996704102,8|8,0:2|0:2,0:0:0:0:
197,210,55823,1,8,0:3:0:0:
197,210,55989,6,0,L|317:194,1,107.999996704102,10|10,0:0|0:2,0:0:0:0:
401,243,56656,1,10,0:0:0:0:
477,166,56989,1,10,0:0:0:0:
427,69,57323,1,6,0:0:0:0:
85,315,59656,1,8,1:0:0:0:
33,206,59989,6,0,L|21:75,2,120,14|8|10,0:3|0:0|0:3,0:0:0:0:
85,315,60989,1,10,0:0:0:0:
181,241,61323,2,0,P|237:223|296:232,1,120,14|10,0:3|0:0,0:0:0:0:
339,274,61823,2,0,P|397:283|454:264,1,120,10|10,0:3|0:3,0:0:0:0:
479,146,62489,2,0,L|487:80,1,60,2|8,0:0|0:3,0:0:0:0:
377,35,62989,5,10,0:0:0:0:
268,86,63323,2,0,P|209:86|155:60,1,120,10|12,0:3|0:0,0:0:0:0:
113,26,63823,1,10,0:3:0:0:
113,26,63989,2,0,B|121:152,1,120,10|8,0:3|0:0,0:0:0:0:
160,259,64656,2,0,L|155:322,2,60,2|10|8,0:0|0:3|0:2,0:0:0:0:
232,162,65323,5,14,0:3:0:0:
349,186,65656,1,10,0:0:0:0:
349,186,65823,2,0,P|401:182|434:178,1,60,2|8,0:0|0:3,0:0:0:0:
499,260,66323,2,0,B|502:342|502:342|478:377,1,120,10|2,0:0|0:0,0:0:0:0:
379,309,66989,1,10,0:0:0:0:
260,305,67323,1,2,0:3:0:0:
154,361,67656,1,10,0:0:0:0:
64,281,67989,6,0,L|58:148,1,120,14|8,0:0|0:3,0:0:0:0:
87,107,68489,2,0,P|140:83|200:86,1,120,14|8,0:2|0:3,0:0:0:0:
253,115,68989,2,0,P|312:118|366:94,2,120,14|8|8,0:0|0:3|0:0,0:0:0:0:
133,104,69989,2,0,P|103:107|77:122,1,60,10|10,0:0|0:0,0:0:0:0:
58,179,70323,2,0,P|61:212|75:238,1,60,10|10,0:0|0:0,0:0:0:0:
127,264,70656,6,0,B|122:307|122:307|104:340|104:340|102:382,2,120,14|8|10,0:3|0:0|0:3,0:0:0:0:
203,171,71656,1,10,0:0:0:0:
308,227,71989,1,14,0:3:0:0:
420,184,72323,1,10,0:0:0:0:
420,184,72489,2,0,B|425:141|425:141|443:108|443:108|445:66,1,120,2|2,0:0|0:0,0:0:0:0:
329,36,73156,1,2,0:0:0:0:
329,36,73323,6,0,L|189:26,2,120,8|10|10,0:3|0:0|0:3,0:0:0:0:
388,140,74323,1,14,0:0:0:0:
388,140,74489,2,0,B|418:215|386:258|386:258|327:226,1,180,6|8,0:0|0:0,0:0:0:0:
285,242,75156,1,12,0:0:0:0:
285,242,75323,2,0,L|145:232,1,120,2|10,0:0|0:0,0:0:0:0:
64,297,75989,6,0,L|54:157,1,120,14|8,0:3|0:0,0:0:0:0:
84,127,76489,1,10,0:3:0:0:
84,127,76656,2,0,L|203:118,1,120,8|10,0:0|0:0,0:0:0:0:
317,79,77323,2,0,L|436:70,2,120,10|10|8,0:0|0:0|0:0,0:0:0:0:
208,26,78323,1,10,0:0:0:0:
112,100,78656,6,0,P|92:155|101:214,1,120,8|10,0:0|0:0,0:0:0:0:
142,265,79156,1,10,0:3:0:0:
142,265,79323,2,0,L|261:274,1,120,10|8,0:0|0:0,0:0:0:0:
367,331,79989,2,0,L|486:340,2,120,10|10|8,0:0|0:0|0:0,0:0:0:0:
251,362,80989,1,8,0:0:0:0:
134,333,81323,6,0,B|129:319|129:319|128:309|112:292|112:292|136:265|126:222|126:222|93:168|122:107,1,240,12|2,0:0|0:0,0:0:0:0:
168,71,82156,2,0,L|252:58,1,60,10|2,0:3|0:0,0:0:0:0:
282,37,82489,1,10,0:3:0:0:
375,113,82823,2,0,L|344:192,1,60,10|2,0:0|0:0,0:0:0:0:
347,229,83156,1,10,0:3:0:0:
234,271,83489,2,0,L|180:204,1,60,10|14,0:3|0:3,0:0:0:0:
156,187,83823,1,10,0:3:0:0:
156,187,83989,6,0,B|103:172|60:198|60:198|28:194|0:167,2,161.999995056153,6|8|2,0:0|0:3|0:0,0:0:0:0:
255,230,85323,2,0,B|308:207|362:240|362:240|428:249|456:205,1,215.999993408203,10|10,0:3|0:0,0:0:0:0:
503,110,86323,1,10,0:3:0:0:
425,34,86656,6,0,B|401:33|377:47|377:47|342:60|296:31,1,115.2000028125,14|10,0:0|0:3,0:0:0:0:
258,27,87156,1,2,0:0:0:0:
158,85,87489,2,0,P|97:68|40:74,1,115.2000028125,2|2,0:0|0:0,0:0:0:0:
6,181,88156,1,2,0:0:0:0:
105,322,88656,2,0,P|159:305|217:309,1,115.2000028125,10|10,0:3|0:3,0:0:0:0:
275,335,89156,1,10,0:3:0:0:
275,335,89323,6,0,B|309:347|339:320|339:320|360:329|360:329|399:312|440:333,2,172.80000421875,14|2|10,0:0|0:0|0:3,0:0:0:0:
191,255,90656,2,0,P|201:207|203:131,1,115.2000028125,10|10,0:3|0:3,0:0:0:0:
173,92,91156,2,0,L|52:80,1,115.2000028125,2|2,0:0|0:0,0:0:0:0:
11,186,91823,1,10,0:0:0:0:
11,186,91989,6,0,B|40:171|40:171|144:182,1,115.2000028125,14|10,0:2|0:0,0:0:0:0:
179,187,92489,1,2,0:0:0:0:
278,245,92823,2,0,L|408:234,1,115.2000028125,2|10,0:0|0:3,0:0:0:0:
477,165,93489,2,0,P|481:131|486:96,1,57.60000140625,2|10,0:0|0:3,0:0:0:0:
454,57,93823,2,0,P|367:24|281:39,1,172.80000421875,10|10,0:3|0:2,0:0:0:0:
250,76,94489,1,10,0:0:0:0:
250,76,94656,6,0,L|112:60,1,115.2000028125,14|10,0:3|0:0,0:0:0:0:
91,100,95156,2,0,B|98:147|71:183|71:183|60:206|71:240|102:258|130:256|158:231|163:204,1,230.400005625,10|14,0:0|0:2,0:0:0:0:
256,192,95989,12,0,98656,1:0:0:0:
