osu file format v14

[General]
AudioFilename: audio.mp3
AudioLeadIn: 0
PreviewTime: 59489
Countdown: 1
SampleSet: Soft
StackLeniency: 1
Mode: 0
LetterboxInBreaks: 0
WidescreenStoryboard: 1

[Editor]
DistanceSpacing: 1
BeatDivisor: 4
GridSize: 16
TimelineZoom: 2.2

[Metadata]
Title:Haruoto*Veil
TitleUnicode:春音*ベール
Artist:Ceui
ArtistUnicode:Ceui
Creator:Lasse
Version:Insane
Source:春音アリス*グラム
Tags:Haruoto Alice * Gram opening short version spring is just around the corner eroge visual novel NanaWind _83 bor
BeatmapID:1398995
BeatmapSetID:660512

[Difficulty]
HPDrainRate:6
CircleSize:4
OverallDifficulty:8
ApproachRate:8.5
SliderMultiplier:1.6
SliderTickRate:1

[Events]
//Background and Video events
0,0,"bg.jpg",0,0
//Break Periods
//Storyboard Layer 0 (Background)
//Storyboard Layer 1 (Fail)
//Storyboard Layer 2 (Pass)
//Storyboard Layer 3 (Foreground)
//Storyboard Sound Samples

[TimingPoints]
-10,333.333333333333,4,2,11,30,1,0
1156,-142.857142857143,4,2,11,30,0,0
2323,-142.857142857143,4,2,11,34,0,0
2656,-142.857142857143,4,2,11,30,0,0
3489,-142.857142857143,4,2,11,34,0,0
3656,-142.857142857143,4,2,11,30,0,0
5323,-142.857142857143,4,2,11,34,0,0
6156,-142.857142857143,4,2,11,30,0,0
6656,-142.857142857143,4,2,11,32,0,0
7323,-142.857142857143,4,2,11,28,0,0
7656,-142.857142857143,4,2,11,30,0,0
7823,-142.857142857143,4,2,11,32,0,0
7989,-142.857142857143,4,2,11,34,0,0
8156,-142.857142857143,4,2,11,24,0,0
8489,-142.857142857143,4,2,11,32,0,0
8989,-142.857142857143,4,2,11,32,0,0
9323,-142.857142857143,4,2,11,30,0,0
9489,-142.857142857143,4,2,11,28,0,0
9823,-142.857142857143,4,2,11,32,0,0
9989,-142.857142857143,4,2,11,24,0,0
10489,-142.857142857143,4,2,11,28,0,0
10823,-142.857142857143,4,2,11,20,0,0
10989,-142.857142857143,4,2,11,18,0,0
11156,-142.857142857143,4,2,11,16,0,0
11323,-142.857142857143,4,2,11,14,0,0
11489,-142.857142857143,4,2,11,12,0,0
11656,-142.857142857143,4,2,1,18,0,0
11989,-142.857142857143,4,2,1,24,0,0
12323,-142.857142857143,4,2,1,30,0,0
12656,-142.857142857143,4,2,1,36,0,0
12989,-142.857142857143,4,2,1,42,0,0
13156,-142.857142857143,4,2,1,5,0,0
13323,-100,4,2,1,52,0,0
15156,-100,4,2,1,44,0,0
15323,-100,4,2,1,52,0,0
15989,-100,4,2,1,56,0,0
16323,-100,4,2,1,44,0,0
16489,-100,4,2,1,50,0,0
16823,-100,4,2,1,52,0,0
17156,-100,4,2,1,56,0,0
17323,-100,4,2,1,52,0,0
17823,-100,4,2,1,56,0,0
17989,-100,4,2,1,54,0,0
18323,-100,4,2,1,50,0,0
18489,-100,4,2,1,52,0,0
18656,-125,4,2,1,54,0,0
19989,-142.857142857143,4,2,1,54,0,0
20989,-142.857142857143,4,2,1,56,0,0
21323,-142.857142857143,4,2,1,58,0,0
21823,-142.857142857143,4,2,1,60,0,0
22323,-142.857142857143,4,2,22,62,0,0
22489,-142.857142857143,4,2,1,62,0,0
22823,-142.857142857143,4,2,1,44,0,0
22989,-142.857142857143,4,2,1,46,0,0
23156,-142.857142857143,4,2,1,48,0,0
23323,-142.857142857143,4,2,1,54,0,0
23489,-142.857142857143,4,2,1,53,0,0
23573,-142.857142857143,4,2,1,52,0,0
23656,-142.857142857143,4,2,1,51,0,0
23739,-142.857142857143,4,2,1,50,0,0
23823,-142.857142857143,4,2,1,49,0,0
23906,-142.857142857143,4,2,1,48,0,0
23989,-166.666666666667,4,2,1,50,0,0
34656,-133.333333333333,4,2,1,52,0,0
36906,-133.333333333333,4,2,1,44,0,0
36989,-133.333333333333,4,2,1,52,0,0
37073,-133.333333333333,4,2,22,44,0,0
37156,-133.333333333333,4,2,22,52,0,0
37323,-133.333333333333,4,2,1,52,0,0
42989,-133.333333333333,4,2,22,56,0,0
43156,-133.333333333333,4,2,1,56,0,0
43656,-133.333333333333,4,2,1,50,0,0
43989,-133.333333333333,4,2,1,44,0,0
44156,-100,4,2,1,55,0,0
44656,-100,4,2,22,55,0,0
44823,-100,4,2,22,44,0,0
44989,-100,4,2,22,55,0,0
45073,-100,4,2,22,50,0,0
45323,-111.111111111111,4,2,1,60,0,0
49073,-111.111111111111,4,2,1,40,0,0
49156,-111.111111111111,4,2,1,60,0,0
49573,-111.111111111111,4,2,1,40,0,0
49656,-111.111111111111,4,2,22,60,0,0
50656,-111.111111111111,4,2,1,60,0,0
52739,-111.111111111111,4,2,1,52,0,0
52823,-111.111111111111,4,2,1,60,0,0
52906,-111.111111111111,4,2,1,52,0,0
52989,-111.111111111111,4,2,1,60,0,0
53323,-111.111111111111,4,2,1,62,0,0
54656,-111.111111111111,4,2,1,64,0,0
55906,-111.111111111111,4,2,1,40,0,0
55989,-111.111111111111,4,2,1,60,0,0
56156,-111.111111111111,4,2,1,50,0,0
56323,-111.111111111111,4,2,1,54,0,0
56656,-111.111111111111,4,2,1,56,0,0
56989,-125,4,2,1,60,0,0
57406,-111.111111111111,4,2,1,20,0,0
58656,-111.111111111111,4,2,1,30,0,0
58989,-111.111111111111,4,2,1,40,0,0
59323,-111.111111111111,4,2,1,50,0,0
59656,-111.111111111111,4,2,1,60,0,0
59989,-83.3333333333333,4,2,1,70,0,1
60239,-83.3333333333333,4,2,1,5,0,1
60323,-83.3333333333333,4,2,1,70,0,1
65573,-83.3333333333333,4,2,1,5,0,1
65656,-83.3333333333333,4,2,1,70,0,1
66656,-83.3333333333333,4,2,1,70,0,1
67906,-83.3333333333333,4,2,1,70,0,0
67989,-66.6666666666667,4,2,1,74,0,1
68156,-66.6666666666667,4,2,1,68,0,0
68489,-66.6666666666667,4,2,1,74,0,1
68656,-66.6666666666667,4,2,1,68,0,0
68989,-66.6666666666667,4,2,1,72,0,1
69156,-66.6666666666667,4,2,22,68,0,1
69323,-66.6666666666667,4,2,1,68,0,1
69489,-83.3333333333333,4,2,1,68,0,1
69823,-83.3333333333333,4,2,1,68,0,1
70156,-83.3333333333333,4,2,1,70,0,0
70656,-83.3333333333333,4,2,1,70,0,1
70906,-83.3333333333333,4,2,1,5,0,1
70989,-83.3333333333333,4,2,1,70,0,1
83156,-83.3333333333333,4,2,22,70,0,1
83989,-100,4,2,1,66,0,0
84156,-100,4,2,1,60,0,0
84489,-100,4,2,22,60,0,0
85489,-100,4,2,1,60,0,0
85989,-100,4,2,1,60,0,0
86156,-100,4,2,1,52,0,0
86656,-90.9090909090909,4,2,1,64,0,0
91767,-90.9090909090909,4,2,1,56,0,0
91823,-90.9090909090909,4,2,1,60,0,0
91906,-90.9090909090909,4,2,1,54,0,0
91989,-90.9090909090909,4,2,1,64,0,0
94156,-90.9090909090909,4,2,1,60,0,0
94239,-90.9090909090909,4,2,1,56,0,0
94323,-90.9090909090909,4,2,1,64,0,0
94489,-90.9090909090909,4,2,1,60,0,0
94572,-90.9090909090909,4,2,1,56,0,0
94656,-90.9090909090909,4,2,1,62,0,0
95989,-90.9090909090909,4,2,1,40,0,0
97323,-90.9090909090909,4,2,1,30,0,0
98656,-90.9090909090909,4,2,1,20,0,0
99989,-90.9090909090909,4,2,1,10,0,0
101323,-90.9090909090909,4,2,1,5,0,0

[Colours]
Combo1 : 250,190,230
Combo2 : 130,200,230
Combo3 : 255,230,140
Combo4 : 170,245,170

[HitObjects]
144,272,1156,6,0,L|144:240,1,27.9999991455078,2|2,0:0|0:0,0:0:0:0:
160,288,1323,2,0,L|224:288,1,55.9999982910157,2|2,0:3|0:0,0:0:0:0:
288,336,1656,1,2,0:0:0:0:
288,336,1823,1,2,0:0:0:0:
288,336,2323,1,2,0:3:0:0:
416,240,2656,2,0,L|416:160,1,55.9999982910157,2|2,0:0|0:0,0:0:0:0:
352,128,2989,1,2,0:0:0:0:
352,128,3156,2,0,L|272:128,1,55.9999982910157,2|0,0:0|0:0,0:0:0:0:
224,80,3489,2,0,L|144:80,2,55.9999982910157,2|2|2,0:3|0:0|0:0,0:0:0:0:
304,32,3989,6,0,L|384:32,1,55.9999982910157,2|2,0:0|0:0,0:0:0:0:
448,64,4323,1,2,0:0:0:0:
448,64,4489,1,2,0:0:0:0:
448,64,4989,2,0,L|448:128,1,55.9999982910157,2|2,0:0|0:0,0:0:0:0:
384,176,5323,2,0,L|304:176,2,55.9999982910157,2|2|2,0:3|0:0|0:0,0:0:0:0:
464,208,5823,1,2,0:0:0:0:
368,352,6156,2,0,L|432:352,2,55.9999982910157,2|2|2,0:0|0:0|0:0,0:0:0:0:
288,320,6656,6,0,L|232:320,1,55.9999982910157,2|2,0:3|0:0,0:0:0:0:
160,352,6989,2,0,L|104:352,1,55.9999982910157,2|2,0:0|0:0,0:0:0:0:
32,320,7323,2,0,L|32:264,1,55.9999982910157,2|2,0:0|0:0,0:0:0:0:
64,192,7656,2,0,L|64:136,1,55.9999982910157,2|2,0:0|0:3,0:0:0:0:
96,64,7989,2,0,L|176:64,2,55.9999982910157,2|2|2,0:3|0:0|0:0,0:0:0:0:
32,16,8489,1,2,0:3:0:0:
32,16,8989,1,2,0:3:0:0:
176,80,9323,6,0,L|240:80,2,55.9999982910157,2|2|2,0:3|0:0|0:0,0:0:0:0:
112,128,9823,2,0,L|48:128,2,55.9999982910157,2|2|2,0:3|0:0|0:0,0:0:0:0:
176,176,10323,1,2,0:0:0:0:
176,176,10489,1,2,0:0:0:0:
336,144,10823,1,2,0:0:0:0:
336,144,10989,1,2,0:0:0:0:
336,144,11156,1,2,0:0:0:0:
336,144,11323,1,2,0:0:0:0:
336,144,11489,1,2,0:3:0:0:
256,192,11656,12,0,13156,1:0:0:0:
64,128,13323,6,0,B|48:96|64:32,1,80,14|2,0:0|0:0,0:0:0:0:
144,192,13656,1,2,0:0:0:0:
224,144,13823,2,0,B|256:128|320:144,1,80,2|0,0:0|0:0,0:0:0:0:
384,224,14156,1,2,0:0:0:0:
480,160,14323,1,2,0:0:0:0:
400,80,14489,2,0,B|384:48|400:-16,1,80,2|0,0:0|0:0,0:0:0:0:
224,48,14823,2,0,B|256:32|320:48,1,80,2|0,0:0|0:0,0:0:0:0:
302,44,15156,1,2,0:0:0:0:
224,144,15323,2,0,B|192:128|128:144,1,80,2|2,0:0|0:0,0:0:0:0:
48,208,15656,1,10,0:3:0:0:
48,208,15823,1,10,0:3:0:0:
128,320,15990,6,0,B|208:288|304:304,1,160,12|0,0:0|0:0,0:0:0:0:
432,288,16490,2,0,B|384:288|352:256,2,80,2|2|2,0:0|0:0|0:0,0:0:0:0:
496,176,16989,2,0,B|448:176|416:208,1,80,2|2,0:0|0:0,0:0:0:0:
287,131,17323,2,0,B|336:144|352:176,1,80,2|2,0:0|0:0,0:0:0:0:
464,48,17656,2,0,B|451:96|416:112,1,80,2|2,0:0|0:0,0:0:0:0:
287,131,17989,2,0,B|274:83|239:67,2,80,2|2|2,0:0|0:0|0:0,0:0:0:0:
256,240,18489,1,2,0:3:0:0:
256,240,18573,1,2,0:3:0:0:
256,240,18656,6,0,B|224:288|224:320,1,64,14|10,0:0|0:3,0:0:0:0:
160,368,18990,1,10,0:3:0:0:
96,288,19156,2,0,B|80:240|64:208,2,64,2|2|0,0:3|0:0|0:0,0:0:0:0:
48,144,19656,1,10,0:3:0:0:
128,96,19823,1,10,0:3:0:0:
128,96,19906,1,10,0:3:0:0:
128,96,19989,2,0,B|160:96|192:80,1,55.9999982910157,10|8,0:0|0:3,0:0:0:0:
240,144,20323,2,0,B|272:144|304:160,1,55.9999982910157,10|10,0:3|0:3,0:0:0:0:
368,208,20656,2,0,B|400:208|432:192,1,55.9999982910157,10|10,0:3|0:0,0:0:0:0:
448,192,20906,1,8,0:0:0:0:
448,192,20989,2,0,B|459:169|459:137,1,55.9999982910157,10|10,0:3|0:0,0:0:0:0:
400,32,21323,5,10,0:3:0:0:
320,64,21489,2,0,B|288:64|256:48,1,55.9999982910157,10|10,0:2|0:2,0:0:0:0:
128,64,21823,1,10,0:3:0:0:
208,112,21989,1,10,0:2:0:0:
256,192,22156,1,10,0:2:0:0:
144,176,22323,1,10,0:3:0:0:
192,256,22489,1,14,0:0:0:0:
400,320,22823,2,0,L|464:320,2,55.9999982910157,10|10|2,0:3|0:3|0:3,0:0:0:0:
336,368,23323,1,10,0:3:0:0:
336,368,23406,1,2,0:0:0:0:
336,368,23489,1,10,0:3:0:0:
336,368,23573,1,2,0:0:0:0:
336,368,23656,1,10,0:3:0:0:
336,368,23739,1,2,0:0:0:0:
336,368,23823,1,2,0:0:0:0:
336,368,23906,1,2,0:0:0:0:
336,368,23989,6,0,B|304:336|240:336,2,95.9999970703126,14|10|10,0:3|0:3|0:3,0:0:0:0:
368,352,24823,1,2,0:0:0:0:
400,336,24989,1,10,0:3:0:0:
432,320,25156,2,0,B|432:288|448:256,1,47.9999985351563,2|8,0:0|0:3,0:0:0:0:
464,192,25489,1,2,0:0:0:0:
432,160,25656,1,10,0:3:0:0:
400,128,25823,2,0,B|368:128|336:112,1,47.9999985351563,2|8,0:0|0:3,0:0:0:0:
272,80,26156,1,2,0:0:0:0:
288,48,26323,1,10,0:3:0:0:
320,32,26490,2,0,B|352:32|384:16,1,47.9999985351563,2|8,0:0|0:3,0:0:0:0:
208,32,26989,6,0,B|160:32|96:0,2,95.9999970703126,10|10|10,0:3|0:3|0:3,0:0:0:0:
176,112,27823,2,0,B|144:112|112:128,1,47.9999985351563,2|8,0:0|0:3,0:0:0:0:
64,192,28156,1,2,0:0:0:0:
80,224,28323,1,10,0:3:0:0:
96,256,28489,2,0,B|96:288|80:320,1,47.9999985351563,2|8,0:0|0:3,0:0:0:0:
224,368,28989,1,10,0:3:0:0:
368,304,29323,5,10,0:3:0:0:
368,304,29489,2,0,B|384:288|384:256,1,47.9999985351563,2|8,0:0|0:3,0:0:0:0:
448,224,29823,2,0,B|448:208|432:176,1,47.9999985351563,2|8,0:0|0:3,0:0:0:0:
464,112,30156,2,0,B|452:100|418:89,1,47.9999985351563,2|8,0:0|0:3,0:0:0:0:
336,64,30489,1,2,0:0:0:0:
304,80,30656,1,10,0:3:0:0:
272,96,30823,1,2,0:0:0:0:
240,112,30989,1,10,0:3:0:0:
208,128,31156,2,0,B|177:118|165:106,1,47.9999985351563,2|8,0:0|0:3,0:0:0:0:
64,32,31656,1,10,0:3:0:0:
0,160,31989,6,0,B|32:208|32:272,1,95.9999970703126,10|8,0:3|0:3,0:0:0:0:
16,336,32489,1,2,0:0:0:0:
48,352,32656,2,0,B|96:336|160:336,1,95.9999970703126,10|8,0:3|0:3,0:0:0:0:
240,352,33156,1,2,0:3:0:0:
288,288,33323,1,10,0:3:0:0:
240,224,33489,1,2,0:3:0:0:
304,176,33656,1,10,0:3:0:0:
240,128,33823,1,10,0:2:0:0:
304,80,33989,1,12,0:3:0:0:
240,32,34156,2,0,L|208:32,2,23.9999992675781,8|8|8,0:0|0:0|0:0,0:0:0:0:
368,32,34489,5,8,0:3:0:0:
368,32,34573,1,8,0:3:0:0:
368,32,34656,2,0,B|432:48|496:32,2,120.000004577637,14|10|10,0:3|0:0|0:3,0:0:0:0:
272,48,35489,1,10,0:0:0:0:
336,112,35656,1,10,0:3:0:0:
240,128,35823,2,0,B|176:112|112:128,1,120.000004577637,14|10,0:3|0:3,0:0:0:0:
48,192,36323,1,10,0:0:0:0:
128,256,36489,2,0,B|160:272|208:256,1,60.0000022888184,2|8,0:0|0:3,0:0:0:0:
272,224,36823,2,0,L|320:208,1,30.0000011444092,10|8,0:3|0:0,0:0:0:0:
352,224,36989,2,0,L|400:208,1,30.0000011444092,10|8,0:0|0:3,0:0:0:0:
432,224,37156,1,14,0:3:0:0:
448,352,37323,5,12,0:3:0:0:
272,224,37656,2,0,B|240:208|192:208,1,60.0000022888184,10|8,0:0|0:3,0:0:0:0:
128,256,37989,1,10,0:3:0:0:
64,176,38156,2,0,B|80:144|80:96,1,60.0000022888184,10|8,0:3|0:0,0:0:0:0:
16,32,38489,2,0,B|80:48|160:16,1,120.000004577637,6|2,0:3|0:0,0:0:0:0:
208,80,38989,2,0,B|272:64|352:96,1,120.000004577637,10|8,0:0|0:3,0:0:0:0:
400,160,39489,1,10,0:3:0:0:
432,64,39656,1,10,0:0:0:0:
512,144,39823,1,10,0:3:0:0:
512,144,39906,1,8,0:3:0:0:
512,144,39989,6,0,B|512:176|496:224,1,60.0000022888184,12|2,0:3|0:3,0:0:0:0:
448,272,40323,1,10,0:0:0:0:
352,240,40489,2,0,B|320:224|272:224,1,60.0000022888184,2|8,0:0|0:3,0:0:0:0:
208,272,40823,1,10,0:3:0:0:
112,240,40989,1,10,0:0:0:0:
192,176,41156,2,0,B|224:96|192:32,1,120.000004577637,14|8,0:3|0:3,0:0:0:0:
112,16,41656,1,10,0:0:0:0:
32,80,41823,2,0,B|16:112|16:160,2,60.0000022888184,2|8|0,0:0|0:3|0:0,0:0:0:0:
64,112,42239,1,8,0:0:0:0:
64,112,42323,2,0,B|96:127|144:128,1,60.0000022888184,8|2,0:3|0:0,0:0:0:0:
176,144,42573,1,8,0:3:0:0:
176,144,42656,5,14,0:3:0:0:
304,288,42989,1,10,0:3:0:0:
384,224,43156,2,0,B|416:208|448:208,1,60.0000022888184,12|2,0:3|0:0,0:0:0:0:
256,128,43656,2,0,L|256:8,1,120.000004577637,12|0,0:3|0:0,0:0:0:0:
144,64,44156,2,0,B|96:64|64:32,2,80,8|10|8,0:3|0:3|0:3,0:0:0:0:
256,128,44656,2,0,B|304:128|336:160,1,80,10|6,0:3|0:3,0:0:0:0:
368,256,44989,1,10,0:3:0:0:
368,256,45073,1,8,0:3:0:0:
368,256,45156,1,10,0:3:0:0:
368,256,45239,1,8,0:3:0:0:
368,256,45323,6,0,B|432:272|512:224,1,143.999995605469,14|10,0:3|0:3,0:0:0:0:
448,128,45823,2,0,B|416:112|400:64,1,71.9999978027344,2|8,0:0|0:0,0:0:0:0:
288,48,46156,2,0,B|208:64|144:16,1,143.999995605469,10|10,0:3|0:3,0:0:0:0:
150,20,46656,1,2,0:0:0:0:
96,128,46823,2,0,B|176:112|240:160,1,143.999995605469,2|10,0:0|0:3,0:0:0:0:
233,155,47323,1,8,0:0:0:0:
224,272,47489,2,0,B|144:288|80:240,1,143.999995605469,8|2,0:3|0:3,0:0:0:0:
0,160,47989,6,0,B|36:86|6:12,2,143.999995605469,10|10|10,0:3|0:3|0:0,0:0:0:0:
0,160,48823,1,8,0:3:0:0:
16,272,48989,2,0,L|64:256,1,35.9999989013672,2|2,0:0|0:0,0:0:0:0:
48,288,49156,2,0,L|128:304,1,71.9999978027344,10|0,0:3|0:0,0:0:0:0:
224,336,49489,2,0,L|272:352,1,35.9999989013672,10|8,0:0|0:0,0:0:0:0:
256,320,49656,2,0,L|336:304,1,71.9999978027344,8|8,0:3|0:3,0:0:0:0:
432,352,49989,2,0,L|448:256,1,71.9999978027344,14|0,0:3|0:0,0:0:0:0:
400,176,50323,2,0,L|416:80,1,71.9999978027344,10|10,0:3|0:3,0:0:0:0:
288,32,50656,6,0,B|207:47|143:0,1,143.999995605469,14|10,0:3|0:3,0:0:0:0:
48,48,51156,2,0,B|80:80|96:128,1,71.9999978027344,2|8,0:0|0:3,0:0:0:0:
64,224,51489,1,2,0:0:0:0:
144,192,51656,1,10,0:3:0:0:
192,272,51823,1,2,0:0:0:0:
272,224,51989,2,0,B|336:176|409:197,1,143.999995605469,8|8,0:0|0:3,0:0:0:0:
512,208,52489,2,0,B|480:176|464:128,2,71.9999978027344,2|10|2,0:0|0:3|0:0,0:0:0:0:
512,80,52989,1,10,0:3:0:0:
336,80,53323,6,0,L|256:64,1,71.9999978027344,14|8,0:0|0:3,0:0:0:0:
112,32,53656,2,0,L|192:48,1,71.9999978027344,8|8,0:2|0:3,0:0:0:0:
320,160,53989,2,0,L|240:144,1,71.9999978027344,8|8,0:2|0:3,0:0:0:0:
96,112,54322,2,0,L|176:128,1,71.9999978027344,8|10,0:2|0:3,0:0:0:0:
256,320,54656,5,14,0:0:0:0:
256,320,54823,1,8,0:3:0:0:
192,240,54989,1,8,0:2:0:0:
192,240,55156,1,8,0:3:0:0:
256,320,55323,1,8,0:2:0:0:
256,320,55489,1,8,0:3:0:0:
192,240,55656,1,8,0:2:0:0:
192,240,55823,1,8,0:3:0:0:
320,256,55989,6,0,L|400:240,1,71.9999978027344,10|8,0:0|0:0,0:0:0:0:
432,208,56239,1,8,0:0:0:0:
432,208,56323,2,0,L|448:112,1,71.9999978027344,10|8,0:2|0:0,0:0:0:0:
432,96,56573,1,8,0:0:0:0:
432,96,56656,2,0,L|416:0,1,71.9999978027344,10|8,0:0|0:0,0:0:0:0:
368,16,56906,1,8,0:0:0:0:
368,16,56989,1,10,0:0:0:0:
352,32,57073,1,8,0:0:0:0:
336,48,57156,1,8,0:0:0:0:
320,64,57239,1,8,0:0:0:0:
304,80,57323,1,6,0:0:0:0:
256,192,57406,12,8,59656,1:1:0:0:
96,208,59989,6,0,B|96:96|64:16,2,191.999994140625,14|8|10,0:3|0:0|0:3,0:0:0:0:
96,240,60739,1,2,0:3:0:0:
112,272,60823,1,10,0:3:0:0:
144,288,60906,1,2,0:3:0:0:
176,288,60989,2,0,B|224:256|304:272,1,95.9999970703126,10|0,0:0|0:0,0:0:0:0:
512,240,61323,2,0,B|400:272|336:176,1,191.999994140625,14|10,0:3|0:0,0:0:0:0:
384,80,61823,1,10,0:3:0:0:
384,80,61906,2,0,L|400:0,1,47.9999985351563,8|0,0:0|0:0,0:0:0:0:
208,96,62156,2,0,B|272:80|320:128,1,95.9999970703126,10|8,0:3|0:0,0:0:0:0:
144,160,62489,5,2,0:0:0:0:
144,160,62573,1,2,0:0:0:0:
144,160,62656,2,0,B|80:176|32:128,1,95.9999970703126,8|0,0:3|0:0,0:0:0:0:
256,272,62989,2,0,B|272:208|224:160,1,95.9999970703126,10|0,0:0|0:0,0:0:0:0:
336,368,63323,2,0,B|336:301|400:272,1,95.9999970703126,10|8,0:3|0:3,0:0:0:0:
512,128,63656,1,12,0:0:0:0:
368,176,63823,1,10,0:3:0:0:
368,176,63906,1,10,0:3:0:0:
368,176,63989,2,0,B|434:176|464:240,1,95.9999970703126,10|8,0:3|0:3,0:0:0:0:
288,240,64323,1,8,0:0:0:0:
288,112,64489,1,8,0:3:0:0:
288,112,64573,2,0,L|304:32,1,47.9999985351563,8|0,0:0|0:0,0:0:0:0:
480,64,64823,2,0,B|432:96|368:80,1,95.9999970703126,10|8,0:3|0:2,0:0:0:0:
224,16,65156,1,10,0:2:0:0:
128,176,65323,5,14,0:3:0:0:
448,336,65656,1,10,0:0:0:0:
336,208,65823,1,2,0:0:0:0:
336,208,65906,1,2,0:0:0:0:
336,208,65989,2,0,B|384:256|368:320,1,95.9999970703126,8|8,0:3|0:3,0:0:0:0:
496,128,66323,1,10,0:0:0:0:
496,128,66406,1,8,0:3:0:0:
496,128,66489,1,8,0:3:0:0:
496,128,66573,1,8,0:3:0:0:
496,128,66656,2,0,B|448:160|448:224,1,95.9999970703126,2|8,0:0|0:3,0:0:0:0:
320,48,66989,2,0,B|384:80|384:160,1,95.9999970703126,10|8,0:0|0:3,0:0:0:0:
224,80,67323,2,0,B|192:144|224:208,1,95.9999970703126,2|8,0:3|0:3,0:0:0:0:
48,144,67656,2,0,B|112:160|128:224,1,95.9999970703126,10|8,0:0|0:3,0:0:0:0:
272,368,67989,6,0,B|176:288|16:304,1,240.000009155274,14|8,0:0|0:3,0:0:0:0:
32,16,68489,2,0,B|128:96|288:80,1,240.000009155274,14|8,0:2|0:3,0:0:0:0:
432,32,68989,1,14,0:0:0:0:
448,128,69156,1,8,0:3:0:0:
416,224,69323,1,8,0:3:0:0:
352,96,69489,1,8,0:3:0:0:
352,96,69573,1,8,0:3:0:0:
352,96,69656,1,8,0:0:0:0:
288,176,69823,1,8,0:0:0:0:
288,176,69906,1,8,0:0:0:0:
288,176,69989,1,10,0:0:0:0:
224,96,70156,1,10,0:2:0:0:
224,96,70239,1,8,0:2:0:0:
224,96,70323,1,10,0:2:0:0:
224,96,70406,1,8,0:2:0:0:
224,96,70489,1,10,0:2:0:0:
224,96,70573,1,8,0:2:0:0:
224,96,70656,6,0,B|160:48|32:48,2,191.999994140625,14|8|10,0:3|0:0|0:3,0:0:0:0:
240,128,71406,1,2,0:0:0:0:
256,160,71489,1,2,0:0:0:0:
288,176,71573,1,2,0:0:0:0:
320,176,71656,2,0,B|368:144|448:160,1,95.9999970703126,10|0,0:0|0:0,0:0:0:0:
512,32,71989,2,0,B|464:96|464:224,1,191.999994140625,14|10,0:3|0:0,0:0:0:0:
432,368,72489,2,0,B|432:304|384:256,1,95.9999970703126,2|8,0:0|0:3,0:0:0:0:
240,320,72823,2,0,B|272:256|336:240,1,95.9999970703126,2|8,0:0|0:0,0:0:0:0:
352,96,73156,5,2,0:0:0:0:
352,96,73239,1,2,0:0:0:0:
352,96,73323,2,0,B|384:144|368:224,1,95.9999970703126,8|0,0:3|0:0,0:0:0:0:
192,128,73656,2,0,B|224:64|288:48,1,95.9999970703126,10|0,0:0|0:3,0:0:0:0:
304,256,73989,2,0,B|240:256|192:208,1,95.9999970703126,10|8,0:3|0:3,0:0:0:0:
64,96,74323,1,14,0:0:0:0:
48,224,74490,1,6,0:0:0:0:
48,224,74573,1,2,0:0:0:0:
48,224,74656,2,0,B|112:224|160:176,1,95.9999970703126,2|8,0:0|0:3,0:0:0:0:
272,160,74989,1,8,0:0:0:0:
400,272,75156,1,12,0:0:0:0:
416,80,75323,2,0,B|368:128|384:208,1,95.9999970703126,2|8,0:0|0:3,0:0:0:0:
304,288,75656,2,0,L|224:272,1,47.9999985351563,10|8,0:0|0:0,0:0:0:0:
192,320,75823,2,0,L|128:304,1,47.9999985351563,10|8,0:0|0:0,0:0:0:0:
80,192,75989,6,0,B|112:272|112:384,1,191.999994140625,14|8,0:3|0:0,0:0:0:0:
240,240,76489,1,10,0:3:0:0:
240,240,76573,1,8,0:3:0:0:
240,240,76656,2,0,B|192:288|208:368,1,95.9999970703126,8|10,0:0|0:3,0:0:0:0:
336,208,76989,2,0,B|400:208|432:272,1,95.9999970703126,10|10,0:0|0:3,0:0:0:0:
336,96,77323,2,0,B|400:96|448:32,1,95.9999970703126,10|10,0:0|0:3,0:0:0:0:
272,16,77656,1,10,0:0:0:0:
128,128,77823,1,10,0:3:0:0:
128,128,77906,1,8,0:3:0:0:
128,128,77989,1,8,0:0:0:0:
112,32,78156,2,0,B|176:32|224:96,1,95.9999970703126,10|10,0:3|0:0,0:0:0:0:
176,224,78489,5,10,0:3:0:0:
176,224,78573,1,8,0:3:0:0:
176,224,78656,1,8,0:0:0:0:
320,128,78823,2,0,B|256:128|208:192,2,95.9999970703126,10|10|10,0:3|0:0|0:3,0:0:0:0:
352,272,79323,1,10,0:0:0:0:
256,352,79489,1,10,0:3:0:0:
256,352,79573,1,8,0:3:0:0:
256,352,79656,1,8,0:0:0:0:
112,256,79823,2,0,B|176:240|224:304,2,95.9999970703126,10|10|10,0:3|0:0|0:3,0:0:0:0:
64,352,80323,1,10,0:0:0:0:
64,176,80489,1,10,0:3:0:0:
64,176,80573,1,8,0:3:0:0:
64,176,80656,1,8,0:0:0:0:
112,256,80823,2,0,B|48:288|-16:240,1,95.9999970703126,10|8,0:3|0:0,0:0:0:0:
128,96,81156,5,10,0:3:0:0:
128,96,81239,1,8,0:3:0:0:
128,96,81323,2,0,B|192:64|256:112,1,95.9999970703126,12|8,0:0|0:3,0:0:0:0:
288,32,81656,2,0,B|352:48|368:128,1,95.9999970703126,8|8,0:3|0:3,0:0:0:0:
446,99,81989,1,2,0:0:0:0:
446,99,82073,1,2,0:0:0:0:
446,99,82156,2,0,B|480:160|432:224,1,95.9999970703126,10|2,0:3|0:0,0:0:0:0:
304,256,82489,2,0,B|276:193|320:128,1,95.9999970703126,10|8,0:3|0:0,0:0:0:0:
400,272,82823,1,10,0:0:0:0:
336,352,82989,1,2,0:0:0:0:
240,336,83156,2,0,B|176:304|112:336,1,95.9999970703126,10|0,0:3|0:0,0:0:0:0:
0,288,83489,1,10,0:3:0:0:
96,256,83656,1,14,0:3:0:0:
128,160,83823,1,10,0:3:0:0:
16,32,83989,6,0,B|48:112|48:192,1,160,6|2,0:0|0:0,0:0:0:0:
192,240,84489,1,8,0:3:0:0:
192,240,84573,1,8,0:3:0:0:
192,240,84656,2,0,B|240:224|304:224,1,80,12|0,0:3|0:0,0:0:0:0:
384,240,84989,1,2,0:0:0:0:
480,176,85156,1,2,0:0:0:0:
480,176,85240,1,2,0:0:0:0:
480,176,85323,2,0,B|434:153|389:108,2,80,10|8|2,0:3|0:3|0:0,0:0:0:0:
480,336,85823,1,2,0:0:0:0:
480,336,85906,1,2,0:0:0:0:
480,336,85989,2,0,B|480:305|464:256,1,80,10|0,0:0|0:3,0:0:0:0:
336,320,86323,1,10,0:3:0:0:
336,320,86489,1,10,0:3:0:0:
208,208,86656,6,0,B|246:208|294:192,1,88.000002685547,14|2,0:0|0:0,0:0:0:0:
368,48,86989,1,10,0:3:0:0:
272,80,87156,2,0,B|224:80|176:64,1,88.000002685547,2|8,0:0|0:3,0:0:0:0:
32,96,87489,1,2,0:0:0:0:
96,32,87656,1,10,0:3:0:0:
128,176,87823,2,0,B|176:160|214:160,1,88.000002685547,2|8,0:0|0:3,0:0:0:0:
320,208,88156,1,2,0:0:0:0:
352,128,88323,1,8,0:3:0:0:
432,96,88489,1,2,0:0:0:0:
496,224,88656,2,0,B|448:208|410:208,1,88.000002685547,10|0,0:3|0:0,0:0:0:0:
304,304,88989,1,10,0:3:0:0:
304,304,89156,1,10,0:3:0:0:
144,208,89323,6,0,B|192:128|208:32,1,176.000005371094,14|10,0:0|0:3,0:0:0:0:
384,48,89823,2,0,B|346:48|298:32,2,88.000002685547,2|10|2,0:0|0:3|0:0,0:0:0:0:
272,160,90323,2,0,B|320:144|358:144,1,88.000002685547,10|2,0:3|0:0,0:0:0:0:
432,272,90656,2,0,B|384:256|346:256,1,88.000002685547,10|2,0:3|0:0,0:0:0:0:
224,352,90989,1,10,0:3:0:0:
160,256,91156,2,0,B|208:272|246:272,1,88.000002685547,2|10,0:0|0:3,0:0:0:0:
400,352,91489,2,0,B|352:336|314:336,1,88.000002685547,2|10,0:0|0:3,0:0:0:0:
288,192,91823,1,10,0:0:0:0:
416,144,91989,6,0,B|432:96|432:58,1,88.000002685547,14|10,0:2|0:3,0:0:0:0:
288,192,92323,1,10,0:3:0:0:
208,128,92489,2,0,B|192:80|192:42,1,88.000002685547,2|8,0:0|0:3,0:0:0:0:
128,192,92823,1,2,0:0:0:0:
48,144,92989,1,10,0:3:0:0:
16,256,93156,2,0,B|32:304|32:342,1,88.000002685547,10|8,0:3|0:0,0:0:0:0:
160,288,93489,1,2,0:0:0:0:
240,336,93656,1,10,0:3:0:0:
336,272,93823,2,0,B|352:224|352:186,1,88.000002685547,10|8,0:3|0:3,0:0:0:0:
288,96,94156,2,0,L|272:32,1,44.0000013427735,10|8,0:0|0:0,0:0:0:0:
352,16,94323,1,10,0:2:0:0:
448,128,94489,2,0,L|464:64,1,44.0000013427735,10|8,0:0|0:0,0:0:0:0:
512,32,94656,5,14,0:3:0:0:
448,128,94823,2,0,B|400:128|352:96,1,88.000002685547,10|10,0:0|0:0,0:0:0:0:
272,176,95156,1,10,0:0:0:0:
208,112,95323,1,10,0:0:0:0:
160,208,95489,1,10,0:0:0:0:
96,112,95656,1,10,0:0:0:0:
48,224,95823,2,0,L|40:257,3,29.3333342285157,8|2|2|4,0:2|0:0|0:2|0:0,0:0:0:0:
256,192,96073,12,0,98656,1:0:0:0:
