osu file format v14

[General]
AudioFilename: audio.mp3
AudioLeadIn: 0
PreviewTime: 59489
Countdown: 1
SampleSet: Soft
StackLeniency: 0.4
Mode: 0
LetterboxInBreaks: 0
WidescreenStoryboard: 1

[Editor]
DistanceSpacing: 1
BeatDivisor: 4
GridSize: 16
TimelineZoom: 2.6

[Metadata]
Title:Haruoto*Veil
TitleUnicode:春音*ベール
Artist:Ceui
ArtistUnicode:Ceui
Creator:Lasse
Version:Bloom
Source:春音アリス*グラム
Tags:Haruoto Alice * Gram opening short version spring is just around the corner eroge visual novel NanaWind _83 bor
BeatmapID:1398612
BeatmapSetID:660512

[Difficulty]
HPDrainRate:7
CircleSize:4.3
OverallDifficulty:8.7
ApproachRate:9.2
SliderMultiplier:1.92
SliderTickRate:1

[Events]
//Background and Video events
0,0,"bg.jpg",0,0
//Break Periods
//Storyboard Layer 0 (Background)
//Storyboard Layer 1 (Fail)
//Storyboard Layer 2 (Pass)
//Storyboard Layer 3 (Foreground)
//Storyboard Sound Samples

[TimingPoints]
-10,333.333333333333,4,2,11,30,1,0
1156,-200,4,2,11,30,0,0
2323,-200,4,2,11,34,0,0
2656,-200,4,2,11,30,0,0
3489,-200,4,2,11,34,0,0
3656,-200,4,2,11,30,0,0
5323,-200,4,2,11,34,0,0
6156,-200,4,2,11,30,0,0
6656,-200,4,2,11,32,0,0
7323,-200,4,2,11,28,0,0
7656,-200,4,2,11,30,0,0
7823,-200,4,2,11,32,0,0
7989,-200,4,2,11,34,0,0
8156,-200,4,2,11,24,0,0
8489,-200,4,2,11,32,0,0
8989,-200,4,2,11,32,0,0
9323,-200,4,2,11,30,0,0
9489,-200,4,2,11,28,0,0
9823,-200,4,2,11,32,0,0
9989,-200,4,2,11,24,0,0
10489,-200,4,2,11,28,0,0
10823,-200,4,2,11,20,0,0
10989,-200,4,2,11,18,0,0
11156,-200,4,2,11,16,0,0
11323,-200,4,2,11,14,0,0
11489,-200,4,2,11,12,0,0
11656,-200,4,2,1,18,0,0
11989,-200,4,2,1,24,0,0
12323,-200,4,2,1,30,0,0
12656,-200,4,2,1,36,0,0
12989,-200,4,2,1,42,0,0
13156,-200,4,2,1,5,0,0
13323,-100,4,2,1,52,0,0
15156,-100,4,2,1,44,0,0
15323,-100,4,2,1,52,0,0
15989,-100,4,2,1,56,0,0
16323,-100,4,2,1,44,0,0
16489,-100,4,2,1,50,0,0
16823,-100,4,2,1,52,0,0
17156,-100,4,2,1,56,0,0
17323,-100,4,2,1,52,0,0
17823,-100,4,2,1,56,0,0
17989,-100,4,2,1,54,0,0
18323,-100,4,2,1,50,0,0
18489,-100,4,2,1,52,0,0
18656,-125,4,2,1,54,0,0
19989,-142.857142857143,4,2,1,54,0,0
20989,-142.857142857143,4,2,1,56,0,0
21323,-142.857142857143,4,2,1,58,0,0
21823,-142.857142857143,4,2,1,60,0,0
22323,-142.857142857143,4,2,22,62,0,0
22489,-142.857142857143,4,2,1,62,0,0
22823,-142.857142857143,4,2,1,44,0,0
22989,-142.857142857143,4,2,1,46,0,0
23156,-142.857142857143,4,2,1,48,0,0
23323,-142.857142857143,4,2,1,54,0,0
23489,-142.857142857143,4,2,1,53,0,0
23573,-142.857142857143,4,2,1,52,0,0
23656,-142.857142857143,4,2,1,51,0,0
23739,-142.857142857143,4,2,1,50,0,0
23823,-142.857142857143,4,2,1,49,0,0
23906,-142.857142857143,4,2,1,48,0,0
23989,-166.666666666667,4,2,1,50,0,0
33989,-166.666666666667,4,2,1,36,0,0
34156,-166.666666666667,4,2,1,50,0,0
34656,-133.333333333333,4,2,1,52,0,0
36906,-133.333333333333,4,2,1,44,0,0
36989,-133.333333333333,4,2,1,52,0,0
37073,-133.333333333333,4,2,22,44,0,0
37156,-133.333333333333,4,2,22,52,0,0
37323,-133.333333333333,4,2,1,52,0,0
42989,-133.333333333333,4,2,22,56,0,0
43156,-133.333333333333,4,2,1,56,0,0
43656,-133.333333333333,4,2,1,50,0,0
43989,-133.333333333333,4,2,1,44,0,0
44156,-100,4,2,1,55,0,0
44656,-100,4,2,22,55,0,0
44823,-100,4,2,22,44,0,0
44989,-100,4,2,22,55,0,0
45073,-100,4,2,22,50,0,0
45323,-111.111111111111,4,2,1,60,0,0
49073,-111.111111111111,4,2,1,40,0,0
49156,-111.111111111111,4,2,1,60,0,0
49573,-111.111111111111,4,2,1,40,0,0
49656,-111.111111111111,4,2,22,60,0,0
50656,-111.111111111111,4,2,1,60,0,0
52739,-111.111111111111,4,2,1,52,0,0
52823,-111.111111111111,4,2,1,60,0,0
52906,-111.111111111111,4,2,1,52,0,0
52989,-111.111111111111,4,2,1,60,0,0
53323,-111.111111111111,4,2,1,62,0,0
54656,-111.111111111111,4,2,1,64,0,0
55906,-111.111111111111,4,2,1,40,0,0
55989,-111.111111111111,4,2,1,60,0,0
56156,-111.111111111111,4,2,1,50,0,0
56323,-111.111111111111,4,2,1,54,0,0
56656,-111.111111111111,4,2,1,56,0,0
56989,-125,4,2,1,60,0,0
57406,-111.111111111111,4,2,1,20,0,0
58656,-111.111111111111,4,2,1,30,0,0
58989,-111.111111111111,4,2,1,40,0,0
59323,-111.111111111111,4,2,1,50,0,0
59656,-111.111111111111,4,2,1,60,0,0
59989,-83.3333333333333,4,2,1,70,0,1
60239,-83.3333333333333,4,2,1,5,0,1
60323,-83.3333333333333,4,2,1,70,0,1
65573,-83.3333333333333,4,2,1,5,0,1
65656,-83.3333333333333,4,2,1,70,0,1
66656,-83.3333333333333,4,2,1,70,0,1
67906,-83.3333333333333,4,2,1,70,0,0
67989,-66.6666666666667,4,2,1,74,0,1
68156,-66.6666666666667,4,2,1,68,0,0
68489,-66.6666666666667,4,2,1,74,0,1
68656,-66.6666666666667,4,2,1,68,0,0
68989,-66.6666666666667,4,2,1,72,0,1
69156,-66.6666666666667,4,2,22,68,0,1
69323,-66.6666666666667,4,2,1,68,0,1
69489,-83.3333333333333,4,2,1,68,0,1
69823,-83.3333333333333,4,2,1,68,0,1
70156,-83.3333333333333,4,2,1,70,0,0
70656,-83.3333333333333,4,2,1,70,0,1
70906,-83.3333333333333,4,2,1,5,0,1
70989,-83.3333333333333,4,2,1,70,0,1
83156,-83.3333333333333,4,2,22,70,0,1
83989,-100,4,2,1,66,0,0
84156,-100,4,2,1,60,0,0
84489,-100,4,2,22,60,0,0
85489,-100,4,2,1,60,0,0
85989,-100,4,2,1,60,0,0
86156,-100,4,2,1,52,0,0
86656,-90.9090909090909,4,2,1,64,0,0
91767,-90.9090909090909,4,2,1,56,0,0
91823,-90.9090909090909,4,2,1,60,0,0
91906,-90.9090909090909,4,2,1,54,0,0
91989,-90.9090909090909,4,2,1,64,0,0
94156,-90.9090909090909,4,2,1,60,0,0
94239,-90.9090909090909,4,2,1,56,0,0
94323,-90.9090909090909,4,2,1,64,0,0
94489,-90.9090909090909,4,2,1,60,0,0
94572,-90.9090909090909,4,2,1,56,0,0
94656,-90.9090909090909,4,2,1,62,0,0
95989,-90.9090909090909,4,2,1,40,0,0
97323,-90.9090909090909,4,2,1,30,0,0
98656,-90.9090909090909,4,2,1,20,0,0
99989,-90.9090909090909,4,2,1,10,0,0
101323,-90.9090909090909,4,2,1,5,0,0

[Colours]
Combo1 : 250,190,230
Combo2 : 130,200,230
Combo3 : 255,230,140
Combo4 : 170,245,170

[HitObjects]
103,288,1156,6,0,L|66:288,2,24,2|2|2,0:0|0:0|0:3,0:0:0:0:
175,262,1489,1,2,0:0:0:0:
188,186,1656,1,2,0:0:0:0:
128,136,1823,1,2,0:0:0:0:
128,136,2323,5,2,0:3:0:0:
175,262,2656,5,2,0:0:0:0:
188,186,2823,1,2,0:0:0:0:
260,159,2989,1,2,0:0:0:0:
319,207,3156,1,2,0:0:0:0:
439,305,3489,5,2,0:3:0:0:
366,331,3656,1,2,0:0:0:0:
307,282,3823,1,2,0:0:0:0:
319,207,3989,1,2,0:0:0:0:
390,180,4156,1,2,0:0:0:0:
451,230,4323,1,2,0:0:0:0:
439,305,4489,1,2,0:0:0:0:
439,305,4989,5,2,0:0:0:0:
379,256,5156,1,2,0:0:0:0:
390,180,5323,1,2,0:3:0:0:
462,152,5489,1,2,0:0:0:0:
474,76,5656,1,2,0:0:0:0:
414,28,5823,1,2,0:0:0:0:
329,131,6156,5,2,0:0:0:0:
390,180,6323,1,2,0:0:0:0:
462,152,6489,1,2,0:0:0:0:
474,76,6656,5,2,0:3:0:0:
462,152,6823,1,2,0:0:0:0:
390,180,6989,1,2,0:0:0:0:
329,131,7156,1,2,0:0:0:0:
257,160,7323,1,2,0:0:0:0:
246,236,7489,1,2,0:0:0:0:
306,283,7656,1,2,0:0:0:0:
376,254,7823,1,2,0:3:0:0:
390,180,7989,6,0,L|410:116,2,48,2|2|2,0:3|0:0|0:0,0:0:0:0:
315,205,8489,1,2,0:3:0:0:
315,205,8989,5,2,0:3:0:0:
237,314,9323,5,2,0:3:0:0:
216,301,9489,1,2,0:0:0:0:
192,296,9656,1,2,0:0:0:0:
121,326,9823,1,2,0:3:0:0:
57,283,9989,1,2,0:0:0:0:
54,268,10156,1,2,0:0:0:0:
56,253,10323,1,2,0:0:0:0:
21,184,10489,1,2,0:0:0:0:
171,216,10823,5,2,0:0:0:0:
179,220,10989,1,2,0:0:0:0:
188,221,11156,1,2,0:0:0:0:
197,221,11323,1,2,0:0:0:0:
206,219,11489,1,2,0:3:0:0:
256,192,11656,12,0,13156,1:0:0:0:
310,298,13323,5,14,0:0:0:0:
357,193,13489,1,2,0:0:0:0:
272,114,13656,1,2,0:0:0:0:
171,171,13823,2,0,L|68:182,1,96,2|0,0:0|0:0,0:0:0:0:
193,284,14156,5,2,0:0:0:0:
171,171,14323,1,2,0:0:0:0:
272,114,14489,2,0,L|377:108,1,96,2|0,0:0|0:0,0:0:0:0:
174,55,14823,2,0,L|70:42,1,96,2|0,0:0|0:0,0:0:0:0:
78,43,15156,1,2,0:0:0:0:
171,171,15323,5,2,0:0:0:0:
76,181,15489,1,2,0:0:0:0:
193,284,15656,1,10,0:3:0:0:
115,336,15823,1,10,0:3:0:0:
381,269,15989,6,0,B|363:222|315:204|315:204|291:249|309:296,1,192,12|0,0:0|0:0,0:0:0:0:
216,365,16489,5,2,0:0:0:0:
115,336,16656,1,2,0:0:0:0:
53,262,16823,1,2,0:0:0:0:
39,177,16989,1,2,0:0:0:0:
32,61,17156,1,2,0:0:0:0:
50,161,17323,5,2,0:0:0:0:
134,179,17489,1,2,0:0:0:0:
206,132,17656,1,2,0:0:0:0:
225,18,17823,1,2,0:0:0:0:
206,151,17989,5,2,0:0:0:0:
286,108,18156,1,2,0:0:0:0:
399,132,18323,1,2,0:0:0:0:
440,216,18489,1,2,0:3:0:0:
443,235,18573,1,2,0:0:0:0:
446,253,18656,5,14,0:0:0:0:
425,327,18823,1,10,0:3:0:0:
357,364,18989,1,10,0:3:0:0:
282,342,19156,1,2,0:3:0:0:
244,273,19323,2,0,L|235:172,1,76.8,2|0,0:0|0:0,0:0:0:0:
182,140,19656,1,10,0:3:0:0:
104,140,19823,1,10,0:3:0:0:
89,134,19906,1,10,0:3:0:0:
74,128,19989,6,0,L|-2:119,1,67.1999979492188,10|8,0:0|0:3,0:0:0:0:
33,43,20323,1,10,0:3:0:0:
116,18,20489,1,10,0:3:0:0:
200,60,20656,1,10,0:3:0:0:
288,23,20823,1,10,0:0:0:0:
304,20,20906,1,8,0:0:0:0:
320,17,20989,5,10,0:3:0:0:
300,117,21156,1,10,0:0:0:0:
336,14,21323,5,10,0:3:0:0:
391,101,21489,1,10,0:2:0:0:
439,10,21656,1,10,0:2:0:0:
508,163,21823,5,10,0:3:0:0:
391,101,21989,1,10,0:2:0:0:
397,230,22156,1,10,0:2:0:0:
218,138,22323,5,10,0:3:0:0:
198,344,22489,1,14,0:0:0:0:
198,344,22823,5,10,0:3:0:0:
244,278,22989,1,10,0:3:0:0:
278,350,23156,1,2,0:3:0:0:
447,359,23323,5,10,0:3:0:0:
458,332,23406,1,2,0:0:0:0:
458,303,23489,1,10,0:3:0:0:
446,276,23572,1,2,0:0:0:0:
425,256,23656,1,10,0:3:0:0:
397,247,23739,1,2,0:0:0:0:
368,249,23822,1,2,0:0:0:0:
342,262,23906,1,2,0:0:0:0:
324,285,23989,5,14,0:3:0:0:
389,162,24323,1,10,0:3:0:0:
323,57,24656,1,10,0:3:0:0:
323,57,24823,1,2,0:0:0:0:
323,57,24989,1,10,0:3:0:0:
323,57,25156,2,0,L|265:52,1,57.5999982421876,2|8,0:0|0:3,0:0:0:0:
202,105,25489,5,2,0:0:0:0:
202,105,25656,1,10,0:3:0:0:
202,105,25823,2,0,L|144:100,1,57.5999982421876,2|8,0:0|0:3,0:0:0:0:
81,157,26156,5,2,0:0:0:0:
81,157,26323,1,10,0:3:0:0:
81,157,26489,2,0,L|23:152,1,57.5999982421876,2|8,0:0|0:3,0:0:0:0:
47,289,26989,5,10,0:3:0:0:
162,362,27323,1,10,0:3:0:0:
266,275,27656,1,10,0:3:0:0:
266,275,27823,2,0,L|269:217,1,57.5999982421876,2|8,0:0|0:3,0:0:0:0:
339,165,28156,5,2,0:0:0:0:
339,165,28323,1,10,0:3:0:0:
339,165,28489,2,0,L|342:107,1,57.5999982421876,2|8,0:0|0:3,0:0:0:0:
466,33,28989,5,10,0:3:0:0:
509,161,29323,1,10,0:3:0:0:
509,161,29489,2,0,L|512:103,1,57.5999982421876,2|8,0:0|0:3,0:0:0:0:
424,163,29823,2,0,L|428:95,1,57.5999982421876,2|8,0:0|0:3,0:0:0:0:
339,165,30156,2,0,L|343:97,1,57.5999982421876,2|8,0:0|0:3,0:0:0:0:
282,53,30489,5,2,0:0:0:0:
207,84,30656,1,10,0:3:0:0:
134,48,30823,1,2,0:0:0:0:
55,66,30989,1,10,0:3:0:0:
14,136,31156,2,0,L|10:204,1,57.5999982421876,2|8,0:0|0:3,0:0:0:0:
99,328,31656,5,10,0:3:0:0:
265,292,31989,2,0,P|207:270|137:279,1,115.199996484375,10|8,0:3|0:3,0:0:0:0:
103,332,32489,1,2,0:0:0:0:
103,332,32656,2,0,L|105:206,1,115.199996484375,10|8,0:3|0:3,0:0:0:0:
151,148,33156,5,2,0:3:0:0:
232,158,33323,1,10,0:3:0:0:
276,87,33489,1,2,0:3:0:0:
358,101,33656,1,10,0:3:0:0:
425,55,33823,2,0,L|435:-3,1,57.5999982421876,10|4,0:2|0:3,0:0:0:0:
499,112,34156,5,8,0:0:0:0:
499,112,34239,1,8,0:0:0:0:
499,112,34323,1,8,0:0:0:0:
499,224,34489,5,8,0:3:0:0:
499,224,34573,1,8,0:3:0:0:
499,224,34656,2,0,P|451:180|364:203,2,144.000005493164,14|10|10,0:3|0:0|0:3,0:0:0:0:
506,324,35489,1,10,0:0:0:0:
410,356,35656,1,10,0:3:0:0:
339,283,35823,2,0,L|264:269,1,72.0000027465821,14|0,0:3|0:0,0:0:0:0:
101,229,36156,5,10,0:3:0:0:
197,197,36323,1,10,0:0:0:0:
268,270,36489,2,0,L|343:284,1,72.0000027465821,2|8,0:0|0:3,0:0:0:0:
480,247,36823,6,0,P|459:229|444:208,1,36.0000013732911,10|8,0:3|0:0,0:0:0:0:
418,155,36989,2,0,P|415:127|420:101,1,36.0000013732911,10|8,0:0|0:3,0:0:0:0:
442,47,37156,1,14,0:3:0:0:
353,194,37323,5,12,0:3:0:0:
353,194,37656,2,0,L|278:180,1,72.0000027465821,10|8,0:0|0:3,0:0:0:0:
131,151,37989,1,10,0:3:0:0:
211,167,38156,2,0,L|286:181,1,72.0000027465821,10|8,0:3|0:0,0:0:0:0:
445,46,38489,5,6,0:3:0:0:
445,46,38823,1,2,0:0:0:0:
365,67,38989,2,0,L|223:40,1,144.000005493164,10|8,0:0|0:3,0:0:0:0:
76,28,39489,5,10,0:3:0:0:
148,75,39656,1,10,0:0:0:0:
166,168,39823,1,10,0:3:0:0:
166,168,39906,1,8,0:3:0:0:
166,168,39989,1,12,0:3:0:0:
93,306,40156,5,2,0:3:0:0:
97,220,40323,1,10,0:0:0:0:
166,168,40489,2,0,L|247:172,1,72.0000027465821,2|8,0:0|0:3,0:0:0:0:
394,167,40823,5,10,0:3:0:0:
317,205,40989,1,10,0:0:0:0:
238,172,41156,2,0,B|195:164|134:158|134:158|161:149|186:140,1,144.000005493164,14|8,0:3|0:3,0:0:0:0:
308,116,41656,5,10,0:0:0:0:
388,83,41823,2,0,P|400:54|398:10,2,72.0000027465821,2|8|0,0:0|0:3|0:0,0:0:0:0:
346,94,42239,1,8,0:0:0:0:
308,116,42323,6,0,P|296:145|298:189,1,72.0000027465821,8|2,0:3|0:0,0:0:0:0:
324,218,42573,1,8,0:3:0:0:
334,259,42656,5,14,0:3:0:0:
334,259,42989,1,10,0:3:0:0:
256,33,43156,2,0,P|217:29|151:27,1,72.0000027465821,12|2,0:3|0:0,0:0:0:0:
59,242,43656,6,0,P|59:171|56:98,1,144.000005493164,12|0,0:3|0:0,0:0:0:0:
59,242,44156,6,0,P|94:220|160:239,2,96,8|10|8,0:3|0:3|0:3,0:0:0:0:
209,356,44656,6,0,P|255:364|296:341,1,96,10|6,0:3|0:3,0:0:0:0:
321,252,44989,1,10,0:3:0:0:
305,233,45072,1,8,0:3:0:0:
297,211,45155,1,10,0:3:0:0:
297,187,45239,1,8,0:3:0:0:
305,164,45323,5,14,0:3:0:0:
512,30,45656,1,10,0:3:0:0:
400,77,45823,2,0,L|309:67,1,86.3999973632813,2|8,0:0|0:0,0:0:0:0:
201,112,46156,2,0,B|72:99|72:99|122:71,1,172.799994726563,10|10,0:3|0:3,0:0:0:0:
212,3,46656,5,2,0:0:0:0:
314,67,46823,2,0,L|400:77,1,86.3999973632813,2|0,0:0|0:0,0:0:0:0:
201,112,47156,2,0,L|115:102,2,86.3999973632813,10|8|8,0:3|0:0|0:3,0:0:0:0:
374,247,47823,5,2,0:3:0:0:
374,247,47906,1,2,0:3:0:0:
374,247,47989,2,0,P|382:161|399:76,2,172.799994726563,10|10|10,0:3|0:3|0:0,0:0:0:0:
300,344,48823,1,8,0:3:0:0:
187,302,48989,6,0,P|162:296|144:293,1,43.1999986816407,2|2,0:0|0:0,0:0:0:0:
68,333,49156,2,0,P|68:288|61:225,1,86.3999973632813,10|0,0:3|0:0,0:0:0:0:
179,182,49489,6,0,P|204:176|221:173,1,43.1999986816407,10|8,0:0|0:0,0:0:0:0:
298,213,49656,1,8,0:3:0:0:
330,107,49823,1,8,0:3:0:0:
375,253,49989,5,14,0:3:0:0:
375,253,50323,1,10,0:3:0:0:
330,107,50489,1,10,0:3:0:0:
223,256,50656,5,14,0:3:0:0:
274,19,50989,1,10,0:3:0:0:
330,107,51156,2,0,L|416:101,1,86.3999973632813,2|8,0:0|0:3,0:0:0:0:
375,253,51489,5,2,0:0:0:0:
274,184,51656,1,10,0:3:0:0:
153,192,51823,1,2,0:0:0:0:
73,282,51989,6,0,L|69:89,1,172.799994726563,8|8,0:0|0:3,0:0:0:0:
267,25,52489,5,2,0:0:0:0:
274,184,52656,2,0,L|334:180,1,43.1999986816407,10|2,0:3|0:0,0:0:0:0:
434,175,52823,2,0,L|430:110,1,43.1999986816407,2|2,0:0|0:0,0:0:0:0:
426,16,52989,1,10,0:3:0:0:
426,16,53323,5,14,0:0:0:0:
377,233,53489,1,8,0:3:0:0:
431,131,53656,5,8,0:2:0:0:
279,294,53823,1,8,0:3:0:0:
377,233,53989,5,8,0:2:0:0:
163,297,54156,1,8,0:3:0:0:
279,294,54323,5,8,0:2:0:0:
61,241,54489,1,10,0:3:0:0:
53,377,54656,5,14,0:0:0:0:
136,130,54822,1,8,0:3:0:0:
61,241,54989,5,8,0:2:0:0:
256,70,55156,1,8,0:3:0:0:
136,130,55322,5,8,0:2:0:0:
391,81,55489,1,8,0:3:0:0:
256,70,55656,5,8,0:2:0:0:
505,158,55822,1,8,0:3:0:0:
512,26,55989,5,10,0:0:0:0:
312,209,56156,1,8,0:0:0:0:
312,209,56239,1,8,0:0:0:0:
312,209,56323,2,0,L|319:261,1,43.1999986816407,10|0,0:2|0:0,0:1:0:0:
512,165,56489,5,8,0:0:0:0:
512,165,56572,1,8,0:0:0:0:
512,165,56656,2,0,L|505:217,1,43.1999986816407,10|0,0:0|0:0,0:1:0:0:
264,77,56823,1,8,0:0:0:0:
264,77,56906,1,8,0:0:0:0:
264,77,56989,5,10,0:0:0:0:
230,93,57072,1,8,0:0:0:0:
193,87,57155,1,8,0:0:0:0:
166,57,57239,1,8,0:0:0:0:
154,96,57323,5,6,0:0:0:0:
256,192,57406,12,8,59656,1:1:0:0:
34,68,59989,6,0,P|107:58|126:161,1,172.799994726563,14|0,0:3|1:0,0:0:0:0:
120,212,60323,2,0,L|245:202,1,115.199996484375,8|0,0:0|0:0,0:0:0:0:
463,82,60656,5,10,0:3:0:0:
427,58,60739,1,2,0:3:0:0:
384,60,60823,1,10,0:3:0:0:
351,87,60906,1,2,0:3:0:0:
340,128,60989,2,0,L|350:253,1,115.199996484375,10|0,0:0|0:0,0:0:0:0:
508,365,61323,6,0,P|467:337|387:329,1,115.199996484375,14|8,0:3|0:3,0:0:0:0:
222,365,61656,1,10,0:0:0:0:
50,288,61823,1,10,0:3:0:0:
34,281,61906,2,0,L|31:223,1,57.5999982421876,8|0,0:0|0:0,0:0:0:0:
193,144,62156,1,10,0:3:0:0:
176,139,62239,1,8,0:3:0:0:
161,128,62323,1,8,0:0:0:0:
4,29,62489,5,2,0:0:0:0:
21,26,62573,1,2,0:0:0:0:
38,24,62656,2,0,P|62:83|68:151,1,115.199996484375,8|0,0:3|0:0,0:0:0:0:
110,204,62906,1,2,0:0:0:0:
120,217,62989,2,0,P|172:239|229:247,1,115.199996484375,10|0,0:0|0:0,0:0:0:0:
416,315,63323,2,0,P|363:292|306:284,1,115.199996484375,10|8,0:3|0:3,0:0:0:0:
70,375,63656,1,12,0:0:0:0:
76,141,63823,5,10,0:3:0:0:
76,141,63906,1,10,0:3:0:0:
76,141,63989,1,10,0:3:0:0:
8,248,64156,1,8,0:3:0:0:
17,29,64323,1,8,0:0:0:0:
202,146,64489,1,8,0:3:0:0:
205,129,64573,2,0,L|211:65,1,57.5999982421876,8|0,0:0|0:0,0:0:0:0:
84,216,64823,5,10,0:3:0:0:
80,179,64906,1,8,0:3:0:0:
76,141,64989,1,8,0:2:0:0:
189,258,65156,1,10,0:2:0:0:
363,129,65323,6,0,B|299:103|254:151|254:151|230:157|202:146,1,172.799994726563,14|0,0:3|1:0,0:0:0:0:
137,103,65656,1,10,0:0:0:0:
331,209,65823,1,2,0:0:0:0:
331,209,65906,1,2,0:0:0:0:
331,209,65989,2,0,B|363:194|373:171|373:171|366:146|335:129,1,115.199996484375,8|8,0:3|0:3,0:0:0:0:
435,361,66323,5,10,0:0:0:0:
438,317,66406,1,8,0:3:0:0:
442,274,66489,1,8,0:3:0:0:
446,231,66573,1,8,0:3:0:0:
450,189,66656,2,0,B|442:154|420:140|420:140|395:142|372:169,1,115.199996484375,2|8,0:0|0:3,0:0:0:0:
205,306,66989,6,0,B|229:332|254:333|254:333|275:319|281:283,1,115.199996484375,10|8,0:2|0:3,0:0:0:0:
270,200,67239,1,8,0:0:0:0:
261,184,67323,2,0,B|236:157|211:156|211:156|190:170|184:206,1,115.199996484375,2|8,0:2|0:3,0:0:0:0:
104,338,67656,6,0,B|94:372|72:384|72:384|47:381|25:353,1,115.199996484375,10|8,0:2|0:3,0:0:0:0:
44,252,67906,1,8,0:0:0:0:
48,234,67989,6,0,L|54:90,1,144.000005493164,14|0,0:0|0:0,0:0:0:0:
191,8,68323,1,8,0:3:0:0:
324,244,68489,6,0,L|318:101,1,144.000005493164,14|0,0:2|0:0,0:0:0:0:
191,8,68823,1,8,0:3:0:0:
187,187,68989,5,14,0:0:0:0:
123,49,69156,1,8,0:3:0:0:
254,54,69323,1,8,0:3:0:0:
112,137,69489,5,8,0:3:0:0:
83,130,69573,1,8,0:3:0:0:
58,114,69656,1,8,0:0:0:0:
265,142,69823,5,8,0:0:0:0:
293,136,69906,1,8,0:0:0:0:
316,119,69989,1,10,0:0:0:0:
502,51,70156,5,10,0:2:0:0:
469,24,70239,1,8,0:2:0:0:
427,13,70323,1,10,0:2:0:0:
385,19,70406,1,8,0:2:0:0:
348,41,70489,1,10,0:2:0:0:
324,77,70573,1,8,0:2:0:0:
316,118,70656,6,0,P|228:132|196:62,1,172.799994726563,14|0,0:3|1:0,0:0:0:0:
120,122,70989,2,0,L|110:247,1,115.199996484375,8|0,0:0|0:0,0:0:0:0:
271,369,71323,5,10,0:3:0:0:
295,333,71406,1,2,0:0:0:0:
293,290,71489,1,2,0:0:0:0:
266,257,71573,1,2,0:0:0:0:
225,246,71656,2,0,L|100:236,1,115.199996484375,10|0,0:0|0:0,0:0:0:0:
385,19,71989,6,0,L|510:29,1,115.199996484375,14|0,0:3|0:0,0:0:0:0:
256,64,72323,1,10,0:0:0:0:
110,236,72489,2,0,L|120:111,1,115.199996484375,2|8,0:0|0:3,0:0:0:0:
402,236,72823,2,0,L|392:121,1,115.199996484375,2|8,0:0|0:0,0:0:0:0:
14,52,73156,5,2,0:0:0:0:
35,63,73239,1,2,0:0:0:0:
60,72,73323,2,0,P|107:75|164:41,1,115.199996484375,8|0,0:3|0:0,0:0:0:0:
452,72,73656,2,0,P|405:75|348:41,1,115.199996484375,10|0,0:0|0:3,0:0:0:0:
256,192,73989,1,10,0:3:0:0:
256,192,74156,1,8,0:3:0:0:
384,320,74323,1,14,0:0:0:0:
128,320,74489,5,6,0:0:0:0:
128,320,74573,1,2,0:0:0:0:
128,320,74656,2,0,L|118:205,1,115.199996484375,2|8,0:0|0:3,0:0:0:0:
163,41,74989,5,8,0:0:0:0:
256,192,75156,1,12,0:0:0:0:
348,41,75323,5,2,0:0:0:0:
256,96,75489,1,8,0:3:0:0:
375,156,75656,6,8,P|348:146|320:143,1,57.5999982421876,10|8,0:0|0:0,0:0:0:0:
256,192,75823,2,8,P|227:195|200:205,1,57.5999982421876,10|8,0:0|0:0,0:0:0:0:
128,368,75989,6,0,L|137:253,1,115.199996484375,14|8,0:3|0:3,0:0:0:0:
74,111,76323,1,8,0:0:0:0:
41,283,76489,5,10,0:3:0:0:
41,283,76573,1,8,0:3:0:0:
41,283,76656,1,8,0:0:0:0:
74,111,76823,1,10,0:3:0:0:
137,253,76989,5,10,0:0:0:0:
83,90,77156,1,10,0:3:0:0:
221,196,77323,5,10,0:0:0:0:
87,67,77489,1,10,0:3:0:0:
273,110,77656,5,10,0:0:0:0:
86,43,77823,1,10,0:3:0:0:
87,67,77906,1,8,0:3:0:0:
83,90,77989,1,8,0:0:0:0:
0,251,78156,5,10,0:3:0:0:
178,78,78323,1,10,0:0:0:0:
169,286,78489,1,10,0:3:0:0:
157,265,78573,1,8,0:3:0:0:
152,242,78656,1,8,0:0:0:0:
347,169,78823,5,10,0:3:0:0:
235,351,78989,1,10,0:0:0:0:
271,108,79156,1,10,0:3:0:0:
329,331,79323,5,10,0:0:0:0:
436,147,79489,1,10,0:3:0:0:
417,132,79573,1,8,0:3:0:0:
406,111,79656,1,8,0:0:0:0:
187,20,79823,5,10,0:3:0:0:
226,251,79989,1,10,0:0:0:0:
321,25,80156,1,10,0:3:0:0:
109,143,80323,5,10,0:0:0:0:
343,175,80489,1,10,0:3:0:0:
320,181,80573,1,8,0:3:0:0:
297,177,80656,1,8,0:0:0:0:
502,55,80823,6,0,P|448:71|407:111,1,115.199996484375,10|8,0:3|0:0,0:0:0:0:
355,288,81156,1,10,0:3:0:0:
355,288,81239,1,8,0:3:0:0:
355,288,81323,1,12,0:0:0:0:
171,294,81489,1,8,0:3:0:0:
108,120,81656,1,8,0:3:0:0:
254,6,81823,1,8,0:3:0:0:
440,142,81989,5,2,0:0:0:0:
424,125,82073,1,2,0:0:0:0:
406,110,82156,2,0,P|383:96|354:86,1,57.5999982421876,10|2,0:3|0:0,0:0:0:0:
274,87,82323,2,0,P|246:93|220:105,1,57.5999982421876,2|2,0:0|0:0,0:0:0:0:
176,178,82489,2,0,L|170:293,1,115.199996484375,10|8,0:3|0:0,0:0:0:0:
274,87,82823,5,10,0:0:0:0:
176,178,82989,1,2,0:0:0:0:
48,124,83156,2,0,L|42:9,1,115.199996484375,10|0,0:3|0:0,0:0:0:0:
176,178,83489,5,10,0:3:0:0:
48,124,83656,1,14,0:3:0:0:
66,262,83823,1,10,0:3:0:0:
298,234,83989,6,0,L|303:138,1,96,6|0,0:0|0:0,0:0:0:0:
305,123,84239,1,2,0:0:0:0:
307,108,84323,1,2,0:0:0:0:
403,28,84489,1,8,0:3:0:0:
389,31,84573,1,8,0:3:0:0:
377,39,84656,2,0,P|330:36|276:12,1,96,12|0,0:3|0:0,0:0:0:0:
195,83,84989,1,2,0:0:0:0:
77,73,85156,5,2,0:0:0:0:
89,64,85239,1,2,0:0:0:0:
103,62,85323,2,0,P|150:65|204:89,1,96,10|8,0:3|0:3,0:0:0:0:
221,111,85573,1,2,0:0:0:0:
223,149,85656,1,2,0:0:0:0:
225,187,85739,1,2,0:0:0:0:
227,225,85823,1,2,0:0:0:0:
229,263,85906,1,2,0:0:0:0:
209,296,85989,6,0,P|162:306|114:304,1,96,10|0,0:0|0:3,0:0:0:0:
0,367,86323,1,10,0:3:0:0:
0,367,86489,1,10,0:3:0:0:
64,165,86656,5,14,0:0:0:0:
114,304,86823,1,2,0:0:0:0:
261,299,86989,1,10,0:3:0:0:
301,157,87156,2,0,L|314:47,1,105.600003222656,2|8,0:0|0:3,0:0:0:0:
64,165,87489,5,2,0:0:0:0:
178,75,87656,1,10,0:3:0:0:
301,157,87823,2,0,L|423:137,1,105.600003222656,2|8,0:0|0:3,0:0:0:0:
169,166,88156,2,0,L|63:164,1,105.600003222656,2|8,0:0|0:3,0:0:0:0:
63,164,88489,1,2,0:0:0:0:
240,336,88656,6,0,L|239:231,1,105.600003222656,10|0,0:3|0:0,0:0:0:0:
405,139,88989,1,10,0:3:0:0:
429,34,89156,1,10,0:3:0:0:
310,135,89323,5,14,0:0:0:0:
313,117,89489,1,2,0:0:0:0:
210,162,89656,1,10,0:3:0:0:
226,123,89823,1,2,0:0:0:0:
101,153,89989,1,10,0:3:0:0:
149,87,90156,1,2,0:0:0:0:
0,89,90323,1,10,0:3:0:0:
90,25,90489,1,2,0:0:0:0:
116,178,90656,5,10,0:3:0:0:
149,87,90823,1,2,0:0:0:0:
230,202,90989,1,10,0:3:0:0:
226,123,91156,1,2,0:0:0:0:
331,170,91323,1,10,0:3:0:0:
310,135,91489,1,2,0:0:0:0:
454,107,91656,6,0,P|419:106|384:114,1,70.4000021484376,10|8,0:3|0:3,0:0:0:0:
406,185,91823,2,0,P|433:184|461:179,1,52.8000016113282,10|8,0:0|0:0,0:0:0:0:
331,59,91989,5,14,0:2:0:0:
230,202,92156,1,10,0:3:0:0:
155,44,92323,1,10,0:3:0:0:
45,205,92489,2,0,L|43:94,1,105.600003222656,2|8,0:0|0:3,0:0:0:0:
146,261,92823,5,2,0:0:0:0:
220,109,92989,1,10,0:3:0:0:
310,260,93156,1,10,0:3:0:0:
310,260,93239,1,8,0:3:0:0:
310,260,93323,1,8,0:0:0:0:
443,107,93489,5,2,0:0:0:0:
273,183,93656,1,10,0:3:0:0:
364,6,93823,2,0,B|339:37|339:37|338:103,1,105.600003222656,10|8,0:3|0:3,0:0:0:0:
447,236,94156,6,8,P|423:230|386:224,1,52.8000016113282,10|8,0:0|0:0,0:0:0:0:
310,260,94323,1,10,0:2:0:0:
136,159,94489,6,8,P|160:153|197:147,1,52.8000016113282,10|8,0:0|0:0,0:0:0:0:
273,183,94656,1,14,0:3:0:0:
200,62,94823,1,10,0:0:0:0:
119,244,94989,1,10,0:0:0:0:
77,49,95156,5,10,0:0:0:0:
119,244,95323,1,10,0:0:0:0:
200,62,95489,1,10,0:0:0:0:
27,161,95656,1,10,0:0:0:0:
225,182,95823,5,10,0:0:0:0:
226,176,95878,5,2,0:0:0:0:
227,170,95934,5,2,0:0:0:0:
228,164,95989,5,6,0:0:0:0:
256,192,96073,12,0,98656,1:0:0:0:
